  0
SECTION
  2
HEADER
  9
$ACADVER
  1
AC1021
  9
$ACADMAINTVER
 70
    25
  9
$DWGCODEPAGE
  3
ANSI_1252
  9
$INSBASE
 10
0.0
 20
0.0
 30
0.0
  9
$EXTMIN
 10
0.0
 20
0.0
 30
0.0
  9
$EXTMAX
 10
215.9
 20
279.4
 30
0.0
  9
$LIMMIN
 10
0.0
 20
0.0
  9
$LIMMAX
 10
215.9
 20
279.4
  9
$ORTHOMODE
 70
     0
  9
$REGENMODE
 70
     1
  9
$FILLMODE
 70
     1
  9
$QTEXTMODE
 70
     0
  9
$MIRRTEXT
 70
     1
  9
$LTSCALE
 40
1.0
  9
$ATTMODE
 70
     1
  9
$TEXTSIZE
 40
2.5
  9
$TRACEWID
 40
1.0
  9
$TEXTSTYLE
  7
Standard
  9
$CLAYER
  8
0
  9
$CELTYPE
  6
ByLayer
  9
$CECOLOR
 62
   256
  9
$CELTSCALE
 40
1.0
  9
$DISPSILH
 70
     0
  9
$DIMSCALE
 40
1.0
  9
$DIMASZ
 40
2.5
  9
$DIMEXO
 40
0.625
  9
$DIMDLI
 40
3.75
  9
$DIMRND
 40
0.0
  9
$DIMDLE
 40
0.0
  9
$DIMEXE
 40
1.25
  9
$DIMTP
 40
0.0
  9
$DIMTM
 40
0.0
  9
$DIMTXT
 40
2.5
  9
$DIMCEN
 40
2.5
  9
$DIMTSZ
 40
0.0
  9
$DIMTOL
 70
     0
  9
$DIMLIM
 70
     0
  9
$DIMTIH
 70
     0
  9
$DIMTOH
 70
     0
  9
$DIMSE1
 70
     0
  9
$DIMSE2
 70
     0
  9
$DIMTAD
 70
     1
  9
$DIMZIN
 70
     8
  9
$DIMBLK
  1

  9
$DIMASO
 70
     1
  9
$DIMSHO
 70
     1
  9
$DIMPOST
  1

  9
$DIMAPOST
  1

  9
$DIMALT
 70
     0
  9
$DIMALTD
 70
     3
  9
$DIMALTF
 40
0.0393700787
  9
$DIMLFAC
 40
1.0
  9
$DIMTOFL
 70
     1
  9
$DIMTVP
 40
0.0
  9
$DIMTIX
 70
     0
  9
$DIMSOXD
 70
     0
  9
$DIMSAH
 70
     0
  9
$DIMBLK1
  1

  9
$DIMBLK2
  1

  9
$DIMSTYLE
  2
ISO-25
  9
$DIMCLRD
 70
     0
  9
$DIMCLRE
 70
     0
  9
$DIMCLRT
 70
     0
  9
$DIMTFAC
 40
1.0
  9
$DIMGAP
 40
0.625
  9
$DIMJUST
 70
     0
  9
$DIMSD1
 70
     0
  9
$DIMSD2
 70
     0
  9
$DIMTOLJ
 70
     0
  9
$DIMTZIN
 70
     8
  9
$DIMALTZ
 70
     0
  9
$DIMALTTZ
 70
     0
  9
$DIMUPT
 70
     0
  9
$DIMDEC
 70
     2
  9
$DIMTDEC
 70
     2
  9
$DIMALTU
 70
     2
  9
$DIMALTTD
 70
     3
  9
$DIMTXSTY
  7
Standard
  9
$DIMAUNIT
 70
     0
  9
$DIMADEC
 70
     0
  9
$DIMALTRND
 40
0.0
  9
$DIMAZIN
 70
     0
  9
$DIMDSEP
 70
    44
  9
$DIMATFIT
 70
     3
  9
$DIMFRAC
 70
     0
  9
$DIMLDRBLK
  1

  9
$DIMLUNIT
 70
     2
  9
$DIMLWD
 70
    -2
  9
$DIMLWE
 70
    -2
  9
$DIMTMOVE
 70
     0
  9
$DIMFXL
 40
1.0
  9
$DIMFXLON
 70
     0
  9
$DIMJOGANG
 40
0.7853981634
  9
$DIMTFILL
 70
     0
  9
$DIMTFILLCLR
 70
     0
  9
$DIMARCSYM
 70
     0
  9
$DIMLTYPE
  6

  9
$DIMLTEX1
  6

  9
$DIMLTEX2
  6

  9
$LUNITS
 70
     2
  9
$LUPREC
 70
     4
  9
$SKETCHINC
 40
1.0
  9
$FILLETRAD
 40
10.0
  9
$AUNITS
 70
     0
  9
$AUPREC
 70
     0
  9
$MENU
  1
.
  9
$ELEVATION
 40
0.0
  9
$PELEVATION
 40
0.0
  9
$THICKNESS
 40
0.0
  9
$LIMCHECK
 70
     0
  9
$CHAMFERA
 40
0.0
  9
$CHAMFERB
 40
0.0
  9
$CHAMFERC
 40
0.0
  9
$CHAMFERD
 40
0.0
  9
$SKPOLY
 70
     0
  9
$TDCREATE
 40
2457239.469141215
  9
$TDUCREATE
 40
2457239.385807882
  9
$TDUPDATE
 40
2457239.469144306
  9
$TDUUPDATE
 40
2457239.385810972
  9
$TDINDWG
 40
0.0000000116
  9
$TDUSRTIMER
 40
0.0000000116
  9
$USRTIMER
 70
     1
  9
$ANGBASE
 50
0.0
  9
$ANGDIR
 70
     0
  9
$PDMODE
 70
     0
  9
$PDSIZE
 40
0.0
  9
$PLINEWID
 40
0.0
  9
$SPLFRAME
 70
     0
  9
$SPLINETYPE
 70
     6
  9
$SPLINESEGS
 70
     8
  9
$HANDSEED
  5
381
  9
$SURFTAB1
 70
     6
  9
$SURFTAB2
 70
     6
  9
$SURFTYPE
 70
     6
  9
$SURFU
 70
     6
  9
$SURFV
 70
     6
  9
$UCSBASE
  2

  9
$UCSNAME
  2

  9
$UCSORG
 10
0.0
 20
0.0
 30
0.0
  9
$UCSXDIR
 10
1.0
 20
0.0
 30
0.0
  9
$UCSYDIR
 10
0.0
 20
1.0
 30
0.0
  9
$UCSORTHOREF
  2

  9
$UCSORTHOVIEW
 70
     0
  9
$UCSORGTOP
 10
0.0
 20
0.0
 30
0.0
  9
$UCSORGBOTTOM
 10
0.0
 20
0.0
 30
0.0
  9
$UCSORGLEFT
 10
0.0
 20
0.0
 30
0.0
  9
$UCSORGRIGHT
 10
0.0
 20
0.0
 30
0.0
  9
$UCSORGFRONT
 10
0.0
 20
0.0
 30
0.0
  9
$UCSORGBACK
 10
0.0
 20
0.0
 30
0.0
  9
$PUCSBASE
  2

  9
$PUCSNAME
  2

  9
$PUCSORG
 10
0.0
 20
0.0
 30
0.0
  9
$PUCSXDIR
 10
1.0
 20
0.0
 30
0.0
  9
$PUCSYDIR
 10
0.0
 20
1.0
 30
0.0
  9
$PUCSORTHOREF
  2

  9
$PUCSORTHOVIEW
 70
     0
  9
$PUCSORGTOP
 10
0.0
 20
0.0
 30
0.0
  9
$PUCSORGBOTTOM
 10
0.0
 20
0.0
 30
0.0
  9
$PUCSORGLEFT
 10
0.0
 20
0.0
 30
0.0
  9
$PUCSORGRIGHT
 10
0.0
 20
0.0
 30
0.0
  9
$PUCSORGFRONT
 10
0.0
 20
0.0
 30
0.0
  9
$PUCSORGBACK
 10
0.0
 20
0.0
 30
0.0
  9
$USERI1
 70
     0
  9
$USERI2
 70
     0
  9
$USERI3
 70
     0
  9
$USERI4
 70
     0
  9
$USERI5
 70
     0
  9
$USERR1
 40
0.0
  9
$USERR2
 40
0.0
  9
$USERR3
 40
0.0
  9
$USERR4
 40
0.0
  9
$USERR5
 40
0.0
  9
$WORLDVIEW
 70
     1
  9
$SHADEDGE
 70
     3
  9
$SHADEDIF
 70
    70
  9
$TILEMODE
 70
     1
  9
$MAXACTVP
 70
    64
  9
$PINSBASE
 10
0.0
 20
0.0
 30
0.0
  9
$PLIMCHECK
 70
     0
  9
$PEXTMIN
 10
0.0
 20
0.0
 30
0.0
  9
$PEXTMAX
 10
215.9
 20
279.4
 30
0.0
  9
$PLIMMIN
 10
0.0
 20
0.0
  9
$PLIMMAX
 10
215.9
 20
279.4
  9
$UNITMODE
 70
     0
  9
$VISRETAIN
 70
     1
  9
$PLINEGEN
 70
     0
  9
$PSLTSCALE
 70
     1
  9
$TREEDEPTH
 70
  3020
  9
$CMLSTYLE
  2
Standard
  9
$CMLJUST
 70
     0
  9
$CMLSCALE
 40
20.0
  9
$PROXYGRAPHICS
 70
     1
  9
$MEASUREMENT
 70
     1
  9
$CELWEIGHT
370
    -1
  9
$ENDCAPS
280
     0
  9
$JOINSTYLE
280
     0
  9
$LWDISPLAY
290
     0
  9
$INSUNITS
 70
     4
  9
$HYPERLINKBASE
  1

  9
$STYLESHEET
  1

  9
$XEDIT
290
     1
  9
$CEPSNTYPE
380
     0
  9
$PSTYLEMODE
290
     1
  9
$FINGERPRINTGUID
  2
{D97B8E5A-8236-4F8C-ADDD-A4DF43474741}
  9
$VERSIONGUID
  2
{FAEB1C32-E019-11D5-929B-00C0DF256EC4}
  9
$EXTNAMES
290
     1
  9
$PSVPSCALE
 40
0.0
  9
$OLESTARTUP
290
     0
  9
$SORTENTS
280
   127
  9
$INDEXCTL
280
     0
  9
$HIDETEXT
280
     1
  9
$XCLIPFRAME
290
     0
  9
$HALOGAP
280
     0
  9
$OBSCOLOR
 70
   257
  9
$OBSLTYPE
280
     0
  9
$INTERSECTIONDISPLAY
280
     0
  9
$INTERSECTIONCOLOR
 70
   257
  9
$DIMASSOC
280
     2
  9
$PROJECTNAME
  1

  9
$CAMERADISPLAY
290
     0
  9
$LENSLENGTH
 40
50.0
  9
$CAMERAHEIGHT
 40
0.0
  9
$STEPSPERSEC
 40
2.0
  9
$STEPSIZE
 40
6.0
  9
$3DDWFPREC
 40
2.0
  9
$PSOLWIDTH
 40
5.0
  9
$PSOLHEIGHT
 40
80.0
  9
$LOFTANG1
 40
1.5707963268
  9
$LOFTANG2
 40
1.5707963268
  9
$LOFTMAG1
 40
0.0
  9
$LOFTMAG2
 40
0.0
  9
$LOFTPARAM
 70
     7
  9
$LOFTNORMALS
280
     1
  9
$LATITUDE
 40
37.795
  9
$LONGITUDE
 40
-122.394
  9
$NORTHDIRECTION
 40
0.0
  9
$TIMEZONE
 70
 -8000
  9
$LIGHTGLYPHDISPLAY
280
     1
  9
$TILEMODELIGHTSYNCH
280
     1
  9
$CMATERIAL
347
44
  9
$SOLIDHIST
280
     0
  9
$SHOWHIST
280
     1
  9
$DWFFRAME
280
     2
  9
$DGNFRAME
280
     2
  9
$REALWORLDSCALE
290
     1
  9
$INTERFERECOLOR
 62
   256
  9
$CSHADOW
280
     0
  9
$SHADOWPLANELOCATION
 40
0.0
  0
ENDSEC
  0
SECTION
  2
CLASSES
  0
CLASS
  1
ACDBDICTIONARYWDFLT
  2
AcDbDictionaryWithDefault
  3
ObjectDBX Classes
 90
        0
 91
        4
280
     0
281
     0
  0
CLASS
  1
VISUALSTYLE
  2
AcDbVisualStyle
  3
ObjectDBX Classes
 90
     4095
 91
        4
280
     0
281
     0
  0
CLASS
  1
MATERIAL
  2
AcDbMaterial
  3
ObjectDBX Classes
 90
     1153
 91
        4
280
     0
281
     0
  0
CLASS
  1
SCALE
  2
AcDbScale
  3
ObjectDBX Classes
 90
     1153
 91
        4
280
     0
281
     0
  0
CLASS
  1
TABLESTYLE
  2
AcDbTableStyle
  3
ObjectDBX Classes
 90
     4095
 91
        4
280
     0
281
     0
  0
CLASS
  1
MLEADERSTYLE
  2
AcDbMLeaderStyle
  3
ACDB_MLEADERSTYLE_CLASS
 90
     4095
 91
        4
280
     0
281
     0
  0
CLASS
  1
SUN
  2
AcDbSun
  3
SCENEOE
 90
     1153
 91
        4
280
     0
281
     0
  0
CLASS
  1
DICTIONARYVAR
  2
AcDbDictionaryVar
  3
ObjectDBX Classes
 90
        0
 91
        4
280
     0
281
     0
  0
CLASS
  1
CELLSTYLEMAP
  2
AcDbCellStyleMap
  3
ObjectDBX Classes
 90
     1152
 91
        4
280
     0
281
     0
  0
ENDSEC
  0
SECTION
  2
TABLES
  0
TABLE
  2
VPORT
  5
8
330
0
100
AcDbSymbolTable
 70
     1
  0
VPORT
  5
29
330
8
100
AcDbSymbolTableRecord
100
AcDbViewportTableRecord
  2
*Active
 70
     0
 10
0.0
 20
0.0
 11
1.0
 21
1.0
 12
344.1869158879
 22
148.5
 13
0.0
 23
0.0
 14
10.0
 24
10.0
 15
10.0
 25
10.0
 16
0.0
 26
0.0
 36
1.0
 17
0.0
 27
0.0
 37
0.0
 40
297.0
 41
1.9729729729
 42
50.0
 43
0.0
 44
0.0
 50
0.0
 51
0.0
 71
     0
 72
   100
 73
     1
 74
     3
 75
     0
 76
     0
 77
     0
 78
     0
281
     0
 65
     1
110
0.0
120
0.0
130
0.0
111
1.0
121
0.0
131
0.0
112
0.0
122
1.0
132
0.0
 79
     0
146
0.0
 60
     3
 61
     5
292
     1
282
     1
141
0.0
142
0.0
 63
   250
361
6D
  0
ENDTAB
  0
TABLE
  2
LTYPE
  5
5
330
0
100
AcDbSymbolTable
 70
     2
  0
LTYPE
  5
14
330
5
100
AcDbSymbolTableRecord
100
AcDbLinetypeTableRecord
  2
ByBlock
 70
     0
  3

 72
    65
 73
     0
 40
0.0
  0
LTYPE
  5
15
330
5
100
AcDbSymbolTableRecord
100
AcDbLinetypeTableRecord
  2
ByLayer
 70
     0
  3

 72
    65
 73
     0
 40
0.0
  0
LTYPE
  5
16
330
5
100
AcDbSymbolTableRecord
100
AcDbLinetypeTableRecord
  2
Continuous
 70
     0
  3
Solid line
 72
    65
 73
     0
 40
0.0
  0
LTYPE
  5
AB
330
5
100
AcDbSymbolTableRecord
100
AcDbLinetypeTableRecord
  2
HIDDEN2
 70
     0
  3
Hidden (.5x) _ _ _ _ _ _ _ _ _ _ _ _ _ _ _ _ _ 
 72
    65
 73
     2
 40
4.7625
 49
3.175
 74
     4
 75
     0
340
0
 46
0.0
 50
0.0
 44
0.0
 45
0.0
 49
-1.5875
 74
     4
 75
     0
340
0
 46
0.0
 50
0.0
 44
0.0
 45
0.0
  0
ENDTAB
  0
TABLE
  2
LAYER
  5
2
330
0
100
AcDbSymbolTable
 70
     9
  0
LAYER
  5
10
330
2
100
AcDbSymbolTableRecord
100
AcDbLayerTableRecord
  2
0
 70
     0
 62
     7
  6
Continuous
370
    -3
390
F
347
46
  0
LAYER
  5
6E
330
2
100
AcDbSymbolTableRecord
100
AcDbLayerTableRecord
  2
Standard
 70
     0
 62
     7
  6
Continuous
370
    -3
390
F
347
46
  0
LAYER
  5
71
330
2
100
AcDbSymbolTableRecord
100
AcDbLayerTableRecord
  2
AP_391
 70
     0
 62
     7
  6
Continuous
370
    -3
390
F
347
46
  0
LAYER
  5
A5
330
2
100
AcDbSymbolTableRecord
100
AcDbLayerTableRecord
  2
AP_390
 70
     0
 62
     7
  6
Continuous
370
    -3
390
F
347
46
  0
LAYER
  5
C9
330
2
100
AcDbSymbolTableRecord
100
AcDbLayerTableRecord
  2
AJ_145
 70
     0
 62
     7
  6
Continuous
370
    -3
390
F
347
46
  0
LAYER
  5
D4
330
2
100
AcDbSymbolTableRecord
100
AcDbLayerTableRecord
  2
AJ_146
 70
     0
 62
     7
  6
Continuous
370
    -3
390
F
347
46
  0
LAYER
  5
DD
330
2
100
AcDbSymbolTableRecord
100
AcDbLayerTableRecord
  2
AP_392_215MM
 70
     0
 62
     7
  6
Continuous
370
    -3
390
F
347
46
  0
LAYER
  5
10A
330
2
100
AcDbSymbolTableRecord
100
AcDbLayerTableRecord
  2
AW_065
 70
     0
 62
     7
  6
Continuous
370
    -3
390
F
347
46
  0
LAYER
  5
117
330
2
100
AcDbSymbolTableRecord
100
AcDbLayerTableRecord
  2
3MM_SCHRAUBE_X_1
 70
     0
 62
     7
  6
Continuous
370
    -3
390
F
347
46
  0
ENDTAB
  0
TABLE
  2
STYLE
  5
3
330
0
100
AcDbSymbolTable
 70
     2
  0
STYLE
  5
11
330
3
100
AcDbSymbolTableRecord
100
AcDbTextStyleTableRecord
  2
Standard
 70
     0
 40
0.0
 41
1.0
 50
0.0
 71
     0
 42
2.5
  3
txt
  4

  0
STYLE
  5
13E
330
3
100
AcDbSymbolTableRecord
100
AcDbTextStyleTableRecord
  2
SEACAD_Arial
 70
     0
 40
0.0
 41
1.0
 50
0.0
 71
     0
 42
2.5
  3
arial.ttf
  4

1001
ACAD
1000
Arial
1071
        0
  0
ENDTAB
  0
TABLE
  2
VIEW
  5
6
330
0
100
AcDbSymbolTable
 70
     0
  0
ENDTAB
  0
TABLE
  2
UCS
  5
7
330
0
100
AcDbSymbolTable
 70
     0
  0
ENDTAB
  0
TABLE
  2
APPID
  5
9
330
0
100
AcDbSymbolTable
 70
     2
  0
APPID
  5
12
330
9
100
AcDbSymbolTableRecord
100
AcDbRegAppTableRecord
  2
ACAD
 70
     0
  0
APPID
  5
379
330
9
100
AcDbSymbolTableRecord
100
AcDbRegAppTableRecord
  2
ACAD_MLEADERVER
 70
     0
  0
ENDTAB
  0
TABLE
  2
DIMSTYLE
  5
A
330
0
100
AcDbSymbolTable
 70
     3
100
AcDbDimStyleTable
  0
DIMSTYLE
105
27
330
A
100
AcDbSymbolTableRecord
100
AcDbDimStyleTableRecord
  2
ISO-25
 70
     0
 41
2.5
 42
0.625
 43
3.75
 44
1.25
 73
     0
 74
     0
 77
     1
 78
     8
140
2.5
141
2.5
143
0.0393700787
147
0.625
171
     3
172
     1
178
     0
271
     2
272
     2
274
     3
278
    44
283
     0
284
     8
340
11
  0
DIMSTYLE
105
12B
330
A
100
AcDbSymbolTableRecord
100
AcDbDimStyleTableRecord
  2
Standard
 70
     0
178
     0
340
11
  0
DIMSTYLE
105
13F
102
{ACAD_REACTORS
330
140
330
14A
330
1E7
330
1F1
102
}
330
A
100
AcDbSymbolTableRecord
100
AcDbDimStyleTableRecord
  2
E-Katalog
 70
     0
 41
3.75
 42
0.75
 44
1.25
 73
     0
 74
     0
 77
     1
 78
     8
140
2.5
141
1.25
147
1.25
172
     1
173
     1
178
     0
271
     2
272
     2
278
    44
284
     8
340
13E
343
138
344
138
  0
ENDTAB
  0
TABLE
  2
BLOCK_RECORD
  5
1
330
0
100
AcDbSymbolTable
 70
    12
  0
BLOCK_RECORD
  5
1F
330
1
100
AcDbSymbolTableRecord
100
AcDbBlockTableRecord
  2
*Model_Space
340
22
 70
     0
280
     1
281
     0
  0
BLOCK_RECORD
  5
1B
330
1
100
AcDbSymbolTableRecord
100
AcDbBlockTableRecord
  2
*Paper_Space
340
1E
 70
     0
280
     1
281
     0
  0
BLOCK_RECORD
  5
6F
330
1
100
AcDbSymbolTableRecord
100
AcDbBlockTableRecord
  2
SE
340
0
102
{BLKREFS
331
70
102
}
 70
     0
280
     1
281
     0
  0
BLOCK_RECORD
  5
12C
330
1
100
AcDbSymbolTableRecord
100
AcDbBlockTableRecord
  2
_OBLIQUE
340
0
 70
     0
280
     1
281
     0
  0
BLOCK_RECORD
  5
130
330
1
100
AcDbSymbolTableRecord
100
AcDbBlockTableRecord
  2
_DOT
340
0
 70
     0
280
     1
281
     0
  0
BLOCK_RECORD
  5
138
330
1
100
AcDbSymbolTableRecord
100
AcDbBlockTableRecord
  2
_SE_OPEN
340
0
 70
     0
280
     1
281
     0
  0
BLOCK_RECORD
  5
141
330
1
100
AcDbSymbolTableRecord
100
AcDbBlockTableRecord
  2
DMBLK69
340
0
 70
     0
280
     1
281
     0
  0
BLOCK_RECORD
  5
14B
330
1
100
AcDbSymbolTableRecord
100
AcDbBlockTableRecord
  2
DMBLK70
340
0
 70
     0
280
     1
281
     0
  0
BLOCK_RECORD
  5
154
330
1
100
AcDbSymbolTableRecord
100
AcDbBlockTableRecord
  2
SE1
340
0
102
{BLKREFS
331
155
102
}
 70
     0
280
     1
281
     0
  0
BLOCK_RECORD
  5
1E8
330
1
100
AcDbSymbolTableRecord
100
AcDbBlockTableRecord
  2
DMBLK71
340
0
 70
     0
280
     1
281
     0
  0
BLOCK_RECORD
  5
1F2
330
1
100
AcDbSymbolTableRecord
100
AcDbBlockTableRecord
  2
DMBLK72
340
0
 70
     0
280
     1
281
     0
  0
BLOCK_RECORD
  5
1FB
330
1
100
AcDbSymbolTableRecord
100
AcDbBlockTableRecord
  2
SE2
340
0
102
{BLKREFS
331
1FC
102
}
 70
     0
280
     1
281
     0
  0
BLOCK_RECORD
  5
28E
330
1
100
AcDbSymbolTableRecord
100
AcDbBlockTableRecord
  2
SE3
340
0
102
{BLKREFS
331
28F
102
}
 70
     0
280
     1
281
     0
  0
ENDTAB
  0
ENDSEC
  0
SECTION
  2
BLOCKS
  0
BLOCK
  5
20
330
1F
100
AcDbEntity
  8
0
100
AcDbBlockBegin
  2
*Model_Space
 70
     0
 10
0.0
 20
0.0
 30
0.0
  3
*Model_Space
  1
*Model_Space
  0
ENDBLK
  5
21
330
1F
100
AcDbEntity
  8
0
100
AcDbBlockEnd
  0
BLOCK
  5
1C
330
1B
100
AcDbEntity
 67
     1
  8
0
100
AcDbBlockBegin
  2
*Paper_Space
 70
     0
 10
0.0
 20
0.0
 30
0.0
  3
*Paper_Space
  1
*Paper_Space
  0
ENDBLK
  5
1D
330
1B
100
AcDbEntity
 67
     1
  8
0
100
AcDbBlockEnd
  0
BLOCK
  5
129
330
6F
100
AcDbEntity
  8
0
100
AcDbBlockBegin
  2
SE
 70
     0
 10
0.0
 20
0.0
 30
0.0
  3
SE
  1
SE
  0
ARC
  5
72
330
6F
100
AcDbEntity
  8
AP_391
  6
Continuous
 62
     7
100
AcDbCircle
 10
63.6351336396
 20
120.5922491897
 30
0.0
 40
0.2000000000000023
100
AcDbArc
 50
60.0
 51
89.9999999992
  0
LINE
  5
73
330
6F
100
AcDbEntity
  8
AP_391
  6
Continuous
 62
     7
100
AcDbLine
 10
62.9963445618
 20
120.7922491897
 30
0.0
 11
63.6351336396
 21
120.7922491897
 31
0.0
  0
ARC
  5
74
330
6F
100
AcDbEntity
  8
AP_391
  6
Continuous
 62
     7
100
AcDbCircle
 10
62.9963445618
 20
120.5922491897
 30
0.0
 40
0.200000000006504
100
AcDbArc
 50
90.000000001
 51
180.0
  0
LINE
  5
75
330
6F
100
AcDbEntity
  8
AP_391
  6
Continuous
 62
     7
100
AcDbLine
 10
62.7963445618
 20
119.9922491898
 30
0.0
 11
62.7963445618
 21
120.5922491897
 31
0.0
  0
ARC
  5
76
330
6F
100
AcDbEntity
  8
AP_391
  6
Continuous
 62
     7
100
AcDbCircle
 10
62.9963445618
 20
119.9922491898
 30
0.0
 40
0.199999999993497
100
AcDbArc
 50
180.0
 51
270.0
  0
LINE
  5
77
330
6F
100
AcDbEntity
  8
AP_391
  6
Continuous
 62
     7
100
AcDbLine
 10
63.5963445618
 20
119.7922491898
 30
0.0
 11
62.9963445618
 21
119.7922491898
 31
0.0
  0
ARC
  5
78
330
6F
100
AcDbEntity
  8
AP_391
  6
Continuous
 62
     7
100
AcDbCircle
 10
63.5963445618
 20
119.5922491898
 30
0.0
 40
0.1999999999911439
100
AcDbArc
 50
0.0
 51
90.0
  0
LINE
  5
79
330
6F
100
AcDbEntity
  8
AP_391
  6
Continuous
 62
     7
100
AcDbLine
 10
63.7963445618
 20
118.4922491898
 30
0.0
 11
63.7963445618
 21
119.5922491898
 31
0.0
  0
ARC
  5
7A
330
6F
100
AcDbEntity
  8
AP_391
  6
Continuous
 62
     7
100
AcDbCircle
 10
63.5963445618
 20
118.4922491898
 30
0.0
 40
0.1999999999999988
100
AcDbArc
 50
270.0
 51
0.0
  0
LINE
  5
7B
330
6F
100
AcDbEntity
  8
AP_391
  6
Continuous
 62
     7
100
AcDbLine
 10
61.6601868182
 20
118.2922491898
 30
0.0
 11
63.5963445618
 21
118.2922491898
 31
0.0
  0
LINE
  5
7C
330
6F
100
AcDbEntity
  8
AP_391
  6
Continuous
 62
     7
100
AcDbLine
 10
60.7941614144
 20
116.7922491898
 30
0.0
 11
61.6601868182
 21
118.2922491898
 31
0.0
  0
LINE
  5
7D
330
6F
100
AcDbEntity
  8
AP_391
  6
Continuous
 62
     7
100
AcDbLine
 10
59.9985277092
 20
116.7922491898
 30
0.0
 11
60.7941614144
 21
116.7922491898
 31
0.0
  0
LINE
  5
7E
330
6F
100
AcDbEntity
  8
AP_391
  6
Continuous
 62
     7
100
AcDbLine
 10
59.1325023054
 20
118.2922491898
 30
0.0
 11
59.9985277092
 21
116.7922491898
 31
0.0
  0
LINE
  5
7F
330
6F
100
AcDbEntity
  8
AP_391
  6
Continuous
 62
     7
100
AcDbLine
 10
57.1963445618
 20
118.2922491898
 30
0.0
 11
59.1325023054
 21
118.2922491898
 31
0.0
  0
ARC
  5
80
330
6F
100
AcDbEntity
  8
AP_391
  6
Continuous
 62
     7
100
AcDbCircle
 10
57.1963445618
 20
118.4922491898
 30
0.0
 40
0.1999999999999988
100
AcDbArc
 50
180.0
 51
270.0
  0
LINE
  5
81
330
6F
100
AcDbEntity
  8
AP_391
  6
Continuous
 62
     7
100
AcDbLine
 10
56.9963445618
 20
119.5922491898
 30
0.0
 11
56.9963445618
 21
118.4922491898
 31
0.0
  0
ARC
  5
82
330
6F
100
AcDbEntity
  8
AP_391
  6
Continuous
 62
     7
100
AcDbCircle
 10
57.1963445618
 20
119.5922491898
 30
0.0
 40
0.1999999999911448
100
AcDbArc
 50
90.0
 51
180.0
  0
LINE
  5
83
330
6F
100
AcDbEntity
  8
AP_391
  6
Continuous
 62
     7
100
AcDbLine
 10
57.7963445618
 20
119.7922491898
 30
0.0
 11
57.1963445618
 21
119.7922491898
 31
0.0
  0
ARC
  5
84
330
6F
100
AcDbEntity
  8
AP_391
  6
Continuous
 62
     7
100
AcDbCircle
 10
57.7963445618
 20
119.9922491898
 30
0.0
 40
0.1999999999999988
100
AcDbArc
 50
270.0
 51
0.0
  0
LINE
  5
85
330
6F
100
AcDbEntity
  8
AP_391
  6
Continuous
 62
     7
100
AcDbLine
 10
57.9963445618
 20
120.5922491897
 30
0.0
 11
57.9963445618
 21
119.9922491898
 31
0.0
  0
ARC
  5
86
330
6F
100
AcDbEntity
  8
AP_391
  6
Continuous
 62
     7
100
AcDbCircle
 10
57.7963445618
 20
120.5922491897
 30
0.0
 40
0.1999999999999988
100
AcDbArc
 50
0.0
 51
90.0
  0
LINE
  5
87
330
6F
100
AcDbEntity
  8
AP_391
  6
Continuous
 62
     7
100
AcDbLine
 10
57.157555484
 20
120.7922491897
 30
0.0
 11
57.7963445618
 21
120.7922491897
 31
0.0
  0
ARC
  5
88
330
6F
100
AcDbEntity
  8
AP_391
  6
Continuous
 62
     7
100
AcDbCircle
 10
57.157555484
 20
120.5922491897
 30
0.0
 40
0.2000000000000016
100
AcDbArc
 50
90.0
 51
120.0
  0
LINE
  5
89
330
6F
100
AcDbEntity
  8
AP_391
  6
Continuous
 62
     7
100
AcDbLine
 10
55.9963445618
 20
120.1527638588
 30
0.0
 11
57.057555484
 21
120.7654542704
 31
0.0
  0
LINE
  5
8A
330
6F
100
AcDbEntity
  8
AP_391
  6
Continuous
 62
     7
100
AcDbLine
 10
55.9963445618
 20
118.0466545156
 30
0.0
 11
55.9963445618
 21
120.1527638588
 31
0.0
  0
LINE
  5
8B
330
6F
100
AcDbEntity
  8
AP_391
  6
Continuous
 62
     7
100
AcDbLine
 10
56.9327432937
 20
117.1102557837
 30
0.0
 11
56.7885777434
 21
117.254421334
 31
0.0
  0
LINE
  5
8C
330
6F
100
AcDbEntity
  8
AP_391
  6
Continuous
 62
     7
100
AcDbLine
 10
56.2232741354
 20
117.819724942
 30
0.0
 11
55.9963445618
 21
118.0466545156
 31
0.0
  0
ARC
  5
8D
330
6F
100
AcDbEntity
  8
AP_391
  6
Continuous
 62
     7
100
AcDbCircle
 10
57.0741646499
 20
117.2516771399
 30
0.0
 40
0.2000000000000003
100
AcDbArc
 50
225.0
 51
263.8552836453
  0
ARC
  5
8E
330
6F
100
AcDbEntity
  8
AP_391
  6
Continuous
 62
     7
100
AcDbCircle
 10
57.7949232056
 20
116.2922491898
 30
0.0
 40
0.9999978695709355
100
AcDbArc
 50
250.5118303766
 51
109.4881696234
  0
ARC
  5
8F
330
6F
100
AcDbEntity
  8
AP_391
  6
Continuous
 62
     7
100
AcDbCircle
 10
57.0453350509
 20
115.3551726265
 30
0.0
 40
0.2000000000000003
100
AcDbArc
 50
111.1950341566
 51
135.0
  0
LINE
  5
90
330
6F
100
AcDbEntity
  8
AP_391
  6
Continuous
 62
     7
100
AcDbLine
 10
56.7962211332
 20
115.3889014213
 30
0.0
 11
56.9039136947
 21
115.4965939828
 31
0.0
  0
LINE
  5
91
330
6F
100
AcDbEntity
  8
AP_391
  6
Continuous
 62
     7
100
AcDbLine
 10
56.7962211332
 20
114.5594496715
 30
0.0
 11
56.7962211332
 21
115.3889014213
 31
0.0
  0
ARC
  5
92
330
6F
100
AcDbEntity
  8
AP_391
  6
Continuous
 62
     7
100
AcDbCircle
 10
57.7949232056
 20
116.2922491898
 30
0.0
 40
1.999999999999985
100
AcDbArc
 50
240.0429258204
 51
252.5816887241
  0
LINE
  5
93
330
6F
100
AcDbEntity
  8
AP_391
  6
Continuous
 62
     7
100
AcDbLine
 10
57.1962317163
 20
105.7897014922
 30
0.0
 11
57.1962317163
 21
114.3839597724
 31
0.0
  0
ARC
  5
94
330
6F
100
AcDbEntity
  8
AP_391
  6
Continuous
 62
     7
100
AcDbCircle
 10
57.6960873427
 20
105.8017161817
 30
0.0
 40
0.5000000000000264
100
AcDbArc
 50
181.3769145339
 51
358.6230854663
  0
LINE
  5
95
330
6F
100
AcDbEntity
  8
AP_391
  6
Continuous
 62
     7
100
AcDbLine
 10
58.1959429691
 20
114.3328658304
 30
0.0
 11
58.1959429691
 21
105.7897014922
 31
0.0
  0
ARC
  5
96
330
6F
100
AcDbEntity
  8
AP_391
  6
Continuous
 62
     7
100
AcDbCircle
 10
57.7949232056
 20
116.2922491898
 30
0.0
 40
1.999999999999984
100
AcDbArc
 50
281.5667771078
 51
345.5224878141
  0
LINE
  5
97
330
6F
100
AcDbEntity
  8
AP_391
  6
Continuous
 62
     7
100
AcDbLine
 10
61.0612742449
 20
115.7922491898
 30
0.0
 11
59.7314148787
 21
115.7922491898
 31
0.0
  0
ARC
  5
98
330
6F
100
AcDbEntity
  8
AP_391
  6
Continuous
 62
     7
100
AcDbCircle
 10
62.997765918
 20
116.2922491898
 30
0.0
 40
1.999999999999985
100
AcDbArc
 50
194.4775121859
 51
258.4332228922
  0
LINE
  5
99
330
6F
100
AcDbEntity
  8
AP_391
  6
Continuous
 62
     7
100
AcDbLine
 10
62.5967461545
 20
105.7897014922
 30
0.0
 11
62.5967461545
 21
114.3328658304
 31
0.0
  0
ARC
  5
9A
330
6F
100
AcDbEntity
  8
AP_391
  6
Continuous
 62
     7
100
AcDbCircle
 10
63.0966017809
 20
105.8017161817
 30
0.0
 40
0.5000000000000264
100
AcDbArc
 50
181.3769145338
 51
358.6230854663
  0
LINE
  5
9B
330
6F
100
AcDbEntity
  8
AP_391
  6
Continuous
 62
     7
100
AcDbLine
 10
63.5964574072
 20
114.3839597724
 30
0.0
 11
63.5964574072
 21
105.7897014922
 31
0.0
  0
ARC
  5
9C
330
6F
100
AcDbEntity
  8
AP_391
  6
Continuous
 62
     7
100
AcDbCircle
 10
62.997765918
 20
116.2922491898
 30
0.0
 40
1.999999999999984
100
AcDbArc
 50
287.4183112759
 51
299.9570741796
  0
LINE
  5
9D
330
6F
100
AcDbEntity
  8
AP_391
  6
Continuous
 62
     7
100
AcDbLine
 10
63.8930800321
 20
115.5000536028
 30
0.0
 11
63.9854667259
 21
115.4076669091
 31
0.0
  0
ARC
  5
9E
330
6F
100
AcDbEntity
  8
AP_391
  6
Continuous
 62
     7
100
AcDbCircle
 10
63.7516586759
 20
115.3586322466
 30
0.0
 40
0.2
100
AcDbArc
 50
45.0
 51
63.0664019827
  0
ARC
  5
9F
330
6F
100
AcDbEntity
  8
AP_391
  6
Continuous
 62
     7
100
AcDbCircle
 10
62.997765918
 20
116.2922491898
 30
0.0
 40
0.999997869570936
100
AcDbArc
 50
70.71150351
 51
289.28849649
  0
ARC
  5
A0
330
6F
100
AcDbEntity
  8
AP_391
  6
Continuous
 62
     7
100
AcDbCircle
 10
63.7185244737
 20
117.2516771399
 30
0.0
 40
0.2000000000000003
100
AcDbArc
 50
274.422535532
 51
315.0
  0
LINE
  5
A1
330
6F
100
AcDbEntity
  8
AP_391
  6
Continuous
 62
     7
100
AcDbLine
 10
64.7963445618
 20
118.0466545156
 30
0.0
 11
64.5666173133
 21
117.8169272671
 31
0.0
  0
LINE
  5
A2
330
6F
100
AcDbEntity
  8
AP_391
  6
Continuous
 62
     7
100
AcDbLine
 10
63.9964679904
 20
117.2467779442
 30
0.0
 11
63.8599458299
 21
117.1102557837
 31
0.0
  0
LINE
  5
A3
330
6F
100
AcDbEntity
  8
AP_391
  6
Continuous
 62
     7
100
AcDbLine
 10
64.7963445618
 20
120.1527638588
 30
0.0
 11
64.7963445618
 21
118.0466545156
 31
0.0
  0
LINE
  5
A4
330
6F
100
AcDbEntity
  8
AP_391
  6
Continuous
 62
     7
100
AcDbLine
 10
63.7351336396
 20
120.7654542704
 30
0.0
 11
64.7963445618
 21
120.1527638588
 31
0.0
  0
LINE
  5
A6
330
6F
100
AcDbEntity
  8
AP_390
  6
Continuous
 62
     7
100
AcDbLine
 10
56.2107039157
 20
120.7922491897
 30
0.0
 11
57.2963445618
 21
121.4190441089
 31
0.0
  0
LINE
  5
A7
330
6F
100
AcDbEntity
  8
AP_390
  6
Continuous
 62
     7
100
AcDbLine
 10
55.3963445618
 20
120.7922491897
 30
0.0
 11
56.2107039157
 21
120.7922491897
 31
0.0
  0
LINE
  5
A8
330
6F
100
AcDbEntity
  8
AP_390
  6
Continuous
 62
     7
100
AcDbLine
 10
55.3963445618
 20
101.0922491897
 30
0.0
 11
55.3963445618
 21
120.7922491897
 31
0.0
  0
ARC
  5
A9
330
6F
100
AcDbEntity
  8
AP_390
  6
Continuous
 62
     7
100
AcDbCircle
 10
55.0963445618
 20
101.0922491897
 30
0.0
 40
0.3000000000000017
100
AcDbArc
 50
270.0
 51
0.0
  0
LINE
  5
AA
330
6F
100
AcDbEntity
  8
AP_390
  6
Continuous
 62
     7
100
AcDbLine
 10
54.3963445618
 20
100.7922491897
 30
0.0
 11
55.0963445618
 21
100.7922491897
 31
0.0
  0
LINE
  5
AC
330
6F
100
AcDbEntity
  8
AP_390
  6
HIDDEN2
 62
     7
100
AcDbLine
 10
54.3963445618
 20
135.2922491897
 30
0.0
 11
54.3963445618
 21
134.2922491897
 31
0.0
  0
LINE
  5
AD
330
6F
100
AcDbEntity
  8
AP_390
  6
Continuous
 62
     7
100
AcDbLine
 10
54.3963445618
 20
134.2922491897
 30
0.0
 11
54.3963445618
 21
100.7922491897
 31
0.0
  0
ARC
  5
AE
330
6F
100
AcDbEntity
  8
AP_390
  6
HIDDEN2
 62
     7
100
AcDbCircle
 10
54.8963445618
 20
135.2922491897
 30
0.0
 40
0.5000000000000004
100
AcDbArc
 50
90.0
 51
180.0
  0
LINE
  5
AF
330
6F
100
AcDbEntity
  8
AP_390
  6
HIDDEN2
 62
     7
100
AcDbLine
 10
57.3963445618
 20
135.7922491897
 30
0.0
 11
54.8963445618
 21
135.7922491897
 31
0.0
  0
LINE
  5
B0
330
6F
100
AcDbEntity
  8
AP_390
  6
HIDDEN2
 62
     7
100
AcDbLine
 10
57.3963445618
 20
134.7922491897
 30
0.0
 11
57.3963445618
 21
135.7922491897
 31
0.0
  0
LINE
  5
B1
330
6F
100
AcDbEntity
  8
AP_390
  6
HIDDEN2
 62
     7
100
AcDbLine
 10
55.5482818739
 20
134.7922491897
 30
0.0
 11
57.3963445618
 21
134.7922491897
 31
0.0
  0
LINE
  5
B2
330
6F
100
AcDbEntity
  8
AP_390
  6
Continuous
 62
     7
100
AcDbLine
 10
55.5482818739
 20
132.4922491897
 30
0.0
 11
55.5482818739
 21
134.2922491897
 31
0.0
  0
LINE
  5
B3
330
6F
100
AcDbEntity
  8
AP_390
  6
HIDDEN2
 62
     7
100
AcDbLine
 10
55.5482818739
 20
134.2922491897
 30
0.0
 11
55.5482818739
 21
134.7922491897
 31
0.0
  0
LINE
  5
B4
330
6F
100
AcDbEntity
  8
AP_390
  6
Continuous
 62
     7
100
AcDbLine
 10
65.2463445618
 20
132.4922491897
 30
0.0
 11
55.5482818739
 21
132.4922491897
 31
0.0
  0
LINE
  5
B5
330
6F
100
AcDbEntity
  8
AP_390
  6
HIDDEN2
 62
     7
100
AcDbLine
 10
65.2463445618
 20
134.7922491897
 30
0.0
 11
65.2463445618
 21
134.2922491897
 31
0.0
  0
LINE
  5
B6
330
6F
100
AcDbEntity
  8
AP_390
  6
Continuous
 62
     7
100
AcDbLine
 10
65.2463445618
 20
134.2922491897
 30
0.0
 11
65.2463445618
 21
132.4922491897
 31
0.0
  0
LINE
  5
B7
330
6F
100
AcDbEntity
  8
AP_390
  6
HIDDEN2
 62
     7
100
AcDbLine
 10
63.3963445618
 20
134.7922491897
 30
0.0
 11
65.2463445618
 21
134.7922491897
 31
0.0
  0
LINE
  5
B8
330
6F
100
AcDbEntity
  8
AP_390
  6
HIDDEN2
 62
     7
100
AcDbLine
 10
63.3963445618
 20
135.7922491897
 30
0.0
 11
63.3963445618
 21
134.7922491897
 31
0.0
  0
LINE
  5
B9
330
6F
100
AcDbEntity
  8
AP_390
  6
HIDDEN2
 62
     7
100
AcDbLine
 10
65.8963445618
 20
135.7922491897
 30
0.0
 11
63.3963445618
 21
135.7922491897
 31
0.0
  0
ARC
  5
BA
330
6F
100
AcDbEntity
  8
AP_390
  6
HIDDEN2
 62
     7
100
AcDbCircle
 10
65.8963445618
 20
135.2922491897
 30
0.0
 40
0.4999999999999996
100
AcDbArc
 50
0.0
 51
90.0
  0
LINE
  5
BB
330
6F
100
AcDbEntity
  8
AP_390
  6
Continuous
 62
     7
100
AcDbLine
 10
66.3963445618
 20
100.7922491897
 30
0.0
 11
66.3963445618
 21
134.2922491897
 31
0.0
  0
LINE
  5
BC
330
6F
100
AcDbEntity
  8
AP_390
  6
HIDDEN2
 62
     7
100
AcDbLine
 10
66.3963445618
 20
134.2922491897
 30
0.0
 11
66.3963445618
 21
135.2922491897
 31
0.0
  0
LINE
  5
BD
330
6F
100
AcDbEntity
  8
AP_390
  6
Continuous
 62
     7
100
AcDbLine
 10
65.6963445618
 20
100.7922491897
 30
0.0
 11
66.3963445618
 21
100.7922491897
 31
0.0
  0
ARC
  5
BE
330
6F
100
AcDbEntity
  8
AP_390
  6
Continuous
 62
     7
100
AcDbCircle
 10
65.6963445618
 20
101.0922491897
 30
0.0
 40
0.3000000000000008
100
AcDbArc
 50
180.0
 51
270.0
  0
LINE
  5
BF
330
6F
100
AcDbEntity
  8
AP_390
  6
Continuous
 62
     7
100
AcDbLine
 10
65.3963445618
 20
120.7922491897
 30
0.0
 11
65.3963445618
 21
101.0922491897
 31
0.0
  0
LINE
  5
C0
330
6F
100
AcDbEntity
  8
AP_390
  6
Continuous
 62
     7
100
AcDbLine
 10
64.5819852079
 20
120.7922491897
 30
0.0
 11
65.3963445618
 21
120.7922491897
 31
0.0
  0
LINE
  5
C1
330
6F
100
AcDbEntity
  8
AP_390
  6
Continuous
 62
     7
100
AcDbLine
 10
63.4963445618
 20
121.4190441089
 30
0.0
 11
64.5819852079
 21
120.7922491897
 31
0.0
  0
ARC
  5
C2
330
6F
100
AcDbEntity
  8
AP_390
  6
Continuous
 62
     7
100
AcDbCircle
 10
63.5963445618
 20
121.5922491897
 30
0.0
 40
0.2000000000000005
100
AcDbArc
 50
90.0
 51
240.0
  0
LINE
  5
C3
330
6F
100
AcDbEntity
  8
AP_390
  6
Continuous
 62
     7
100
AcDbLine
 10
65.2463445618
 20
121.7922491897
 30
0.0
 11
63.5963445618
 21
121.7922491897
 31
0.0
  0
LINE
  5
C4
330
6F
100
AcDbEntity
  8
AP_390
  6
Continuous
 62
     7
100
AcDbLine
 10
65.2463445618
 20
131.4922491897
 30
0.0
 11
65.2463445618
 21
121.7922491897
 31
0.0
  0
LINE
  5
C5
330
6F
100
AcDbEntity
  8
AP_390
  6
Continuous
 62
     7
100
AcDbLine
 10
55.5482818739
 20
131.4922491897
 30
0.0
 11
65.2463445618
 21
131.4922491897
 31
0.0
  0
LINE
  5
C6
330
6F
100
AcDbEntity
  8
AP_390
  6
Continuous
 62
     7
100
AcDbLine
 10
55.5482818739
 20
121.7922491897
 30
0.0
 11
55.5482818739
 21
131.4922491897
 31
0.0
  0
LINE
  5
C7
330
6F
100
AcDbEntity
  8
AP_390
  6
Continuous
 62
     7
100
AcDbLine
 10
57.1963445618
 20
121.7922491897
 30
0.0
 11
55.5482818739
 21
121.7922491897
 31
0.0
  0
ARC
  5
C8
330
6F
100
AcDbEntity
  8
AP_390
  6
Continuous
 62
     7
100
AcDbCircle
 10
57.1963445618
 20
121.5922491897
 30
0.0
 40
0.2000000000000003
100
AcDbArc
 50
300.0
 51
90.0
  0
LINE
  5
CA
330
6F
100
AcDbEntity
  8
AJ_145
  6
Continuous
 62
     7
100
AcDbLine
 10
64.2482818739
 20
122.0422491897
 30
0.0
 11
64.4982818739
 21
122.0422491897
 31
0.0
  0
LINE
  5
CB
330
6F
100
AcDbEntity
  8
AJ_145
  6
Continuous
 62
     7
100
AcDbLine
 10
64.2482818739
 20
131.2422491897
 30
0.0
 11
64.4982818739
 21
131.2422491897
 31
0.0
  0
LINE
  5
CC
330
6F
100
AcDbEntity
  8
AJ_145
  6
Continuous
 62
     7
100
AcDbLine
 10
56.2982818739
 20
131.2422491897
 30
0.0
 11
64.2482818739
 21
131.2422491897
 31
0.0
  0
ARC
  5
CD
330
6F
100
AcDbEntity
  8
AJ_145
  6
Continuous
 62
     7
100
AcDbCircle
 10
56.2982818739
 20
130.7422491897
 30
0.0
 40
0.5000000000000004
100
AcDbArc
 50
90.0
 51
180.0
  0
LINE
  5
CE
330
6F
100
AcDbEntity
  8
AJ_145
  6
Continuous
 62
     7
100
AcDbLine
 10
64.9982818739
 20
122.5422491897
 30
0.0
 11
64.9982818739
 21
130.7422491897
 31
0.0
  0
ARC
  5
CF
330
6F
100
AcDbEntity
  8
AJ_145
  6
Continuous
 62
     7
100
AcDbCircle
 10
64.4982818739
 20
122.5422491897
 30
0.0
 40
0.5000000000000004
100
AcDbArc
 50
270.0
 51
0.0
  0
ARC
  5
D0
330
6F
100
AcDbEntity
  8
AJ_145
  6
Continuous
 62
     7
100
AcDbCircle
 10
64.4982818739
 20
130.7422491897
 30
0.0
 40
0.5000000000000004
100
AcDbArc
 50
0.0
 51
90.0
  0
LINE
  5
D1
330
6F
100
AcDbEntity
  8
AJ_145
  6
Continuous
 62
     7
100
AcDbLine
 10
55.7982818739
 20
122.5422491897
 30
0.0
 11
55.7982818739
 21
130.7422491897
 31
0.0
  0
LINE
  5
D2
330
6F
100
AcDbEntity
  8
AJ_145
  6
Continuous
 62
     7
100
AcDbLine
 10
56.2982818739
 20
122.0422491897
 30
0.0
 11
64.2482818739
 21
122.0422491897
 31
0.0
  0
ARC
  5
D3
330
6F
100
AcDbEntity
  8
AJ_145
  6
Continuous
 62
     7
100
AcDbCircle
 10
56.2982818739
 20
122.5422491897
 30
0.0
 40
0.5000000000000004
100
AcDbArc
 50
180.0
 51
270.0
  0
LINE
  5
D5
330
6F
100
AcDbEntity
  8
AJ_146
  6
Continuous
 62
     7
100
AcDbLine
 10
64.8982818739
 20
131.1422491897
 30
0.0
 11
64.8982818739
 21
131.0422491897
 31
0.0
  0
LINE
  5
D6
330
6F
100
AcDbEntity
  8
AJ_146
  6
Continuous
 62
     7
100
AcDbLine
 10
64.8982818739
 20
122.2422491897
 30
0.0
 11
64.8982818739
 21
122.1422491897
 31
0.0
  0
LINE
  5
D7
330
6F
100
AcDbEntity
  8
AJ_146
  6
Continuous
 62
     7
100
AcDbLine
 10
64.8982818739
 20
122.1422491897
 30
0.0
 11
64.7982818739
 21
122.1422491897
 31
0.0
  0
LINE
  5
D8
330
6F
100
AcDbEntity
  8
AJ_146
  6
Continuous
 62
     7
100
AcDbLine
 10
55.9982818739
 20
122.1422491897
 30
0.0
 11
55.8982818739
 21
122.1422491897
 31
0.0
  0
LINE
  5
D9
330
6F
100
AcDbEntity
  8
AJ_146
  6
Continuous
 62
     7
100
AcDbLine
 10
55.8982818739
 20
122.1422491897
 30
0.0
 11
55.8982818739
 21
122.2422491897
 31
0.0
  0
LINE
  5
DA
330
6F
100
AcDbEntity
  8
AJ_146
  6
Continuous
 62
     7
100
AcDbLine
 10
55.8982818739
 20
131.0422491897
 30
0.0
 11
55.8982818739
 21
131.1422491897
 31
0.0
  0
LINE
  5
DB
330
6F
100
AcDbEntity
  8
AJ_146
  6
Continuous
 62
     7
100
AcDbLine
 10
55.8982818739
 20
131.1422491897
 30
0.0
 11
55.9982818739
 21
131.1422491897
 31
0.0
  0
LINE
  5
DC
330
6F
100
AcDbEntity
  8
AJ_146
  6
Continuous
 62
     7
100
AcDbLine
 10
64.7982818739
 20
131.1422491897
 30
0.0
 11
64.8982818739
 21
131.1422491897
 31
0.0
  0
LINE
  5
DE
330
6F
100
AcDbEntity
  8
AP_392_215MM
  6
Continuous
 62
     7
100
AcDbLine
 10
63.6992288114
 20
110.6992949961
 30
0.0
 11
63.6992288114
 21
101.5598039968
 31
0.0
  0
ARC
  5
DF
330
6F
100
AcDbEntity
  8
AP_392_215MM
  6
Continuous
 62
     7
100
AcDbCircle
 10
64.0992288114
 20
110.6992949961
 30
0.0
 40
0.4
100
AcDbArc
 50
97.188556016
 51
180.0
  0
ARC
  5
E0
330
6F
100
AcDbEntity
  8
AP_392_215MM
  6
Continuous
 62
     7
100
AcDbCircle
 10
63.9994480161
 20
111.4930479073
 30
0.0
 40
0.4000000000000005
100
AcDbArc
 50
277.1413103469
 51
90.4268611866
  0
LINE
  5
E1
330
6F
100
AcDbEntity
  8
AP_392_215MM
  6
Continuous
 62
     7
100
AcDbLine
 10
63.9964679904
 20
115.3422491898
 30
0.0
 11
63.9964679904
 21
111.8930368065
 31
0.0
  0
ARC
  5
E2
330
6F
100
AcDbEntity
  8
AP_392_215MM
  6
Continuous
 62
     7
100
AcDbCircle
 10
63.7964679904
 20
115.3422491898
 30
0.0
 40
0.2000000000000008
100
AcDbArc
 50
0.0
 51
123.9432284018
  0
LINE
  5
E3
330
6F
100
AcDbEntity
  8
AP_392_215MM
  6
Continuous
 62
     7
100
AcDbLine
 10
63.4889197416
 20
115.3763309413
 30
0.0
 11
63.6847937552
 21
115.5081674383
 31
0.0
  0
ARC
  5
E4
330
6F
100
AcDbEntity
  8
AP_392_215MM
  6
Continuous
 62
     7
100
AcDbCircle
 10
63.3772455063
 20
115.5422491898
 30
0.0
 40
0.2000000000000008
100
AcDbArc
 50
237.5
 51
303.9432284018
  0
LINE
  5
E5
330
6F
100
AcDbEntity
  8
AP_392_215MM
  6
Continuous
 62
     7
100
AcDbLine
 10
62.0925214018
 20
116.1235709006
 30
0.0
 11
63.2697855847
 21
115.3735709006
 31
0.0
  0
ARC
  5
E6
330
6F
100
AcDbEntity
  8
AP_392_215MM
  6
Continuous
 62
     7
100
AcDbCircle
 10
62.1999813235
 20
116.2922491898
 30
0.0
 40
0.2000000000000002
100
AcDbArc
 50
122.5
 51
237.5
  0
LINE
  5
E7
330
6F
100
AcDbEntity
  8
AP_392_215MM
  6
Continuous
 62
     7
100
AcDbLine
 10
63.2697855847
 20
117.210927479
 30
0.0
 11
62.0925214018
 21
116.460927479
 31
0.0
  0
ARC
  5
E8
330
6F
100
AcDbEntity
  8
AP_392_215MM
  6
Continuous
 62
     7
100
AcDbCircle
 10
63.3772455063
 20
117.0422491898
 30
0.0
 40
0.1999999999999933
100
AcDbArc
 50
56.0567715982
 51
122.5
  0
LINE
  5
E9
330
6F
100
AcDbEntity
  8
AP_392_215MM
  6
Continuous
 62
     7
100
AcDbLine
 10
63.6847937552
 20
117.0763309413
 30
0.0
 11
63.4889197416
 21
117.2081674383
 31
0.0
  0
ARC
  5
EA
330
6F
100
AcDbEntity
  8
AP_392_215MM
  6
Continuous
 62
     7
100
AcDbCircle
 10
63.7964679904
 20
117.2422491898
 30
0.0
 40
0.2000000000000001
100
AcDbArc
 50
236.0567715982
 51
0.0
  0
LINE
  5
EB
330
6F
100
AcDbEntity
  8
AP_392_215MM
  6
Continuous
 62
     7
100
AcDbLine
 10
63.9964679904
 20
117.254421334
 30
0.0
 11
63.9964679904
 21
117.2422491898
 31
0.0
  0
LINE
  5
EC
330
6F
100
AcDbEntity
  8
AP_392_215MM
  6
Continuous
 62
     7
100
AcDbLine
 10
64.5617715984
 20
117.819724942
 30
0.0
 11
63.9964679904
 21
117.254421334
 31
0.0
  0
LINE
  5
ED
330
6F
100
AcDbEntity
  8
AP_392_215MM
  6
Continuous
 62
     7
100
AcDbLine
 10
64.9962548826
 20
117.5688759009
 30
0.0
 11
64.5617715984
 21
117.819724942
 31
0.0
  0
LINE
  5
EE
330
6F
100
AcDbEntity
  8
AP_392_215MM
  6
Continuous
 62
     7
100
AcDbLine
 10
64.9962548826
 20
114.6928457614
 30
0.0
 11
64.9962548826
 21
117.5688759009
 31
0.0
  0
ARC
  5
EF
330
6F
100
AcDbEntity
  8
AP_392_215MM
  6
Continuous
 62
     7
100
AcDbCircle
 10
64.9962548826
 20
114.4928457614
 30
0.0
 40
0.2000000000000018
100
AcDbArc
 50
90.0000000007
 51
270.0000000001
  0
LINE
  5
F0
330
6F
100
AcDbEntity
  8
AP_392_215MM
  6
Continuous
 62
     7
100
AcDbLine
 10
55.7887908512
 20
114.2928457614
 30
0.0
 11
55.7887908512
 21
101.6993133408
 31
0.0
  0
ARC
  5
F1
330
6F
100
AcDbEntity
  8
AP_392_215MM
  6
Continuous
 62
     7
100
AcDbCircle
 10
55.7887908512
 20
114.4928457614
 30
0.0
 40
0.2000000000000001
100
AcDbArc
 50
269.9999999996
 51
89.9999999996
  0
LINE
  5
F2
330
6F
100
AcDbEntity
  8
AP_392_215MM
  6
Continuous
 62
     7
100
AcDbLine
 10
55.7887908512
 20
117.5688759009
 30
0.0
 11
55.7887908512
 21
114.6928457614
 31
0.0
  0
LINE
  5
F3
330
6F
100
AcDbEntity
  8
AP_392_215MM
  6
Continuous
 62
     7
100
AcDbLine
 10
56.2232741354
 20
117.819724942
 30
0.0
 11
55.7887908512
 21
117.5688759009
 31
0.0
  0
LINE
  5
F4
330
6F
100
AcDbEntity
  8
AP_392_215MM
  6
Continuous
 62
     7
100
AcDbLine
 10
56.7885777434
 20
117.254421334
 30
0.0
 11
56.2232741354
 21
117.819724942
 31
0.0
  0
LINE
  5
F5
330
6F
100
AcDbEntity
  8
AP_392_215MM
  6
Continuous
 62
     7
100
AcDbLine
 10
56.7885777434
 20
117.2422491898
 30
0.0
 11
56.7885777434
 21
117.254421334
 31
0.0
  0
ARC
  5
F6
330
6F
100
AcDbEntity
  8
AP_392_215MM
  6
Continuous
 62
     7
100
AcDbCircle
 10
56.9885777434
 20
117.2422491898
 30
0.0
 40
0.2000000000000008
100
AcDbArc
 50
180.0
 51
303.9432284018
  0
LINE
  5
F7
330
6F
100
AcDbEntity
  8
AP_392_215MM
  6
Continuous
 62
     7
100
AcDbLine
 10
57.2961259922
 20
117.2081674383
 30
0.0
 11
57.1002519786
 21
117.0763309413
 31
0.0
  0
ARC
  5
F8
330
6F
100
AcDbEntity
  8
AP_392_215MM
  6
Continuous
 62
     7
100
AcDbCircle
 10
57.4078002274
 20
117.0422491898
 30
0.0
 40
0.2000000000000002
100
AcDbArc
 50
57.5
 51
123.9432284018
  0
LINE
  5
F9
330
6F
100
AcDbEntity
  8
AP_392_215MM
  6
Continuous
 62
     7
100
AcDbLine
 10
58.6925243319
 20
116.460927479
 30
0.0
 11
57.5152601491
 21
117.210927479
 31
0.0
  0
ARC
  5
FA
330
6F
100
AcDbEntity
  8
AP_392_215MM
  6
Continuous
 62
     7
100
AcDbCircle
 10
58.5850644103
 20
116.2922491898
 30
0.0
 40
0.2000000000000024
100
AcDbArc
 50
302.5
 51
57.5
  0
LINE
  5
FB
330
6F
100
AcDbEntity
  8
AP_392_215MM
  6
Continuous
 62
     7
100
AcDbLine
 10
57.5152601491
 20
115.3735709006
 30
0.0
 11
58.6925243319
 21
116.1235709006
 31
0.0
  0
ARC
  5
FC
330
6F
100
AcDbEntity
  8
AP_392_215MM
  6
Continuous
 62
     7
100
AcDbCircle
 10
57.4078002274
 20
115.5422491898
 30
0.0
 40
0.1999999999999932
100
AcDbArc
 50
236.0567715982
 51
302.5
  0
LINE
  5
FD
330
6F
100
AcDbEntity
  8
AP_392_215MM
  6
Continuous
 62
     7
100
AcDbLine
 10
57.1002519786
 20
115.5081674383
 30
0.0
 11
57.2961259922
 21
115.3763309413
 31
0.0
  0
ARC
  5
FE
330
6F
100
AcDbEntity
  8
AP_392_215MM
  6
Continuous
 62
     7
100
AcDbCircle
 10
56.9885777434
 20
115.3422491898
 30
0.0
 40
0.200000000000004
100
AcDbArc
 50
56.0567715982
 51
180.0
  0
LINE
  5
FF
330
6F
100
AcDbEntity
  8
AP_392_215MM
  6
Continuous
 62
     7
100
AcDbLine
 10
56.7885777434
 20
111.8930368065
 30
0.0
 11
56.7885777434
 21
115.3422491898
 31
0.0
  0
ARC
  5
100
330
6F
100
AcDbEntity
  8
AP_392_215MM
  6
Continuous
 62
     7
100
AcDbCircle
 10
56.7855977177
 20
111.4930479073
 30
0.0
 40
0.3999999999999742
100
AcDbArc
 50
89.5731388136
 51
262.8586896529
  0
ARC
  5
101
330
6F
100
AcDbEntity
  8
AP_392_215MM
  6
Continuous
 62
     7
100
AcDbCircle
 10
56.6858169224
 20
110.6992949961
 30
0.0
 40
0.4000000000000002
100
AcDbArc
 50
0.0
 51
82.8114439839
  0
LINE
  5
102
330
6F
100
AcDbEntity
  8
AP_392_215MM
  6
Continuous
 62
     7
100
AcDbLine
 10
57.0858169224
 20
101.5598039968
 30
0.0
 11
57.0858169224
 21
110.6992949961
 31
0.0
  0
ARC
  5
103
330
6F
100
AcDbEntity
  8
AP_392_215MM
  6
Continuous
 62
     7
100
AcDbCircle
 10
57.5858169224
 20
101.5598039968
 30
0.0
 40
0.4999999999999999
100
AcDbArc
 50
180.0
 51
255.0784671139
  0
ARC
  5
104
330
6F
100
AcDbEntity
  8
AP_392_215MM
  6
Continuous
 62
     7
100
AcDbCircle
 10
60.3925228669
 20
112.0922491897
 30
0.0
 40
11.4
100
AcDbArc
 50
255.0784671139
 51
284.9215328861
  0
ARC
  5
105
330
6F
100
AcDbEntity
  8
AP_392_215MM
  6
Continuous
 62
     7
100
AcDbCircle
 10
63.1992288114
 20
101.5598039968
 30
0.0
 40
0.5
100
AcDbArc
 50
284.9215328861
 51
0.0
  0
ARC
  5
106
330
6F
100
AcDbEntity
  8
AP_392_215MM
  6
Continuous
 62
     7
100
AcDbCircle
 10
60.3925228669
 20
112.0922491897
 30
0.0
 40
12.0
100
AcDbArc
 50
250.876102371
 51
289.123897629
  0
ARC
  5
107
330
6F
100
AcDbEntity
  8
AP_392_215MM
  6
Continuous
 62
     7
100
AcDbCircle
 10
56.7887908512
 20
101.6993133408
 30
0.0
 40
0.9999999999999996
100
AcDbArc
 50
180.0
 51
250.876102371
  0
LINE
  5
108
330
6F
100
AcDbEntity
  8
AP_392_215MM
  6
Continuous
 62
     7
100
AcDbLine
 10
64.9962548826
 20
101.6993133408
 30
0.0
 11
64.9962548826
 21
114.2928457614
 31
0.0
  0
ARC
  5
109
330
6F
100
AcDbEntity
  8
AP_392_215MM
  6
Continuous
 62
     7
100
AcDbCircle
 10
63.9962548826
 20
101.6993133408
 30
0.0
 40
0.9999999999999998
100
AcDbArc
 50
289.123897629
 51
0.0
  0
LINE
  5
10B
330
6F
100
AcDbEntity
  8
AW_065
  6
Continuous
 62
     7
100
AcDbLine
 10
53.8963445618
 20
147.7922491897
 30
0.0
 11
53.8963445618
 21
134.7922491897
 31
0.0
  0
LINE
  5
10C
330
6F
100
AcDbEntity
  8
AW_065
  6
Continuous
 62
     7
100
AcDbLine
 10
66.8963445618
 20
147.7922491897
 30
0.0
 11
66.8963445618
 21
134.7922491897
 31
0.0
  0
ARC
  5
10D
330
6F
100
AcDbEntity
  8
AW_065
  6
Continuous
 62
     7
100
AcDbCircle
 10
60.3963445618
 20
147.7922491897
 30
0.0
 40
6.5
100
AcDbArc
 50
0.0
 51
180.0
  0
LINE
  5
10E
330
6F
100
AcDbEntity
  8
AW_065
  6
Continuous
 62
     7
100
AcDbLine
 10
56.1463445618
 20
134.2922491897
 30
0.0
 11
56.1463445618
 21
133.7922491897
 31
0.0
  0
LINE
  5
10F
330
6F
100
AcDbEntity
  8
AW_065
  6
Continuous
 62
     7
100
AcDbLine
 10
64.6463445618
 20
134.2922491897
 30
0.0
 11
66.3963445618
 21
134.2922491897
 31
0.0
  0
LINE
  5
110
330
6F
100
AcDbEntity
  8
AW_065
  6
Continuous
 62
     7
100
AcDbLine
 10
64.6463445618
 20
133.7922491897
 30
0.0
 11
64.6463445618
 21
134.2922491897
 31
0.0
  0
LINE
  5
111
330
6F
100
AcDbEntity
  8
AW_065
  6
Continuous
 62
     7
100
AcDbLine
 10
64.6463445618
 20
133.7922491897
 30
0.0
 11
64.6463445618
 21
132.7922491897
 31
0.0
  0
LINE
  5
112
330
6F
100
AcDbEntity
  8
AW_065
  6
Continuous
 62
     7
100
AcDbLine
 10
64.6463445618
 20
132.7922491897
 30
0.0
 11
56.1463445618
 21
132.7922491897
 31
0.0
  0
LINE
  5
113
330
6F
100
AcDbEntity
  8
AW_065
  6
Continuous
 62
     7
100
AcDbLine
 10
56.1463445618
 20
132.7922491897
 30
0.0
 11
56.1463445618
 21
133.7922491897
 31
0.0
  0
ARC
  5
114
330
6F
100
AcDbEntity
  8
AW_065
  6
Continuous
 62
     7
100
AcDbCircle
 10
66.3963445618
 20
134.7922491897
 30
0.0
 40
0.5000000000000004
100
AcDbArc
 50
270.0
 51
0.0
  0
LINE
  5
115
330
6F
100
AcDbEntity
  8
AW_065
  6
Continuous
 62
     7
100
AcDbLine
 10
54.3963445618
 20
134.2922491897
 30
0.0
 11
56.1463445618
 21
134.2922491897
 31
0.0
  0
ARC
  5
116
330
6F
100
AcDbEntity
  8
AW_065
  6
Continuous
 62
     7
100
AcDbCircle
 10
54.3963445618
 20
134.7922491897
 30
0.0
 40
0.5000000000000004
100
AcDbArc
 50
180.0
 51
270.0
  0
CIRCLE
  5
118
330
6F
100
AcDbEntity
  8
3MM_SCHRAUBE_X_1
  6
Continuous
 62
     7
100
AcDbCircle
 10
60.3963445618
 20
147.7922491897
 30
0.0
 40
3.065933786798643
  0
LINE
  5
119
330
6F
100
AcDbEntity
  8
3MM_SCHRAUBE_X_1
  6
Continuous
 62
     7
100
AcDbLine
 10
59.4772243098
 20
145.927619358
 30
0.0
 11
58.546358093
 21
145.9422627209
 31
0.0
  0
LINE
  5
11A
330
6F
100
AcDbEntity
  8
3MM_SCHRAUBE_X_1
  6
Continuous
 62
     7
100
AcDbLine
 10
58.546358093
 20
145.9422627209
 30
0.0
 11
58.5317147301
 21
146.8731289377
 31
0.0
  0
LINE
  5
11B
330
6F
100
AcDbEntity
  8
3MM_SCHRAUBE_X_1
  6
Continuous
 62
     7
100
AcDbLine
 10
58.5317147301
 20
146.8731289377
 30
0.0
 11
59.4508349821
 21
147.7922491897
 31
0.0
  0
LINE
  5
11C
330
6F
100
AcDbEntity
  8
3MM_SCHRAUBE_X_1
  6
Continuous
 62
     7
100
AcDbLine
 10
59.4508349821
 20
147.7922491897
 30
0.0
 11
58.5317147301
 21
148.7113694417
 31
0.0
  0
LINE
  5
11D
330
6F
100
AcDbEntity
  8
3MM_SCHRAUBE_X_1
  6
Continuous
 62
     7
100
AcDbLine
 10
58.5317147301
 20
148.7113694417
 30
0.0
 11
58.546358093
 21
149.6422356585
 31
0.0
  0
LINE
  5
11E
330
6F
100
AcDbEntity
  8
3MM_SCHRAUBE_X_1
  6
Continuous
 62
     7
100
AcDbLine
 10
58.546358093
 20
149.6422356585
 30
0.0
 11
59.4772243098
 21
149.6568790214
 31
0.0
  0
LINE
  5
11F
330
6F
100
AcDbEntity
  8
3MM_SCHRAUBE_X_1
  6
Continuous
 62
     7
100
AcDbLine
 10
59.4772243098
 20
149.6568790214
 30
0.0
 11
60.3963445618
 21
148.7377587694
 31
0.0
  0
LINE
  5
120
330
6F
100
AcDbEntity
  8
3MM_SCHRAUBE_X_1
  6
Continuous
 62
     7
100
AcDbLine
 10
60.3963445618
 20
148.7377587694
 30
0.0
 11
61.3154648138
 21
149.6568790214
 31
0.0
  0
LINE
  5
121
330
6F
100
AcDbEntity
  8
3MM_SCHRAUBE_X_1
  6
Continuous
 62
     7
100
AcDbLine
 10
61.3154648138
 20
149.6568790214
 30
0.0
 11
62.2463310306
 21
149.6422356585
 31
0.0
  0
LINE
  5
122
330
6F
100
AcDbEntity
  8
3MM_SCHRAUBE_X_1
  6
Continuous
 62
     7
100
AcDbLine
 10
62.2463310306
 20
149.6422356585
 30
0.0
 11
62.2609743935
 21
148.7113694417
 31
0.0
  0
LINE
  5
123
330
6F
100
AcDbEntity
  8
3MM_SCHRAUBE_X_1
  6
Continuous
 62
     7
100
AcDbLine
 10
62.2609743935
 20
148.7113694417
 30
0.0
 11
61.3418541415
 21
147.7922491897
 31
0.0
  0
LINE
  5
124
330
6F
100
AcDbEntity
  8
3MM_SCHRAUBE_X_1
  6
Continuous
 62
     7
100
AcDbLine
 10
61.3418541415
 20
147.7922491897
 30
0.0
 11
62.2609743935
 21
146.8731289377
 31
0.0
  0
LINE
  5
125
330
6F
100
AcDbEntity
  8
3MM_SCHRAUBE_X_1
  6
Continuous
 62
     7
100
AcDbLine
 10
62.2609743935
 20
146.8731289377
 30
0.0
 11
62.2463310306
 21
145.9422627209
 31
0.0
  0
LINE
  5
126
330
6F
100
AcDbEntity
  8
3MM_SCHRAUBE_X_1
  6
Continuous
 62
     7
100
AcDbLine
 10
62.2463310306
 20
145.9422627209
 30
0.0
 11
61.3154648138
 21
145.927619358
 31
0.0
  0
LINE
  5
127
330
6F
100
AcDbEntity
  8
3MM_SCHRAUBE_X_1
  6
Continuous
 62
     7
100
AcDbLine
 10
61.3154648138
 20
145.927619358
 30
0.0
 11
60.3963445618
 21
146.84673961
 31
0.0
  0
LINE
  5
128
330
6F
100
AcDbEntity
  8
3MM_SCHRAUBE_X_1
  6
Continuous
 62
     7
100
AcDbLine
 10
60.3963445618
 20
146.84673961
 30
0.0
 11
59.4772243098
 21
145.927619358
 31
0.0
  0
ENDBLK
  5
12A
330
6F
100
AcDbEntity
  8
0
100
AcDbBlockEnd
  0
BLOCK
  5
12D
330
12C
100
AcDbEntity
  8
0
100
AcDbBlockBegin
  2
_OBLIQUE
 70
     0
 10
0.0
 20
0.0
 30
0.0
  3
_OBLIQUE
  1
_OBLIQUE
  0
LINE
  5
12F
330
12C
100
AcDbEntity
  8
0
  6
ByBlock
 62
     0
370
    -2
100
AcDbLine
 10
-0.5
 20
-0.5
 30
0.0
 11
0.5
 21
0.5
 31
0.0
  0
ENDBLK
  5
12E
330
12C
100
AcDbEntity
  8
0
100
AcDbBlockEnd
  0
BLOCK
  5
131
330
130
100
AcDbEntity
  8
0
100
AcDbBlockBegin
  2
_DOT
 70
     0
 10
0.0
 20
0.0
 30
0.0
  3
_DOT
  1
_DOT
  0
POLYLINE
  5
133
330
130
100
AcDbEntity
  8
0
  6
ByBlock
 62
     0
100
AcDb2dPolyline
 66
     1
 10
0.0
 20
0.0
 30
0.0
 70
     1
 40
0.5
 41
0.5
  0
VERTEX
  5
135
330
133
100
AcDbEntity
  8
0
  6
ByBlock
 62
     0
100
AcDbVertex
100
AcDb2dVertex
 10
-0.25
 20
0.0
 30
0.0
 42
1.0
  0
VERTEX
  5
136
330
133
100
AcDbEntity
  8
0
  6
ByBlock
 62
     0
100
AcDbVertex
100
AcDb2dVertex
 10
0.25
 20
0.0
 30
0.0
 42
1.0
  0
SEQEND
  5
137
330
133
100
AcDbEntity
  8
0
  6
ByBlock
 62
     0
  0
LINE
  5
134
330
130
100
AcDbEntity
  8
0
  6
ByBlock
 62
     0
370
    -2
100
AcDbLine
 10
-0.5
 20
0.0
 30
0.0
 11
-1.0
 21
0.0
 31
0.0
  0
ENDBLK
  5
132
330
130
100
AcDbEntity
  8
0
100
AcDbBlockEnd
  0
BLOCK
  5
13C
330
138
100
AcDbEntity
  8
0
100
AcDbBlockBegin
  2
_SE_OPEN
 70
     0
 10
0.0
 20
0.0
 30
0.0
  3
_SE_OPEN
  1
_SE_OPEN
  0
LINE
  5
139
330
138
100
AcDbEntity
  8
0
 62
     0
100
AcDbLine
 10
0.0
 20
0.0
 30
0.0
 11
-1.0
 21
-0.1665
 31
0.0
  0
LINE
  5
13A
330
138
100
AcDbEntity
  8
0
 62
     0
100
AcDbLine
 10
-1.0
 20
0.1665
 30
0.0
 11
0.0
 21
0.0
 31
0.0
  0
LINE
  5
13B
330
138
100
AcDbEntity
  8
0
 62
     0
100
AcDbLine
 10
0.0
 20
0.0
 30
0.0
 11
-1.0
 21
0.0
 31
0.0
  0
ENDBLK
  5
13D
330
138
100
AcDbEntity
  8
0
100
AcDbBlockEnd
  0
BLOCK
  5
148
330
141
100
AcDbEntity
  8
0
100
AcDbBlockBegin
  2
DMBLK69
 70
     0
 10
0.0
 20
0.0
 30
0.0
  3
DMBLK69
  1
DMBLK69
  0
LWPOLYLINE
  5
142
330
141
100
AcDbEntity
  8
Standard
  6
Continuous
 62
     7
100
AcDbPolyline
 90
        3
 70
     0
 43
0.0
 10
72.9672625472
 20
132.0422492735
 10
73.5922625332
 20
135.7922491897
 10
74.2172625193
 20
132.0422492735
  0
LWPOLYLINE
  5
143
330
141
100
AcDbEntity
  8
Standard
  6
Continuous
 62
     7
100
AcDbPolyline
 90
        3
 70
     0
 43
0.0
 10
72.9672625472
 20
104.5422489569
 10
73.5922625332
 20
100.7922490407
 10
74.2172625193
 20
104.5422489569
  0
LINE
  5
144
330
141
100
AcDbEntity
  8
Standard
  6
Continuous
 62
     7
100
AcDbLine
 10
66.6463445683
 20
135.7922491897
 30
0.0
 11
74.8422625053
 21
135.7922491897
 31
0.0
  0
LINE
  5
145
330
141
100
AcDbEntity
  8
Standard
  6
Continuous
 62
     7
100
AcDbLine
 10
67.1463445683
 20
100.7922491897
 30
0.0
 11
74.8422625053
 21
100.7922491897
 31
0.0
  0
LINE
  5
146
330
141
100
AcDbEntity
  8
Standard
  6
Continuous
 62
     7
100
AcDbLine
 10
73.5922625332
 20
135.7922491897
 30
0.0
 11
73.5922625332
 21
100.7922490407
 31
0.0
  0
TEXT
  5
147
330
141
100
AcDbEntity
  8
Standard
  6
Continuous
 62
     7
100
AcDbText
 10
72.9672625332
 20
116.3357273761
 30
0.0
 40
2.5
  1
35
 50
90.0
  7
SEACAD_Arial
 11
70.4672625332
 21
116.3357273761
 31
0.0
100
AcDbText
 73
     3
  0
ENDBLK
  5
149
330
141
100
AcDbEntity
  8
0
100
AcDbBlockEnd
  0
BLOCK
  5
152
330
14B
100
AcDbEntity
  8
0
100
AcDbBlockBegin
  2
DMBLK70
 70
     0
 10
0.0
 20
0.0
 30
0.0
  3
DMBLK70
  1
DMBLK70
  0
LWPOLYLINE
  5
14C
330
14B
100
AcDbEntity
  8
Standard
  6
Continuous
 62
     7
100
AcDbPolyline
 90
        3
 70
     0
 43
0.0
 10
58.146344478
 20
157.7147895405
 10
54.3963445618
 20
158.3397895265
 10
58.146344478
 20
158.9647895126
  0
LWPOLYLINE
  5
14D
330
14B
100
AcDbEntity
  8
Standard
  6
Continuous
 62
     7
100
AcDbPolyline
 90
        3
 70
     0
 43
0.0
 10
62.6463447499
 20
157.7147895405
 10
66.3963446661
 20
158.3397895265
 10
62.6463447499
 20
158.9647895126
  0
LINE
  5
14E
330
14B
100
AcDbEntity
  8
Standard
  6
Continuous
 62
     7
100
AcDbLine
 10
54.3963445618
 20
136.0422491962
 30
0.0
 11
54.3963445618
 21
159.5897894986
 31
0.0
  0
LINE
  5
14F
330
14B
100
AcDbEntity
  8
Standard
  6
Continuous
 62
     7
100
AcDbLine
 10
66.3963445618
 20
136.0422491962
 30
0.0
 11
66.3963445618
 21
159.5897894986
 31
0.0
  0
LINE
  5
150
330
14B
100
AcDbEntity
  8
Standard
  6
Continuous
 62
     7
100
AcDbLine
 10
54.3963445618
 20
158.3397895265
 30
0.0
 11
66.3963446661
 21
158.3397895265
 31
0.0
  0
TEXT
  5
151
330
14B
100
AcDbEntity
  8
Standard
  6
Continuous
 62
     7
100
AcDbText
 10
58.4398228748
 20
158.9647895265
 30
0.0
 40
2.5
  1
12
  7
SEACAD_Arial
 11
58.4398228748
 21
161.4647895265
 31
0.0
100
AcDbText
 73
     3
  0
ENDBLK
  5
153
330
14B
100
AcDbEntity
  8
0
100
AcDbBlockEnd
  0
BLOCK
  5
1E5
330
154
100
AcDbEntity
  8
0
100
AcDbBlockBegin
  2
SE1
 70
     0
 10
0.0
 20
0.0
 30
0.0
  3
SE1
  1
SE1
  0
ARC
  5
156
330
154
100
AcDbEntity
  8
AP_391
  6
Continuous
 62
     7
100
AcDbCircle
 10
64.3307765834
 20
207.5476171649
 30
0.0
 40
0.2000000000000023
100
AcDbArc
 50
60.0
 51
89.9999999992
  0
LINE
  5
157
330
154
100
AcDbEntity
  8
AP_391
  6
Continuous
 62
     7
100
AcDbLine
 10
63.6919875056
 20
207.747617165
 30
0.0
 11
64.3307765834
 21
207.7476171649
 31
0.0
  0
ARC
  5
158
330
154
100
AcDbEntity
  8
AP_391
  6
Continuous
 62
     7
100
AcDbCircle
 10
63.6919875056
 20
207.5476171649
 30
0.0
 40
0.200000000006504
100
AcDbArc
 50
90.000000001
 51
180.0
  0
LINE
  5
159
330
154
100
AcDbEntity
  8
AP_391
  6
Continuous
 62
     7
100
AcDbLine
 10
63.4919875056
 20
206.9476171651
 30
0.0
 11
63.4919875056
 21
207.5476171649
 31
0.0
  0
ARC
  5
15A
330
154
100
AcDbEntity
  8
AP_391
  6
Continuous
 62
     7
100
AcDbCircle
 10
63.6919875056
 20
206.9476171651
 30
0.0
 40
0.199999999993497
100
AcDbArc
 50
180.0
 51
270.0
  0
LINE
  5
15B
330
154
100
AcDbEntity
  8
AP_391
  6
Continuous
 62
     7
100
AcDbLine
 10
64.2919875056
 20
206.7476171651
 30
0.0
 11
63.6919875056
 21
206.7476171651
 31
0.0
  0
ARC
  5
15C
330
154
100
AcDbEntity
  8
AP_391
  6
Continuous
 62
     7
100
AcDbCircle
 10
64.2919875056
 20
206.5476171651
 30
0.0
 40
0.1999999999911439
100
AcDbArc
 50
0.0
 51
90.0
  0
LINE
  5
15D
330
154
100
AcDbEntity
  8
AP_391
  6
Continuous
 62
     7
100
AcDbLine
 10
64.4919875056
 20
205.4476171651
 30
0.0
 11
64.4919875056
 21
206.5476171651
 31
0.0
  0
ARC
  5
15E
330
154
100
AcDbEntity
  8
AP_391
  6
Continuous
 62
     7
100
AcDbCircle
 10
64.2919875056
 20
205.4476171651
 30
0.0
 40
0.1999999999999988
100
AcDbArc
 50
270.0
 51
0.0
  0
LINE
  5
15F
330
154
100
AcDbEntity
  8
AP_391
  6
Continuous
 62
     7
100
AcDbLine
 10
62.355829762
 20
205.2476171651
 30
0.0
 11
64.2919875056
 21
205.2476171651
 31
0.0
  0
LINE
  5
160
330
154
100
AcDbEntity
  8
AP_391
  6
Continuous
 62
     7
100
AcDbLine
 10
61.4898043582
 20
203.7476171651
 30
0.0
 11
62.355829762
 21
205.2476171651
 31
0.0
  0
LINE
  5
161
330
154
100
AcDbEntity
  8
AP_391
  6
Continuous
 62
     7
100
AcDbLine
 10
60.694170653
 20
203.7476171651
 30
0.0
 11
61.4898043582
 21
203.7476171651
 31
0.0
  0
LINE
  5
162
330
154
100
AcDbEntity
  8
AP_391
  6
Continuous
 62
     7
100
AcDbLine
 10
59.8281452492
 20
205.2476171651
 30
0.0
 11
60.694170653
 21
203.7476171651
 31
0.0
  0
LINE
  5
163
330
154
100
AcDbEntity
  8
AP_391
  6
Continuous
 62
     7
100
AcDbLine
 10
57.8919875056
 20
205.2476171651
 30
0.0
 11
59.8281452492
 21
205.2476171651
 31
0.0
  0
ARC
  5
164
330
154
100
AcDbEntity
  8
AP_391
  6
Continuous
 62
     7
100
AcDbCircle
 10
57.8919875056
 20
205.4476171651
 30
0.0
 40
0.1999999999999988
100
AcDbArc
 50
180.0
 51
270.0
  0
LINE
  5
165
330
154
100
AcDbEntity
  8
AP_391
  6
Continuous
 62
     7
100
AcDbLine
 10
57.6919875056
 20
206.5476171651
 30
0.0
 11
57.6919875056
 21
205.4476171651
 31
0.0
  0
ARC
  5
166
330
154
100
AcDbEntity
  8
AP_391
  6
Continuous
 62
     7
100
AcDbCircle
 10
57.8919875056
 20
206.5476171651
 30
0.0
 40
0.1999999999911448
100
AcDbArc
 50
90.0
 51
180.0
  0
LINE
  5
167
330
154
100
AcDbEntity
  8
AP_391
  6
Continuous
 62
     7
100
AcDbLine
 10
58.4919875056
 20
206.7476171651
 30
0.0
 11
57.8919875056
 21
206.7476171651
 31
0.0
  0
ARC
  5
168
330
154
100
AcDbEntity
  8
AP_391
  6
Continuous
 62
     7
100
AcDbCircle
 10
58.4919875056
 20
206.9476171651
 30
0.0
 40
0.1999999999999988
100
AcDbArc
 50
270.0
 51
0.0
  0
LINE
  5
169
330
154
100
AcDbEntity
  8
AP_391
  6
Continuous
 62
     7
100
AcDbLine
 10
58.6919875056
 20
207.5476171649
 30
0.0
 11
58.6919875056
 21
206.9476171651
 31
0.0
  0
ARC
  5
16A
330
154
100
AcDbEntity
  8
AP_391
  6
Continuous
 62
     7
100
AcDbCircle
 10
58.4919875056
 20
207.5476171649
 30
0.0
 40
0.1999999999999988
100
AcDbArc
 50
0.0
 51
90.0
  0
LINE
  5
16B
330
154
100
AcDbEntity
  8
AP_391
  6
Continuous
 62
     7
100
AcDbLine
 10
57.8531984278
 20
207.7476171649
 30
0.0
 11
58.4919875056
 21
207.7476171649
 31
0.0
  0
ARC
  5
16C
330
154
100
AcDbEntity
  8
AP_391
  6
Continuous
 62
     7
100
AcDbCircle
 10
57.8531984278
 20
207.5476171649
 30
0.0
 40
0.2000000000000016
100
AcDbArc
 50
90.0
 51
120.0
  0
LINE
  5
16D
330
154
100
AcDbEntity
  8
AP_391
  6
Continuous
 62
     7
100
AcDbLine
 10
56.6919875056
 20
207.1081318341
 30
0.0
 11
57.7531984278
 21
207.7208222457
 31
0.0
  0
LINE
  5
16E
330
154
100
AcDbEntity
  8
AP_391
  6
Continuous
 62
     7
100
AcDbLine
 10
56.6919875056
 20
205.0020224908
 30
0.0
 11
56.6919875056
 21
207.1081318341
 31
0.0
  0
LINE
  5
16F
330
154
100
AcDbEntity
  8
AP_391
  6
Continuous
 62
     7
100
AcDbLine
 10
57.6283862375
 20
204.0656237589
 30
0.0
 11
57.4842206872
 21
204.2097893093
 31
0.0
  0
LINE
  5
170
330
154
100
AcDbEntity
  8
AP_391
  6
Continuous
 62
     7
100
AcDbLine
 10
56.9189170792
 20
204.7750929172
 30
0.0
 11
56.6919875056
 21
205.0020224908
 31
0.0
  0
ARC
  5
171
330
154
100
AcDbEntity
  8
AP_391
  6
Continuous
 62
     7
100
AcDbCircle
 10
57.7698075937
 20
204.2070451152
 30
0.0
 40
0.2000000000000003
100
AcDbArc
 50
225.0
 51
263.8552836453
  0
ARC
  5
172
330
154
100
AcDbEntity
  8
AP_391
  6
Continuous
 62
     7
100
AcDbCircle
 10
58.4905661494
 20
203.2476171651
 30
0.0
 40
0.9999978695709355
100
AcDbArc
 50
250.5118303766
 51
109.4881696234
  0
ARC
  5
173
330
154
100
AcDbEntity
  8
AP_391
  6
Continuous
 62
     7
100
AcDbCircle
 10
57.7409779947
 20
202.3105406018
 30
0.0
 40
0.2000000000000003
100
AcDbArc
 50
111.1950341566
 51
135.0
  0
LINE
  5
174
330
154
100
AcDbEntity
  8
AP_391
  6
Continuous
 62
     7
100
AcDbLine
 10
57.491864077
 20
202.3442693965
 30
0.0
 11
57.5995566385
 21
202.451961958
 31
0.0
  0
LINE
  5
175
330
154
100
AcDbEntity
  8
AP_391
  6
Continuous
 62
     7
100
AcDbLine
 10
57.491864077
 20
201.5148176468
 30
0.0
 11
57.491864077
 21
202.3442693965
 31
0.0
  0
ARC
  5
176
330
154
100
AcDbEntity
  8
AP_391
  6
Continuous
 62
     7
100
AcDbCircle
 10
58.4905661494
 20
203.2476171651
 30
0.0
 40
1.999999999999985
100
AcDbArc
 50
240.0429258204
 51
252.5816887241
  0
LINE
  5
177
330
154
100
AcDbEntity
  8
AP_391
  6
Continuous
 62
     7
100
AcDbLine
 10
57.8918746602
 20
192.7450694674
 30
0.0
 11
57.8918746602
 21
201.3393277476
 31
0.0
  0
ARC
  5
178
330
154
100
AcDbEntity
  8
AP_391
  6
Continuous
 62
     7
100
AcDbCircle
 10
58.3917302865
 20
192.757084157
 30
0.0
 40
0.5000000000000264
100
AcDbArc
 50
181.3769145339
 51
358.6230854663
  0
LINE
  5
179
330
154
100
AcDbEntity
  8
AP_391
  6
Continuous
 62
     7
100
AcDbLine
 10
58.8915859129
 20
201.2882338056
 30
0.0
 11
58.8915859129
 21
192.7450694674
 31
0.0
  0
ARC
  5
17A
330
154
100
AcDbEntity
  8
AP_391
  6
Continuous
 62
     7
100
AcDbCircle
 10
58.4905661494
 20
203.2476171651
 30
0.0
 40
1.999999999999984
100
AcDbArc
 50
281.5667771078
 51
345.5224878141
  0
LINE
  5
17B
330
154
100
AcDbEntity
  8
AP_391
  6
Continuous
 62
     7
100
AcDbLine
 10
61.7569171887
 20
202.7476171651
 30
0.0
 11
60.4270578225
 21
202.7476171651
 31
0.0
  0
ARC
  5
17C
330
154
100
AcDbEntity
  8
AP_391
  6
Continuous
 62
     7
100
AcDbCircle
 10
63.6934088618
 20
203.2476171651
 30
0.0
 40
1.999999999999985
100
AcDbArc
 50
194.4775121859
 51
258.4332228922
  0
LINE
  5
17D
330
154
100
AcDbEntity
  8
AP_391
  6
Continuous
 62
     7
100
AcDbLine
 10
63.2923890983
 20
192.7450694674
 30
0.0
 11
63.2923890983
 21
201.2882338056
 31
0.0
  0
ARC
  5
17E
330
154
100
AcDbEntity
  8
AP_391
  6
Continuous
 62
     7
100
AcDbCircle
 10
63.7922447247
 20
192.757084157
 30
0.0
 40
0.5000000000000264
100
AcDbArc
 50
181.3769145338
 51
358.6230854663
  0
LINE
  5
17F
330
154
100
AcDbEntity
  8
AP_391
  6
Continuous
 62
     7
100
AcDbLine
 10
64.2921003511
 20
201.3393277476
 30
0.0
 11
64.2921003511
 21
192.7450694674
 31
0.0
  0
ARC
  5
180
330
154
100
AcDbEntity
  8
AP_391
  6
Continuous
 62
     7
100
AcDbCircle
 10
63.6934088618
 20
203.2476171651
 30
0.0
 40
1.999999999999984
100
AcDbArc
 50
287.4183112759
 51
299.9570741796
  0
LINE
  5
181
330
154
100
AcDbEntity
  8
AP_391
  6
Continuous
 62
     7
100
AcDbLine
 10
64.5887229759
 20
202.4554215781
 30
0.0
 11
64.6811096697
 21
202.3630348843
 31
0.0
  0
ARC
  5
182
330
154
100
AcDbEntity
  8
AP_391
  6
Continuous
 62
     7
100
AcDbCircle
 10
64.4473016197
 20
202.3140002219
 30
0.0
 40
0.2
100
AcDbArc
 50
45.0
 51
63.0664019827
  0
ARC
  5
183
330
154
100
AcDbEntity
  8
AP_391
  6
Continuous
 62
     7
100
AcDbCircle
 10
63.6934088618
 20
203.2476171651
 30
0.0
 40
0.999997869570936
100
AcDbArc
 50
70.71150351
 51
289.28849649
  0
ARC
  5
184
330
154
100
AcDbEntity
  8
AP_391
  6
Continuous
 62
     7
100
AcDbCircle
 10
64.4141674175
 20
204.2070451152
 30
0.0
 40
0.2000000000000003
100
AcDbArc
 50
274.422535532
 51
315.0
  0
LINE
  5
185
330
154
100
AcDbEntity
  8
AP_391
  6
Continuous
 62
     7
100
AcDbLine
 10
65.4919875056
 20
205.0020224908
 30
0.0
 11
65.2622602571
 21
204.7722952424
 31
0.0
  0
LINE
  5
186
330
154
100
AcDbEntity
  8
AP_391
  6
Continuous
 62
     7
100
AcDbLine
 10
64.6921109342
 20
204.2021459195
 30
0.0
 11
64.5555887737
 21
204.0656237589
 31
0.0
  0
LINE
  5
187
330
154
100
AcDbEntity
  8
AP_391
  6
Continuous
 62
     7
100
AcDbLine
 10
65.4919875056
 20
207.1081318341
 30
0.0
 11
65.4919875056
 21
205.0020224908
 31
0.0
  0
LINE
  5
188
330
154
100
AcDbEntity
  8
AP_391
  6
Continuous
 62
     7
100
AcDbLine
 10
64.4307765834
 20
207.7208222457
 30
0.0
 11
65.4919875056
 21
207.1081318341
 31
0.0
  0
LINE
  5
189
330
154
100
AcDbEntity
  8
AP_390
  6
Continuous
 62
     7
100
AcDbLine
 10
56.9063468595
 20
207.7476171649
 30
0.0
 11
57.9919875056
 21
208.3744120842
 31
0.0
  0
LINE
  5
18A
330
154
100
AcDbEntity
  8
AP_390
  6
Continuous
 62
     7
100
AcDbLine
 10
56.0919875056
 20
207.7476171649
 30
0.0
 11
56.9063468595
 21
207.7476171649
 31
0.0
  0
LINE
  5
18B
330
154
100
AcDbEntity
  8
AP_390
  6
Continuous
 62
     7
100
AcDbLine
 10
56.0919875056
 20
188.0476171649
 30
0.0
 11
56.0919875056
 21
207.7476171649
 31
0.0
  0
ARC
  5
18C
330
154
100
AcDbEntity
  8
AP_390
  6
Continuous
 62
     7
100
AcDbCircle
 10
55.7919875056
 20
188.0476171649
 30
0.0
 40
0.3000000000000017
100
AcDbArc
 50
270.0
 51
0.0
  0
LINE
  5
18D
330
154
100
AcDbEntity
  8
AP_390
  6
Continuous
 62
     7
100
AcDbLine
 10
55.0919875056
 20
187.7476171649
 30
0.0
 11
55.7919875056
 21
187.7476171649
 31
0.0
  0
LINE
  5
18E
330
154
100
AcDbEntity
  8
AP_390
  6
Continuous
 62
     7
100
AcDbLine
 10
55.0919875056
 20
222.2476171649
 30
0.0
 11
55.0919875056
 21
187.7476171649
 31
0.0
  0
ARC
  5
18F
330
154
100
AcDbEntity
  8
AP_390
  6
Continuous
 62
     7
100
AcDbCircle
 10
55.5919875056
 20
222.2476171649
 30
0.0
 40
0.5000000000000004
100
AcDbArc
 50
90.0
 51
180.0
  0
LINE
  5
190
330
154
100
AcDbEntity
  8
AP_390
  6
Continuous
 62
     7
100
AcDbLine
 10
58.0919875056
 20
222.7476171649
 30
0.0
 11
55.5919875056
 21
222.7476171649
 31
0.0
  0
LINE
  5
191
330
154
100
AcDbEntity
  8
AP_390
  6
Continuous
 62
     7
100
AcDbLine
 10
58.0919875056
 20
221.7476171649
 30
0.0
 11
58.0919875056
 21
222.7476171649
 31
0.0
  0
LINE
  5
192
330
154
100
AcDbEntity
  8
AP_390
  6
Continuous
 62
     7
100
AcDbLine
 10
56.2439248177
 20
221.7476171649
 30
0.0
 11
58.0919875056
 21
221.7476171649
 31
0.0
  0
LINE
  5
193
330
154
100
AcDbEntity
  8
AP_390
  6
Continuous
 62
     7
100
AcDbLine
 10
56.2439248177
 20
219.4476171649
 30
0.0
 11
56.2439248177
 21
221.7476171649
 31
0.0
  0
LINE
  5
194
330
154
100
AcDbEntity
  8
AP_390
  6
Continuous
 62
     7
100
AcDbLine
 10
65.9419875056
 20
219.4476171649
 30
0.0
 11
56.2439248177
 21
219.4476171649
 31
0.0
  0
LINE
  5
195
330
154
100
AcDbEntity
  8
AP_390
  6
Continuous
 62
     7
100
AcDbLine
 10
65.9419875056
 20
221.7476171649
 30
0.0
 11
65.9419875056
 21
219.4476171649
 31
0.0
  0
LINE
  5
196
330
154
100
AcDbEntity
  8
AP_390
  6
Continuous
 62
     7
100
AcDbLine
 10
64.0919875056
 20
221.7476171649
 30
0.0
 11
65.9419875056
 21
221.7476171649
 31
0.0
  0
LINE
  5
197
330
154
100
AcDbEntity
  8
AP_390
  6
Continuous
 62
     7
100
AcDbLine
 10
64.0919875056
 20
222.7476171649
 30
0.0
 11
64.0919875056
 21
221.7476171649
 31
0.0
  0
LINE
  5
198
330
154
100
AcDbEntity
  8
AP_390
  6
Continuous
 62
     7
100
AcDbLine
 10
66.5919875056
 20
222.7476171649
 30
0.0
 11
64.0919875056
 21
222.7476171649
 31
0.0
  0
ARC
  5
199
330
154
100
AcDbEntity
  8
AP_390
  6
Continuous
 62
     7
100
AcDbCircle
 10
66.5919875056
 20
222.2476171649
 30
0.0
 40
0.4999999999999996
100
AcDbArc
 50
0.0
 51
90.0
  0
LINE
  5
19A
330
154
100
AcDbEntity
  8
AP_390
  6
Continuous
 62
     7
100
AcDbLine
 10
67.0919875056
 20
187.7476171649
 30
0.0
 11
67.0919875056
 21
222.2476171649
 31
0.0
  0
LINE
  5
19B
330
154
100
AcDbEntity
  8
AP_390
  6
Continuous
 62
     7
100
AcDbLine
 10
66.3919875056
 20
187.7476171649
 30
0.0
 11
67.0919875056
 21
187.7476171649
 31
0.0
  0
ARC
  5
19C
330
154
100
AcDbEntity
  8
AP_390
  6
Continuous
 62
     7
100
AcDbCircle
 10
66.3919875056
 20
188.0476171649
 30
0.0
 40
0.3000000000000008
100
AcDbArc
 50
180.0
 51
270.0
  0
LINE
  5
19D
330
154
100
AcDbEntity
  8
AP_390
  6
Continuous
 62
     7
100
AcDbLine
 10
66.0919875056
 20
207.7476171649
 30
0.0
 11
66.0919875056
 21
188.0476171649
 31
0.0
  0
LINE
  5
19E
330
154
100
AcDbEntity
  8
AP_390
  6
Continuous
 62
     7
100
AcDbLine
 10
65.2776281517
 20
207.7476171649
 30
0.0
 11
66.0919875056
 21
207.7476171649
 31
0.0
  0
LINE
  5
19F
330
154
100
AcDbEntity
  8
AP_390
  6
Continuous
 62
     7
100
AcDbLine
 10
64.1919875056
 20
208.3744120842
 30
0.0
 11
65.2776281517
 21
207.7476171649
 31
0.0
  0
ARC
  5
1A0
330
154
100
AcDbEntity
  8
AP_390
  6
Continuous
 62
     7
100
AcDbCircle
 10
64.2919875056
 20
208.5476171649
 30
0.0
 40
0.2000000000000005
100
AcDbArc
 50
90.0
 51
240.0
  0
LINE
  5
1A1
330
154
100
AcDbEntity
  8
AP_390
  6
Continuous
 62
     7
100
AcDbLine
 10
65.9419875056
 20
208.7476171649
 30
0.0
 11
64.2919875056
 21
208.7476171649
 31
0.0
  0
LINE
  5
1A2
330
154
100
AcDbEntity
  8
AP_390
  6
Continuous
 62
     7
100
AcDbLine
 10
65.9419875056
 20
218.4476171649
 30
0.0
 11
65.9419875056
 21
208.7476171649
 31
0.0
  0
LINE
  5
1A3
330
154
100
AcDbEntity
  8
AP_390
  6
Continuous
 62
     7
100
AcDbLine
 10
56.2439248177
 20
218.4476171649
 30
0.0
 11
65.9419875056
 21
218.4476171649
 31
0.0
  0
LINE
  5
1A4
330
154
100
AcDbEntity
  8
AP_390
  6
Continuous
 62
     7
100
AcDbLine
 10
56.2439248177
 20
208.7476171649
 30
0.0
 11
56.2439248177
 21
218.4476171649
 31
0.0
  0
LINE
  5
1A5
330
154
100
AcDbEntity
  8
AP_390
  6
Continuous
 62
     7
100
AcDbLine
 10
57.8919875056
 20
208.7476171649
 30
0.0
 11
56.2439248177
 21
208.7476171649
 31
0.0
  0
ARC
  5
1A6
330
154
100
AcDbEntity
  8
AP_390
  6
Continuous
 62
     7
100
AcDbCircle
 10
57.8919875056
 20
208.5476171649
 30
0.0
 40
0.2000000000000003
100
AcDbArc
 50
300.0
 51
90.0
  0
LINE
  5
1A7
330
154
100
AcDbEntity
  8
AJ_145
  6
Continuous
 62
     7
100
AcDbLine
 10
64.9439248177
 20
208.9976171649
 30
0.0
 11
65.1939248177
 21
208.9976171649
 31
0.0
  0
LINE
  5
1A8
330
154
100
AcDbEntity
  8
AJ_145
  6
Continuous
 62
     7
100
AcDbLine
 10
64.9439248177
 20
218.1976171649
 30
0.0
 11
65.1939248177
 21
218.1976171649
 31
0.0
  0
LINE
  5
1A9
330
154
100
AcDbEntity
  8
AJ_145
  6
Continuous
 62
     7
100
AcDbLine
 10
56.9939248177
 20
218.1976171649
 30
0.0
 11
64.9439248177
 21
218.1976171649
 31
0.0
  0
ARC
  5
1AA
330
154
100
AcDbEntity
  8
AJ_145
  6
Continuous
 62
     7
100
AcDbCircle
 10
56.9939248177
 20
217.6976171649
 30
0.0
 40
0.5000000000000004
100
AcDbArc
 50
90.0
 51
180.0
  0
LINE
  5
1AB
330
154
100
AcDbEntity
  8
AJ_145
  6
Continuous
 62
     7
100
AcDbLine
 10
65.6939248177
 20
209.4976171649
 30
0.0
 11
65.6939248177
 21
217.6976171649
 31
0.0
  0
ARC
  5
1AC
330
154
100
AcDbEntity
  8
AJ_145
  6
Continuous
 62
     7
100
AcDbCircle
 10
65.1939248177
 20
209.4976171649
 30
0.0
 40
0.5000000000000004
100
AcDbArc
 50
270.0
 51
0.0
  0
ARC
  5
1AD
330
154
100
AcDbEntity
  8
AJ_145
  6
Continuous
 62
     7
100
AcDbCircle
 10
65.1939248177
 20
217.6976171649
 30
0.0
 40
0.5000000000000004
100
AcDbArc
 50
0.0
 51
90.0
  0
LINE
  5
1AE
330
154
100
AcDbEntity
  8
AJ_145
  6
Continuous
 62
     7
100
AcDbLine
 10
56.4939248177
 20
209.4976171649
 30
0.0
 11
56.4939248177
 21
217.6976171649
 31
0.0
  0
LINE
  5
1AF
330
154
100
AcDbEntity
  8
AJ_145
  6
Continuous
 62
     7
100
AcDbLine
 10
56.9939248177
 20
208.9976171649
 30
0.0
 11
64.9439248177
 21
208.9976171649
 31
0.0
  0
ARC
  5
1B0
330
154
100
AcDbEntity
  8
AJ_145
  6
Continuous
 62
     7
100
AcDbCircle
 10
56.9939248177
 20
209.4976171649
 30
0.0
 40
0.5000000000000004
100
AcDbArc
 50
180.0
 51
270.0
  0
LINE
  5
1B1
330
154
100
AcDbEntity
  8
AJ_146
  6
Continuous
 62
     7
100
AcDbLine
 10
65.5939248177
 20
218.0976171649
 30
0.0
 11
65.5939248177
 21
217.9976171649
 31
0.0
  0
LINE
  5
1B2
330
154
100
AcDbEntity
  8
AJ_146
  6
Continuous
 62
     7
100
AcDbLine
 10
65.5939248177
 20
209.1976171649
 30
0.0
 11
65.5939248177
 21
209.0976171649
 31
0.0
  0
LINE
  5
1B3
330
154
100
AcDbEntity
  8
AJ_146
  6
Continuous
 62
     7
100
AcDbLine
 10
65.5939248177
 20
209.0976171649
 30
0.0
 11
65.4939248177
 21
209.0976171649
 31
0.0
  0
LINE
  5
1B4
330
154
100
AcDbEntity
  8
AJ_146
  6
Continuous
 62
     7
100
AcDbLine
 10
56.6939248177
 20
209.0976171649
 30
0.0
 11
56.5939248177
 21
209.0976171649
 31
0.0
  0
LINE
  5
1B5
330
154
100
AcDbEntity
  8
AJ_146
  6
Continuous
 62
     7
100
AcDbLine
 10
56.5939248177
 20
209.0976171649
 30
0.0
 11
56.5939248177
 21
209.1976171649
 31
0.0
  0
LINE
  5
1B6
330
154
100
AcDbEntity
  8
AJ_146
  6
Continuous
 62
     7
100
AcDbLine
 10
56.5939248177
 20
217.9976171649
 30
0.0
 11
56.5939248177
 21
218.0976171649
 31
0.0
  0
LINE
  5
1B7
330
154
100
AcDbEntity
  8
AJ_146
  6
Continuous
 62
     7
100
AcDbLine
 10
56.5939248177
 20
218.0976171649
 30
0.0
 11
56.6939248177
 21
218.0976171649
 31
0.0
  0
LINE
  5
1B8
330
154
100
AcDbEntity
  8
AJ_146
  6
Continuous
 62
     7
100
AcDbLine
 10
65.4939248177
 20
218.0976171649
 30
0.0
 11
65.5939248177
 21
218.0976171649
 31
0.0
  0
LINE
  5
1B9
330
154
100
AcDbEntity
  8
AP_392_215MM
  6
Continuous
 62
     7
100
AcDbLine
 10
64.3948717552
 20
197.6546629713
 30
0.0
 11
64.3948717552
 21
188.5151719721
 31
0.0
  0
ARC
  5
1BA
330
154
100
AcDbEntity
  8
AP_392_215MM
  6
Continuous
 62
     7
100
AcDbCircle
 10
64.7948717552
 20
197.6546629713
 30
0.0
 40
0.4
100
AcDbArc
 50
97.188556016
 51
180.0
  0
ARC
  5
1BB
330
154
100
AcDbEntity
  8
AP_392_215MM
  6
Continuous
 62
     7
100
AcDbCircle
 10
64.6950909599
 20
198.4484158826
 30
0.0
 40
0.4000000000000005
100
AcDbArc
 50
277.1413103469
 51
90.4268611866
  0
LINE
  5
1BC
330
154
100
AcDbEntity
  8
AP_392_215MM
  6
Continuous
 62
     7
100
AcDbLine
 10
64.6921109342
 20
202.2976171651
 30
0.0
 11
64.6921109342
 21
198.8484047817
 31
0.0
  0
ARC
  5
1BD
330
154
100
AcDbEntity
  8
AP_392_215MM
  6
Continuous
 62
     7
100
AcDbCircle
 10
64.4921109342
 20
202.2976171651
 30
0.0
 40
0.2000000000000008
100
AcDbArc
 50
0.0
 51
123.9432284018
  0
LINE
  5
1BE
330
154
100
AcDbEntity
  8
AP_392_215MM
  6
Continuous
 62
     7
100
AcDbLine
 10
64.1845626854
 20
202.3316989166
 30
0.0
 11
64.380436699
 21
202.4635354136
 31
0.0
  0
ARC
  5
1BF
330
154
100
AcDbEntity
  8
AP_392_215MM
  6
Continuous
 62
     7
100
AcDbCircle
 10
64.0728884501
 20
202.4976171651
 30
0.0
 40
0.2000000000000008
100
AcDbArc
 50
237.5
 51
303.9432284018
  0
LINE
  5
1C0
330
154
100
AcDbEntity
  8
AP_392_215MM
  6
Continuous
 62
     7
100
AcDbLine
 10
62.7881643456
 20
203.0789388759
 30
0.0
 11
63.9654285285
 21
202.3289388759
 31
0.0
  0
ARC
  5
1C1
330
154
100
AcDbEntity
  8
AP_392_215MM
  6
Continuous
 62
     7
100
AcDbCircle
 10
62.8956242673
 20
203.2476171651
 30
0.0
 40
0.2000000000000002
100
AcDbArc
 50
122.5
 51
237.5
  0
LINE
  5
1C2
330
154
100
AcDbEntity
  8
AP_392_215MM
  6
Continuous
 62
     7
100
AcDbLine
 10
63.9654285285
 20
204.1662954542
 30
0.0
 11
62.7881643456
 21
203.4162954542
 31
0.0
  0
ARC
  5
1C3
330
154
100
AcDbEntity
  8
AP_392_215MM
  6
Continuous
 62
     7
100
AcDbCircle
 10
64.0728884501
 20
203.9976171651
 30
0.0
 40
0.1999999999999933
100
AcDbArc
 50
56.0567715982
 51
122.5
  0
LINE
  5
1C4
330
154
100
AcDbEntity
  8
AP_392_215MM
  6
Continuous
 62
     7
100
AcDbLine
 10
64.380436699
 20
204.0316989166
 30
0.0
 11
64.1845626854
 21
204.1635354136
 31
0.0
  0
ARC
  5
1C5
330
154
100
AcDbEntity
  8
AP_392_215MM
  6
Continuous
 62
     7
100
AcDbCircle
 10
64.4921109342
 20
204.1976171651
 30
0.0
 40
0.2000000000000001
100
AcDbArc
 50
236.0567715982
 51
0.0
  0
LINE
  5
1C6
330
154
100
AcDbEntity
  8
AP_392_215MM
  6
Continuous
 62
     7
100
AcDbLine
 10
64.6921109342
 20
204.2097893093
 30
0.0
 11
64.6921109342
 21
204.1976171651
 31
0.0
  0
LINE
  5
1C7
330
154
100
AcDbEntity
  8
AP_392_215MM
  6
Continuous
 62
     7
100
AcDbLine
 10
65.2574145422
 20
204.7750929172
 30
0.0
 11
64.6921109342
 21
204.2097893093
 31
0.0
  0
LINE
  5
1C8
330
154
100
AcDbEntity
  8
AP_392_215MM
  6
Continuous
 62
     7
100
AcDbLine
 10
65.6918978264
 20
204.5242438761
 30
0.0
 11
65.2574145422
 21
204.7750929172
 31
0.0
  0
LINE
  5
1C9
330
154
100
AcDbEntity
  8
AP_392_215MM
  6
Continuous
 62
     7
100
AcDbLine
 10
65.6918978264
 20
201.6482137366
 30
0.0
 11
65.6918978264
 21
204.5242438761
 31
0.0
  0
ARC
  5
1CA
330
154
100
AcDbEntity
  8
AP_392_215MM
  6
Continuous
 62
     7
100
AcDbCircle
 10
65.6918978264
 20
201.4482137366
 30
0.0
 40
0.2000000000000018
100
AcDbArc
 50
90.0000000007
 51
270.0000000001
  0
LINE
  5
1CB
330
154
100
AcDbEntity
  8
AP_392_215MM
  6
Continuous
 62
     7
100
AcDbLine
 10
56.484433795
 20
201.2482137366
 30
0.0
 11
56.484433795
 21
188.6546813161
 31
0.0
  0
ARC
  5
1CC
330
154
100
AcDbEntity
  8
AP_392_215MM
  6
Continuous
 62
     7
100
AcDbCircle
 10
56.484433795
 20
201.4482137366
 30
0.0
 40
0.2000000000000001
100
AcDbArc
 50
269.9999999996
 51
89.9999999996
  0
LINE
  5
1CD
330
154
100
AcDbEntity
  8
AP_392_215MM
  6
Continuous
 62
     7
100
AcDbLine
 10
56.484433795
 20
204.5242438761
 30
0.0
 11
56.484433795
 21
201.6482137366
 31
0.0
  0
LINE
  5
1CE
330
154
100
AcDbEntity
  8
AP_392_215MM
  6
Continuous
 62
     7
100
AcDbLine
 10
56.9189170792
 20
204.7750929172
 30
0.0
 11
56.484433795
 21
204.5242438761
 31
0.0
  0
LINE
  5
1CF
330
154
100
AcDbEntity
  8
AP_392_215MM
  6
Continuous
 62
     7
100
AcDbLine
 10
57.4842206872
 20
204.2097893093
 30
0.0
 11
56.9189170792
 21
204.7750929172
 31
0.0
  0
LINE
  5
1D0
330
154
100
AcDbEntity
  8
AP_392_215MM
  6
Continuous
 62
     7
100
AcDbLine
 10
57.4842206872
 20
204.1976171651
 30
0.0
 11
57.4842206872
 21
204.2097893093
 31
0.0
  0
ARC
  5
1D1
330
154
100
AcDbEntity
  8
AP_392_215MM
  6
Continuous
 62
     7
100
AcDbCircle
 10
57.6842206872
 20
204.1976171651
 30
0.0
 40
0.2000000000000008
100
AcDbArc
 50
180.0
 51
303.9432284018
  0
LINE
  5
1D2
330
154
100
AcDbEntity
  8
AP_392_215MM
  6
Continuous
 62
     7
100
AcDbLine
 10
57.991768936
 20
204.1635354136
 30
0.0
 11
57.7958949224
 21
204.0316989166
 31
0.0
  0
ARC
  5
1D3
330
154
100
AcDbEntity
  8
AP_392_215MM
  6
Continuous
 62
     7
100
AcDbCircle
 10
58.1034431712
 20
203.9976171651
 30
0.0
 40
0.2000000000000002
100
AcDbArc
 50
57.5
 51
123.9432284018
  0
LINE
  5
1D4
330
154
100
AcDbEntity
  8
AP_392_215MM
  6
Continuous
 62
     7
100
AcDbLine
 10
59.3881672757
 20
203.4162954542
 30
0.0
 11
58.2109030929
 21
204.1662954542
 31
0.0
  0
ARC
  5
1D5
330
154
100
AcDbEntity
  8
AP_392_215MM
  6
Continuous
 62
     7
100
AcDbCircle
 10
59.2807073541
 20
203.2476171651
 30
0.0
 40
0.2000000000000024
100
AcDbArc
 50
302.5
 51
57.5
  0
LINE
  5
1D6
330
154
100
AcDbEntity
  8
AP_392_215MM
  6
Continuous
 62
     7
100
AcDbLine
 10
58.2109030929
 20
202.3289388759
 30
0.0
 11
59.3881672757
 21
203.0789388759
 31
0.0
  0
ARC
  5
1D7
330
154
100
AcDbEntity
  8
AP_392_215MM
  6
Continuous
 62
     7
100
AcDbCircle
 10
58.1034431712
 20
202.4976171651
 30
0.0
 40
0.1999999999999932
100
AcDbArc
 50
236.0567715982
 51
302.5
  0
LINE
  5
1D8
330
154
100
AcDbEntity
  8
AP_392_215MM
  6
Continuous
 62
     7
100
AcDbLine
 10
57.7958949224
 20
202.4635354136
 30
0.0
 11
57.991768936
 21
202.3316989166
 31
0.0
  0
ARC
  5
1D9
330
154
100
AcDbEntity
  8
AP_392_215MM
  6
Continuous
 62
     7
100
AcDbCircle
 10
57.6842206872
 20
202.2976171651
 30
0.0
 40
0.200000000000004
100
AcDbArc
 50
56.0567715982
 51
180.0
  0
LINE
  5
1DA
330
154
100
AcDbEntity
  8
AP_392_215MM
  6
Continuous
 62
     7
100
AcDbLine
 10
57.4842206872
 20
198.8484047817
 30
0.0
 11
57.4842206872
 21
202.2976171651
 31
0.0
  0
ARC
  5
1DB
330
154
100
AcDbEntity
  8
AP_392_215MM
  6
Continuous
 62
     7
100
AcDbCircle
 10
57.4812406615
 20
198.4484158826
 30
0.0
 40
0.3999999999999742
100
AcDbArc
 50
89.5731388136
 51
262.8586896529
  0
ARC
  5
1DC
330
154
100
AcDbEntity
  8
AP_392_215MM
  6
Continuous
 62
     7
100
AcDbCircle
 10
57.3814598662
 20
197.6546629713
 30
0.0
 40
0.4000000000000002
100
AcDbArc
 50
0.0
 51
82.8114439839
  0
LINE
  5
1DD
330
154
100
AcDbEntity
  8
AP_392_215MM
  6
Continuous
 62
     7
100
AcDbLine
 10
57.7814598662
 20
188.5151719721
 30
0.0
 11
57.7814598662
 21
197.6546629713
 31
0.0
  0
ARC
  5
1DE
330
154
100
AcDbEntity
  8
AP_392_215MM
  6
Continuous
 62
     7
100
AcDbCircle
 10
58.2814598662
 20
188.5151719721
 30
0.0
 40
0.4999999999999999
100
AcDbArc
 50
180.0
 51
255.0784671139
  0
ARC
  5
1DF
330
154
100
AcDbEntity
  8
AP_392_215MM
  6
Continuous
 62
     7
100
AcDbCircle
 10
61.0881658107
 20
199.0476171649
 30
0.0
 40
11.4
100
AcDbArc
 50
255.0784671139
 51
284.9215328861
  0
ARC
  5
1E0
330
154
100
AcDbEntity
  8
AP_392_215MM
  6
Continuous
 62
     7
100
AcDbCircle
 10
63.8948717552
 20
188.5151719721
 30
0.0
 40
0.5
100
AcDbArc
 50
284.9215328861
 51
0.0
  0
ARC
  5
1E1
330
154
100
AcDbEntity
  8
AP_392_215MM
  6
Continuous
 62
     7
100
AcDbCircle
 10
61.0881658107
 20
199.0476171649
 30
0.0
 40
12.0
100
AcDbArc
 50
250.876102371
 51
289.123897629
  0
ARC
  5
1E2
330
154
100
AcDbEntity
  8
AP_392_215MM
  6
Continuous
 62
     7
100
AcDbCircle
 10
57.484433795
 20
188.6546813161
 30
0.0
 40
0.9999999999999996
100
AcDbArc
 50
180.0
 51
250.876102371
  0
LINE
  5
1E3
330
154
100
AcDbEntity
  8
AP_392_215MM
  6
Continuous
 62
     7
100
AcDbLine
 10
65.6918978264
 20
188.6546813161
 30
0.0
 11
65.6918978264
 21
201.2482137366
 31
0.0
  0
ARC
  5
1E4
330
154
100
AcDbEntity
  8
AP_392_215MM
  6
Continuous
 62
     7
100
AcDbCircle
 10
64.6918978264
 20
188.6546813161
 30
0.0
 40
0.9999999999999998
100
AcDbArc
 50
289.123897629
 51
0.0
  0
ENDBLK
  5
1E6
330
154
100
AcDbEntity
  8
0
100
AcDbBlockEnd
  0
BLOCK
  5
1EF
330
1E8
100
AcDbEntity
  8
0
100
AcDbBlockBegin
  2
DMBLK71
 70
     0
 10
0.0
 20
0.0
 30
0.0
  3
DMBLK71
  1
DMBLK71
  0
LWPOLYLINE
  5
1E9
330
1E8
100
AcDbEntity
  8
Standard
  6
Continuous
 62
     7
100
AcDbPolyline
 90
        3
 70
     0
 43
0.0
 10
73.662905491
 20
218.9976172488
 10
74.287905477
 20
222.7476171649
 10
74.9129054631
 20
218.9976172488
  0
LWPOLYLINE
  5
1EA
330
1E8
100
AcDbEntity
  8
Standard
  6
Continuous
 62
     7
100
AcDbPolyline
 90
        3
 70
     0
 43
0.0
 10
73.662905491
 20
191.4976169321
 10
74.287905477
 20
187.7476170159
 10
74.9129054631
 20
191.4976169321
  0
LINE
  5
1EB
330
1E8
100
AcDbEntity
  8
Standard
  6
Continuous
 62
     7
100
AcDbLine
 10
67.3419875121
 20
222.7476171649
 30
0.0
 11
75.5379054491
 21
222.7476171649
 31
0.0
  0
LINE
  5
1EC
330
1E8
100
AcDbEntity
  8
Standard
  6
Continuous
 62
     7
100
AcDbLine
 10
67.8419875121
 20
187.7476171649
 30
0.0
 11
75.5379054491
 21
187.7476171649
 31
0.0
  0
LINE
  5
1ED
330
1E8
100
AcDbEntity
  8
Standard
  6
Continuous
 62
     7
100
AcDbLine
 10
74.287905477
 20
222.7476171649
 30
0.0
 11
74.287905477
 21
187.7476170159
 31
0.0
  0
TEXT
  5
1EE
330
1E8
100
AcDbEntity
  8
Standard
  6
Continuous
 62
     7
100
AcDbText
 10
73.662905477
 20
203.2910953513
 30
0.0
 40
2.5
  1
35
 50
90.0
  7
SEACAD_Arial
 11
71.162905477
 21
203.2910953513
 31
0.0
100
AcDbText
 73
     3
  0
ENDBLK
  5
1F0
330
1E8
100
AcDbEntity
  8
0
100
AcDbBlockEnd
  0
BLOCK
  5
1F9
330
1F2
100
AcDbEntity
  8
0
100
AcDbBlockBegin
  2
DMBLK72
 70
     0
 10
0.0
 20
0.0
 30
0.0
  3
DMBLK72
  1
DMBLK72
  0
LWPOLYLINE
  5
1F3
330
1F2
100
AcDbEntity
  8
Standard
  6
Continuous
 62
     7
100
AcDbPolyline
 90
        3
 70
     0
 43
0.0
 10
58.8419874218
 20
228.8029722025
 10
55.0919875056
 20
229.4279721885
 10
58.8419874218
 20
230.0529721746
  0
LWPOLYLINE
  5
1F4
330
1F2
100
AcDbEntity
  8
Standard
  6
Continuous
 62
     7
100
AcDbPolyline
 90
        3
 70
     0
 43
0.0
 10
63.3419876937
 20
228.8029722025
 10
67.0919876099
 20
229.4279721885
 10
63.3419876937
 20
230.0529721746
  0
LINE
  5
1F5
330
1F2
100
AcDbEntity
  8
Standard
  6
Continuous
 62
     7
100
AcDbLine
 10
55.0919875056
 20
222.9976171715
 30
0.0
 11
55.0919875056
 21
230.6779721606
 31
0.0
  0
LINE
  5
1F6
330
1F2
100
AcDbEntity
  8
Standard
  6
Continuous
 62
     7
100
AcDbLine
 10
67.0919875056
 20
222.9976171715
 30
0.0
 11
67.0919875056
 21
230.6779721606
 31
0.0
  0
LINE
  5
1F7
330
1F2
100
AcDbEntity
  8
Standard
  6
Continuous
 62
     7
100
AcDbLine
 10
55.0919875056
 20
229.4279721885
 30
0.0
 11
67.0919876099
 21
229.4279721885
 31
0.0
  0
TEXT
  5
1F8
330
1F2
100
AcDbEntity
  8
Standard
  6
Continuous
 62
     7
100
AcDbText
 10
59.1354658186
 20
230.0529721885
 30
0.0
 40
2.5
  1
12
  7
SEACAD_Arial
 11
59.1354658186
 21
232.5529721885
 31
0.0
100
AcDbText
 73
     3
  0
ENDBLK
  5
1FA
330
1F2
100
AcDbEntity
  8
0
100
AcDbBlockEnd
  0
BLOCK
  5
28C
330
1FB
100
AcDbEntity
  8
0
100
AcDbBlockBegin
  2
SE2
 70
     0
 10
0.0
 20
0.0
 30
0.0
  3
SE2
  1
SE2
  0
ARC
  5
1FD
330
1FB
100
AcDbEntity
  8
AP_391
  6
Continuous
 62
     7
100
AcDbCircle
 10
151.8268402793
 20
209.0356454591
 30
0.0
 40
0.2000000000000023
100
AcDbArc
 50
60.0
 51
89.9999999992
  0
LINE
  5
1FE
330
1FB
100
AcDbEntity
  8
AP_391
  6
Continuous
 62
     7
100
AcDbLine
 10
151.1880512015
 20
209.2356454591
 30
0.0
 11
151.8268402793
 21
209.2356454591
 31
0.0
  0
ARC
  5
1FF
330
1FB
100
AcDbEntity
  8
AP_391
  6
Continuous
 62
     7
100
AcDbCircle
 10
151.1880512015
 20
209.0356454591
 30
0.0
 40
0.200000000006504
100
AcDbArc
 50
90.000000001
 51
180.0
  0
LINE
  5
200
330
1FB
100
AcDbEntity
  8
AP_391
  6
Continuous
 62
     7
100
AcDbLine
 10
150.9880512015
 20
208.4356454592
 30
0.0
 11
150.9880512015
 21
209.0356454591
 31
0.0
  0
ARC
  5
201
330
1FB
100
AcDbEntity
  8
AP_391
  6
Continuous
 62
     7
100
AcDbCircle
 10
151.1880512015
 20
208.4356454592
 30
0.0
 40
0.199999999993497
100
AcDbArc
 50
180.0
 51
270.0
  0
LINE
  5
202
330
1FB
100
AcDbEntity
  8
AP_391
  6
Continuous
 62
     7
100
AcDbLine
 10
151.7880512015
 20
208.2356454592
 30
0.0
 11
151.1880512015
 21
208.2356454592
 31
0.0
  0
ARC
  5
203
330
1FB
100
AcDbEntity
  8
AP_391
  6
Continuous
 62
     7
100
AcDbCircle
 10
151.7880512015
 20
208.0356454592
 30
0.0
 40
0.1999999999911439
100
AcDbArc
 50
0.0
 51
90.0
  0
LINE
  5
204
330
1FB
100
AcDbEntity
  8
AP_391
  6
Continuous
 62
     7
100
AcDbLine
 10
151.9880512015
 20
206.9356454592
 30
0.0
 11
151.9880512015
 21
208.0356454592
 31
0.0
  0
ARC
  5
205
330
1FB
100
AcDbEntity
  8
AP_391
  6
Continuous
 62
     7
100
AcDbCircle
 10
151.7880512015
 20
206.9356454592
 30
0.0
 40
0.1999999999999988
100
AcDbArc
 50
270.0
 51
0.0
  0
LINE
  5
206
330
1FB
100
AcDbEntity
  8
AP_391
  6
Continuous
 62
     7
100
AcDbLine
 10
149.8518934579
 20
206.7356454592
 30
0.0
 11
151.7880512015
 21
206.7356454592
 31
0.0
  0
LINE
  5
207
330
1FB
100
AcDbEntity
  8
AP_391
  6
Continuous
 62
     7
100
AcDbLine
 10
148.9858680541
 20
205.2356454592
 30
0.0
 11
149.8518934579
 21
206.7356454592
 31
0.0
  0
LINE
  5
208
330
1FB
100
AcDbEntity
  8
AP_391
  6
Continuous
 62
     7
100
AcDbLine
 10
148.1902343489
 20
205.2356454592
 30
0.0
 11
148.9858680541
 21
205.2356454592
 31
0.0
  0
LINE
  5
209
330
1FB
100
AcDbEntity
  8
AP_391
  6
Continuous
 62
     7
100
AcDbLine
 10
147.3242089451
 20
206.7356454592
 30
0.0
 11
148.1902343489
 21
205.2356454592
 31
0.0
  0
LINE
  5
20A
330
1FB
100
AcDbEntity
  8
AP_391
  6
Continuous
 62
     7
100
AcDbLine
 10
145.3880512015
 20
206.7356454592
 30
0.0
 11
147.3242089451
 21
206.7356454592
 31
0.0
  0
ARC
  5
20B
330
1FB
100
AcDbEntity
  8
AP_391
  6
Continuous
 62
     7
100
AcDbCircle
 10
145.3880512015
 20
206.9356454592
 30
0.0
 40
0.1999999999999988
100
AcDbArc
 50
180.0
 51
270.0
  0
LINE
  5
20C
330
1FB
100
AcDbEntity
  8
AP_391
  6
Continuous
 62
     7
100
AcDbLine
 10
145.1880512015
 20
208.0356454592
 30
0.0
 11
145.1880512015
 21
206.9356454592
 31
0.0
  0
ARC
  5
20D
330
1FB
100
AcDbEntity
  8
AP_391
  6
Continuous
 62
     7
100
AcDbCircle
 10
145.3880512015
 20
208.0356454592
 30
0.0
 40
0.1999999999911448
100
AcDbArc
 50
90.0
 51
180.0
  0
LINE
  5
20E
330
1FB
100
AcDbEntity
  8
AP_391
  6
Continuous
 62
     7
100
AcDbLine
 10
145.9880512015
 20
208.2356454592
 30
0.0
 11
145.3880512015
 21
208.2356454592
 31
0.0
  0
ARC
  5
20F
330
1FB
100
AcDbEntity
  8
AP_391
  6
Continuous
 62
     7
100
AcDbCircle
 10
145.9880512015
 20
208.4356454592
 30
0.0
 40
0.1999999999999988
100
AcDbArc
 50
270.0
 51
0.0
  0
LINE
  5
210
330
1FB
100
AcDbEntity
  8
AP_391
  6
Continuous
 62
     7
100
AcDbLine
 10
146.1880512015
 20
209.0356454591
 30
0.0
 11
146.1880512015
 21
208.4356454592
 31
0.0
  0
ARC
  5
211
330
1FB
100
AcDbEntity
  8
AP_391
  6
Continuous
 62
     7
100
AcDbCircle
 10
145.9880512015
 20
209.0356454591
 30
0.0
 40
0.1999999999999988
100
AcDbArc
 50
0.0
 51
90.0
  0
LINE
  5
212
330
1FB
100
AcDbEntity
  8
AP_391
  6
Continuous
 62
     7
100
AcDbLine
 10
145.3492621237
 20
209.2356454591
 30
0.0
 11
145.9880512015
 21
209.2356454591
 31
0.0
  0
ARC
  5
213
330
1FB
100
AcDbEntity
  8
AP_391
  6
Continuous
 62
     7
100
AcDbCircle
 10
145.3492621237
 20
209.0356454591
 30
0.0
 40
0.2000000000000016
100
AcDbArc
 50
90.0
 51
120.0
  0
LINE
  5
214
330
1FB
100
AcDbEntity
  8
AP_391
  6
Continuous
 62
     7
100
AcDbLine
 10
144.1880512015
 20
208.5961601282
 30
0.0
 11
145.2492621237
 21
209.2088505399
 31
0.0
  0
LINE
  5
215
330
1FB
100
AcDbEntity
  8
AP_391
  6
Continuous
 62
     7
100
AcDbLine
 10
144.1880512015
 20
206.490050785
 30
0.0
 11
144.1880512015
 21
208.5961601282
 31
0.0
  0
LINE
  5
216
330
1FB
100
AcDbEntity
  8
AP_391
  6
Continuous
 62
     7
100
AcDbLine
 10
145.1244499334
 20
205.5536520531
 30
0.0
 11
144.9802843831
 21
205.6978176034
 31
0.0
  0
LINE
  5
217
330
1FB
100
AcDbEntity
  8
AP_391
  6
Continuous
 62
     7
100
AcDbLine
 10
144.4149807751
 20
206.2631212114
 30
0.0
 11
144.1880512015
 21
206.490050785
 31
0.0
  0
ARC
  5
218
330
1FB
100
AcDbEntity
  8
AP_391
  6
Continuous
 62
     7
100
AcDbCircle
 10
145.2658712896
 20
205.6950734093
 30
0.0
 40
0.2000000000000003
100
AcDbArc
 50
225.0
 51
263.8552836453
  0
ARC
  5
219
330
1FB
100
AcDbEntity
  8
AP_391
  6
Continuous
 62
     7
100
AcDbCircle
 10
145.9866298453
 20
204.7356454592
 30
0.0
 40
0.9999978695709355
100
AcDbArc
 50
250.5118303766
 51
109.4881696234
  0
ARC
  5
21A
330
1FB
100
AcDbEntity
  8
AP_391
  6
Continuous
 62
     7
100
AcDbCircle
 10
145.2370416906
 20
203.7985688959
 30
0.0
 40
0.2000000000000003
100
AcDbArc
 50
111.1950341566
 51
135.0
  0
LINE
  5
21B
330
1FB
100
AcDbEntity
  8
AP_391
  6
Continuous
 62
     7
100
AcDbLine
 10
144.9879277729
 20
203.8322976907
 30
0.0
 11
145.0956203344
 21
203.9399902522
 31
0.0
  0
LINE
  5
21C
330
1FB
100
AcDbEntity
  8
AP_391
  6
Continuous
 62
     7
100
AcDbLine
 10
144.9879277729
 20
203.0028459409
 30
0.0
 11
144.9879277729
 21
203.8322976907
 31
0.0
  0
ARC
  5
21D
330
1FB
100
AcDbEntity
  8
AP_391
  6
Continuous
 62
     7
100
AcDbCircle
 10
145.9866298453
 20
204.7356454592
 30
0.0
 40
1.999999999999985
100
AcDbArc
 50
240.0429258204
 51
252.5816887241
  0
LINE
  5
21E
330
1FB
100
AcDbEntity
  8
AP_391
  6
Continuous
 62
     7
100
AcDbLine
 10
145.3879383561
 20
194.2330977616
 30
0.0
 11
145.3879383561
 21
202.8273560418
 31
0.0
  0
ARC
  5
21F
330
1FB
100
AcDbEntity
  8
AP_391
  6
Continuous
 62
     7
100
AcDbCircle
 10
145.8877939824
 20
194.2451124511
 30
0.0
 40
0.5000000000000264
100
AcDbArc
 50
181.3769145339
 51
358.6230854663
  0
LINE
  5
220
330
1FB
100
AcDbEntity
  8
AP_391
  6
Continuous
 62
     7
100
AcDbLine
 10
146.3876496088
 20
202.7762620998
 30
0.0
 11
146.3876496088
 21
194.2330977616
 31
0.0
  0
ARC
  5
221
330
1FB
100
AcDbEntity
  8
AP_391
  6
Continuous
 62
     7
100
AcDbCircle
 10
145.9866298453
 20
204.7356454592
 30
0.0
 40
1.999999999999984
100
AcDbArc
 50
281.5667771078
 51
345.5224878141
  0
LINE
  5
222
330
1FB
100
AcDbEntity
  8
AP_391
  6
Continuous
 62
     7
100
AcDbLine
 10
149.2529808846
 20
204.2356454592
 30
0.0
 11
147.9231215184
 21
204.2356454592
 31
0.0
  0
ARC
  5
223
330
1FB
100
AcDbEntity
  8
AP_391
  6
Continuous
 62
     7
100
AcDbCircle
 10
151.1894725577
 20
204.7356454592
 30
0.0
 40
1.999999999999985
100
AcDbArc
 50
194.4775121859
 51
258.4332228922
  0
LINE
  5
224
330
1FB
100
AcDbEntity
  8
AP_391
  6
Continuous
 62
     7
100
AcDbLine
 10
150.7884527942
 20
194.2330977616
 30
0.0
 11
150.7884527942
 21
202.7762620998
 31
0.0
  0
ARC
  5
225
330
1FB
100
AcDbEntity
  8
AP_391
  6
Continuous
 62
     7
100
AcDbCircle
 10
151.2883084206
 20
194.2451124511
 30
0.0
 40
0.5000000000000264
100
AcDbArc
 50
181.3769145338
 51
358.6230854663
  0
LINE
  5
226
330
1FB
100
AcDbEntity
  8
AP_391
  6
Continuous
 62
     7
100
AcDbLine
 10
151.788164047
 20
202.8273560418
 30
0.0
 11
151.788164047
 21
194.2330977616
 31
0.0
  0
ARC
  5
227
330
1FB
100
AcDbEntity
  8
AP_391
  6
Continuous
 62
     7
100
AcDbCircle
 10
151.1894725577
 20
204.7356454592
 30
0.0
 40
1.999999999999984
100
AcDbArc
 50
287.4183112759
 51
299.9570741796
  0
LINE
  5
228
330
1FB
100
AcDbEntity
  8
AP_391
  6
Continuous
 62
     7
100
AcDbLine
 10
152.0847866718
 20
203.9434498722
 30
0.0
 11
152.1771733656
 21
203.8510631785
 31
0.0
  0
ARC
  5
229
330
1FB
100
AcDbEntity
  8
AP_391
  6
Continuous
 62
     7
100
AcDbCircle
 10
151.9433653156
 20
203.802028516
 30
0.0
 40
0.2
100
AcDbArc
 50
45.0
 51
63.0664019827
  0
ARC
  5
22A
330
1FB
100
AcDbEntity
  8
AP_391
  6
Continuous
 62
     7
100
AcDbCircle
 10
151.1894725577
 20
204.7356454592
 30
0.0
 40
0.999997869570936
100
AcDbArc
 50
70.71150351
 51
289.28849649
  0
ARC
  5
22B
330
1FB
100
AcDbEntity
  8
AP_391
  6
Continuous
 62
     7
100
AcDbCircle
 10
151.9102311134
 20
205.6950734093
 30
0.0
 40
0.2000000000000003
100
AcDbArc
 50
274.422535532
 51
315.0
  0
LINE
  5
22C
330
1FB
100
AcDbEntity
  8
AP_391
  6
Continuous
 62
     7
100
AcDbLine
 10
152.9880512015
 20
206.490050785
 30
0.0
 11
152.7583239531
 21
206.2603235365
 31
0.0
  0
LINE
  5
22D
330
1FB
100
AcDbEntity
  8
AP_391
  6
Continuous
 62
     7
100
AcDbLine
 10
152.1881746301
 20
205.6901742136
 30
0.0
 11
152.0516524696
 21
205.5536520531
 31
0.0
  0
LINE
  5
22E
330
1FB
100
AcDbEntity
  8
AP_391
  6
Continuous
 62
     7
100
AcDbLine
 10
152.9880512015
 20
208.5961601282
 30
0.0
 11
152.9880512015
 21
206.490050785
 31
0.0
  0
LINE
  5
22F
330
1FB
100
AcDbEntity
  8
AP_391
  6
Continuous
 62
     7
100
AcDbLine
 10
151.9268402793
 20
209.2088505399
 30
0.0
 11
152.9880512015
 21
208.5961601282
 31
0.0
  0
LINE
  5
230
330
1FB
100
AcDbEntity
  8
AP_390
  6
Continuous
 62
     7
100
AcDbLine
 10
144.4024105554
 20
209.2356454591
 30
0.0
 11
145.4880512015
 21
209.8624403783
 31
0.0
  0
LINE
  5
231
330
1FB
100
AcDbEntity
  8
AP_390
  6
Continuous
 62
     7
100
AcDbLine
 10
143.5880512015
 20
209.2356454591
 30
0.0
 11
144.4024105554
 21
209.2356454591
 31
0.0
  0
LINE
  5
232
330
1FB
100
AcDbEntity
  8
AP_390
  6
Continuous
 62
     7
100
AcDbLine
 10
143.5880512015
 20
189.5356454591
 30
0.0
 11
143.5880512015
 21
209.2356454591
 31
0.0
  0
ARC
  5
233
330
1FB
100
AcDbEntity
  8
AP_390
  6
Continuous
 62
     7
100
AcDbCircle
 10
143.2880512015
 20
189.5356454591
 30
0.0
 40
0.3000000000000017
100
AcDbArc
 50
270.0
 51
0.0
  0
LINE
  5
234
330
1FB
100
AcDbEntity
  8
AP_390
  6
Continuous
 62
     7
100
AcDbLine
 10
142.5880512015
 20
189.2356454591
 30
0.0
 11
143.2880512015
 21
189.2356454591
 31
0.0
  0
LINE
  5
235
330
1FB
100
AcDbEntity
  8
AP_390
  6
Continuous
 62
     7
100
AcDbLine
 10
142.5880512015
 20
223.7356454591
 30
0.0
 11
142.5880512015
 21
189.2356454591
 31
0.0
  0
ARC
  5
236
330
1FB
100
AcDbEntity
  8
AP_390
  6
Continuous
 62
     7
100
AcDbCircle
 10
143.0880512015
 20
223.7356454591
 30
0.0
 40
0.5000000000000004
100
AcDbArc
 50
90.0
 51
180.0
  0
LINE
  5
237
330
1FB
100
AcDbEntity
  8
AP_390
  6
Continuous
 62
     7
100
AcDbLine
 10
145.5880512015
 20
224.2356454591
 30
0.0
 11
143.0880512015
 21
224.2356454591
 31
0.0
  0
LINE
  5
238
330
1FB
100
AcDbEntity
  8
AP_390
  6
Continuous
 62
     7
100
AcDbLine
 10
145.5880512015
 20
223.2356454591
 30
0.0
 11
145.5880512015
 21
224.2356454591
 31
0.0
  0
LINE
  5
239
330
1FB
100
AcDbEntity
  8
AP_390
  6
Continuous
 62
     7
100
AcDbLine
 10
143.7399885136
 20
223.2356454591
 30
0.0
 11
145.5880512015
 21
223.2356454591
 31
0.0
  0
LINE
  5
23A
330
1FB
100
AcDbEntity
  8
AP_390
  6
Continuous
 62
     7
100
AcDbLine
 10
143.7399885136
 20
220.9356454591
 30
0.0
 11
143.7399885136
 21
223.2356454591
 31
0.0
  0
LINE
  5
23B
330
1FB
100
AcDbEntity
  8
AP_390
  6
Continuous
 62
     7
100
AcDbLine
 10
153.4380512015
 20
220.9356454591
 30
0.0
 11
143.7399885136
 21
220.9356454591
 31
0.0
  0
LINE
  5
23C
330
1FB
100
AcDbEntity
  8
AP_390
  6
Continuous
 62
     7
100
AcDbLine
 10
153.4380512015
 20
223.2356454591
 30
0.0
 11
153.4380512015
 21
220.9356454591
 31
0.0
  0
LINE
  5
23D
330
1FB
100
AcDbEntity
  8
AP_390
  6
Continuous
 62
     7
100
AcDbLine
 10
151.5880512015
 20
223.2356454591
 30
0.0
 11
153.4380512015
 21
223.2356454591
 31
0.0
  0
LINE
  5
23E
330
1FB
100
AcDbEntity
  8
AP_390
  6
Continuous
 62
     7
100
AcDbLine
 10
151.5880512015
 20
224.2356454591
 30
0.0
 11
151.5880512015
 21
223.2356454591
 31
0.0
  0
LINE
  5
23F
330
1FB
100
AcDbEntity
  8
AP_390
  6
Continuous
 62
     7
100
AcDbLine
 10
154.0880512015
 20
224.2356454591
 30
0.0
 11
151.5880512015
 21
224.2356454591
 31
0.0
  0
ARC
  5
240
330
1FB
100
AcDbEntity
  8
AP_390
  6
Continuous
 62
     7
100
AcDbCircle
 10
154.0880512015
 20
223.7356454591
 30
0.0
 40
0.4999999999999996
100
AcDbArc
 50
0.0
 51
90.0
  0
LINE
  5
241
330
1FB
100
AcDbEntity
  8
AP_390
  6
Continuous
 62
     7
100
AcDbLine
 10
154.5880512015
 20
189.2356454591
 30
0.0
 11
154.5880512015
 21
223.7356454591
 31
0.0
  0
LINE
  5
242
330
1FB
100
AcDbEntity
  8
AP_390
  6
Continuous
 62
     7
100
AcDbLine
 10
153.8880512015
 20
189.2356454591
 30
0.0
 11
154.5880512015
 21
189.2356454591
 31
0.0
  0
ARC
  5
243
330
1FB
100
AcDbEntity
  8
AP_390
  6
Continuous
 62
     7
100
AcDbCircle
 10
153.8880512015
 20
189.5356454591
 30
0.0
 40
0.3000000000000008
100
AcDbArc
 50
180.0
 51
270.0
  0
LINE
  5
244
330
1FB
100
AcDbEntity
  8
AP_390
  6
Continuous
 62
     7
100
AcDbLine
 10
153.5880512015
 20
209.2356454591
 30
0.0
 11
153.5880512015
 21
189.5356454591
 31
0.0
  0
LINE
  5
245
330
1FB
100
AcDbEntity
  8
AP_390
  6
Continuous
 62
     7
100
AcDbLine
 10
152.7736918476
 20
209.2356454591
 30
0.0
 11
153.5880512015
 21
209.2356454591
 31
0.0
  0
LINE
  5
246
330
1FB
100
AcDbEntity
  8
AP_390
  6
Continuous
 62
     7
100
AcDbLine
 10
151.6880512015
 20
209.8624403783
 30
0.0
 11
152.7736918476
 21
209.2356454591
 31
0.0
  0
ARC
  5
247
330
1FB
100
AcDbEntity
  8
AP_390
  6
Continuous
 62
     7
100
AcDbCircle
 10
151.7880512015
 20
210.0356454591
 30
0.0
 40
0.2000000000000005
100
AcDbArc
 50
90.0
 51
240.0
  0
LINE
  5
248
330
1FB
100
AcDbEntity
  8
AP_390
  6
Continuous
 62
     7
100
AcDbLine
 10
153.4380512015
 20
210.2356454591
 30
0.0
 11
151.7880512015
 21
210.2356454591
 31
0.0
  0
LINE
  5
249
330
1FB
100
AcDbEntity
  8
AP_390
  6
Continuous
 62
     7
100
AcDbLine
 10
153.4380512015
 20
219.9356454591
 30
0.0
 11
153.4380512015
 21
210.2356454591
 31
0.0
  0
LINE
  5
24A
330
1FB
100
AcDbEntity
  8
AP_390
  6
Continuous
 62
     7
100
AcDbLine
 10
143.7399885136
 20
219.9356454591
 30
0.0
 11
153.4380512015
 21
219.9356454591
 31
0.0
  0
LINE
  5
24B
330
1FB
100
AcDbEntity
  8
AP_390
  6
Continuous
 62
     7
100
AcDbLine
 10
143.7399885136
 20
210.2356454591
 30
0.0
 11
143.7399885136
 21
219.9356454591
 31
0.0
  0
LINE
  5
24C
330
1FB
100
AcDbEntity
  8
AP_390
  6
Continuous
 62
     7
100
AcDbLine
 10
145.3880512015
 20
210.2356454591
 30
0.0
 11
143.7399885136
 21
210.2356454591
 31
0.0
  0
ARC
  5
24D
330
1FB
100
AcDbEntity
  8
AP_390
  6
Continuous
 62
     7
100
AcDbCircle
 10
145.3880512015
 20
210.0356454591
 30
0.0
 40
0.2000000000000003
100
AcDbArc
 50
300.0
 51
90.0
  0
LINE
  5
24E
330
1FB
100
AcDbEntity
  8
AJ_145
  6
Continuous
 62
     7
100
AcDbLine
 10
152.4399885136
 20
210.4856454591
 30
0.0
 11
152.6899885136
 21
210.4856454591
 31
0.0
  0
LINE
  5
24F
330
1FB
100
AcDbEntity
  8
AJ_145
  6
Continuous
 62
     7
100
AcDbLine
 10
152.4399885136
 20
219.6856454591
 30
0.0
 11
152.6899885136
 21
219.6856454591
 31
0.0
  0
LINE
  5
250
330
1FB
100
AcDbEntity
  8
AJ_145
  6
Continuous
 62
     7
100
AcDbLine
 10
144.4899885136
 20
219.6856454591
 30
0.0
 11
152.4399885136
 21
219.6856454591
 31
0.0
  0
ARC
  5
251
330
1FB
100
AcDbEntity
  8
AJ_145
  6
Continuous
 62
     7
100
AcDbCircle
 10
144.4899885136
 20
219.1856454591
 30
0.0
 40
0.5000000000000004
100
AcDbArc
 50
90.0
 51
180.0
  0
LINE
  5
252
330
1FB
100
AcDbEntity
  8
AJ_145
  6
Continuous
 62
     7
100
AcDbLine
 10
153.1899885136
 20
210.9856454591
 30
0.0
 11
153.1899885136
 21
219.1856454591
 31
0.0
  0
ARC
  5
253
330
1FB
100
AcDbEntity
  8
AJ_145
  6
Continuous
 62
     7
100
AcDbCircle
 10
152.6899885136
 20
210.9856454591
 30
0.0
 40
0.5000000000000004
100
AcDbArc
 50
270.0
 51
0.0
  0
ARC
  5
254
330
1FB
100
AcDbEntity
  8
AJ_145
  6
Continuous
 62
     7
100
AcDbCircle
 10
152.6899885136
 20
219.1856454591
 30
0.0
 40
0.5000000000000004
100
AcDbArc
 50
0.0
 51
90.0
  0
LINE
  5
255
330
1FB
100
AcDbEntity
  8
AJ_145
  6
Continuous
 62
     7
100
AcDbLine
 10
143.9899885136
 20
210.9856454591
 30
0.0
 11
143.9899885136
 21
219.1856454591
 31
0.0
  0
LINE
  5
256
330
1FB
100
AcDbEntity
  8
AJ_145
  6
Continuous
 62
     7
100
AcDbLine
 10
144.4899885136
 20
210.4856454591
 30
0.0
 11
152.4399885136
 21
210.4856454591
 31
0.0
  0
ARC
  5
257
330
1FB
100
AcDbEntity
  8
AJ_145
  6
Continuous
 62
     7
100
AcDbCircle
 10
144.4899885136
 20
210.9856454591
 30
0.0
 40
0.5000000000000004
100
AcDbArc
 50
180.0
 51
270.0
  0
LINE
  5
258
330
1FB
100
AcDbEntity
  8
AJ_146
  6
Continuous
 62
     7
100
AcDbLine
 10
153.0899885136
 20
219.5856454591
 30
0.0
 11
153.0899885136
 21
219.4856454591
 31
0.0
  0
LINE
  5
259
330
1FB
100
AcDbEntity
  8
AJ_146
  6
Continuous
 62
     7
100
AcDbLine
 10
153.0899885136
 20
210.6856454591
 30
0.0
 11
153.0899885136
 21
210.5856454591
 31
0.0
  0
LINE
  5
25A
330
1FB
100
AcDbEntity
  8
AJ_146
  6
Continuous
 62
     7
100
AcDbLine
 10
153.0899885136
 20
210.5856454591
 30
0.0
 11
152.9899885136
 21
210.5856454591
 31
0.0
  0
LINE
  5
25B
330
1FB
100
AcDbEntity
  8
AJ_146
  6
Continuous
 62
     7
100
AcDbLine
 10
144.1899885136
 20
210.5856454591
 30
0.0
 11
144.0899885136
 21
210.5856454591
 31
0.0
  0
LINE
  5
25C
330
1FB
100
AcDbEntity
  8
AJ_146
  6
Continuous
 62
     7
100
AcDbLine
 10
144.0899885136
 20
210.5856454591
 30
0.0
 11
144.0899885136
 21
210.6856454591
 31
0.0
  0
LINE
  5
25D
330
1FB
100
AcDbEntity
  8
AJ_146
  6
Continuous
 62
     7
100
AcDbLine
 10
144.0899885136
 20
219.4856454591
 30
0.0
 11
144.0899885136
 21
219.5856454591
 31
0.0
  0
LINE
  5
25E
330
1FB
100
AcDbEntity
  8
AJ_146
  6
Continuous
 62
     7
100
AcDbLine
 10
144.0899885136
 20
219.5856454591
 30
0.0
 11
144.1899885136
 21
219.5856454591
 31
0.0
  0
LINE
  5
25F
330
1FB
100
AcDbEntity
  8
AJ_146
  6
Continuous
 62
     7
100
AcDbLine
 10
152.9899885136
 20
219.5856454591
 30
0.0
 11
153.0899885136
 21
219.5856454591
 31
0.0
  0
LINE
  5
260
330
1FB
100
AcDbEntity
  8
AP_392_215MM
  6
Continuous
 62
     7
100
AcDbLine
 10
151.8909354511
 20
199.1426912655
 30
0.0
 11
151.8909354511
 21
190.0032002662
 31
0.0
  0
ARC
  5
261
330
1FB
100
AcDbEntity
  8
AP_392_215MM
  6
Continuous
 62
     7
100
AcDbCircle
 10
152.2909354511
 20
199.1426912655
 30
0.0
 40
0.4
100
AcDbArc
 50
97.188556016
 51
180.0
  0
ARC
  5
262
330
1FB
100
AcDbEntity
  8
AP_392_215MM
  6
Continuous
 62
     7
100
AcDbCircle
 10
152.1911546558
 20
199.9364441767
 30
0.0
 40
0.4000000000000005
100
AcDbArc
 50
277.1413103469
 51
90.4268611866
  0
LINE
  5
263
330
1FB
100
AcDbEntity
  8
AP_392_215MM
  6
Continuous
 62
     7
100
AcDbLine
 10
152.1881746301
 20
203.7856454592
 30
0.0
 11
152.1881746301
 21
200.3364330759
 31
0.0
  0
ARC
  5
264
330
1FB
100
AcDbEntity
  8
AP_392_215MM
  6
Continuous
 62
     7
100
AcDbCircle
 10
151.9881746301
 20
203.7856454592
 30
0.0
 40
0.2000000000000008
100
AcDbArc
 50
0.0
 51
123.9432284018
  0
LINE
  5
265
330
1FB
100
AcDbEntity
  8
AP_392_215MM
  6
Continuous
 62
     7
100
AcDbLine
 10
151.6806263813
 20
203.8197272107
 30
0.0
 11
151.8765003949
 21
203.9515637077
 31
0.0
  0
ARC
  5
266
330
1FB
100
AcDbEntity
  8
AP_392_215MM
  6
Continuous
 62
     7
100
AcDbCircle
 10
151.568952146
 20
203.9856454592
 30
0.0
 40
0.2000000000000008
100
AcDbArc
 50
237.5
 51
303.9432284018
  0
LINE
  5
267
330
1FB
100
AcDbEntity
  8
AP_392_215MM
  6
Continuous
 62
     7
100
AcDbLine
 10
150.2842280415
 20
204.56696717
 30
0.0
 11
151.4614922244
 21
203.81696717
 31
0.0
  0
ARC
  5
268
330
1FB
100
AcDbEntity
  8
AP_392_215MM
  6
Continuous
 62
     7
100
AcDbCircle
 10
150.3916879632
 20
204.7356454592
 30
0.0
 40
0.2000000000000002
100
AcDbArc
 50
122.5
 51
237.5
  0
LINE
  5
269
330
1FB
100
AcDbEntity
  8
AP_392_215MM
  6
Continuous
 62
     7
100
AcDbLine
 10
151.4614922244
 20
205.6543237484
 30
0.0
 11
150.2842280415
 21
204.9043237484
 31
0.0
  0
ARC
  5
26A
330
1FB
100
AcDbEntity
  8
AP_392_215MM
  6
Continuous
 62
     7
100
AcDbCircle
 10
151.568952146
 20
205.4856454592
 30
0.0
 40
0.1999999999999933
100
AcDbArc
 50
56.0567715982
 51
122.5
  0
LINE
  5
26B
330
1FB
100
AcDbEntity
  8
AP_392_215MM
  6
Continuous
 62
     7
100
AcDbLine
 10
151.8765003949
 20
205.5197272107
 30
0.0
 11
151.6806263813
 21
205.6515637077
 31
0.0
  0
ARC
  5
26C
330
1FB
100
AcDbEntity
  8
AP_392_215MM
  6
Continuous
 62
     7
100
AcDbCircle
 10
151.9881746301
 20
205.6856454592
 30
0.0
 40
0.2000000000000001
100
AcDbArc
 50
236.0567715982
 51
0.0
  0
LINE
  5
26D
330
1FB
100
AcDbEntity
  8
AP_392_215MM
  6
Continuous
 62
     7
100
AcDbLine
 10
152.1881746301
 20
205.6978176034
 30
0.0
 11
152.1881746301
 21
205.6856454592
 31
0.0
  0
LINE
  5
26E
330
1FB
100
AcDbEntity
  8
AP_392_215MM
  6
Continuous
 62
     7
100
AcDbLine
 10
152.7534782381
 20
206.2631212114
 30
0.0
 11
152.1881746301
 21
205.6978176034
 31
0.0
  0
LINE
  5
26F
330
1FB
100
AcDbEntity
  8
AP_392_215MM
  6
Continuous
 62
     7
100
AcDbLine
 10
153.1879615223
 20
206.0122721703
 30
0.0
 11
152.7534782381
 21
206.2631212114
 31
0.0
  0
LINE
  5
270
330
1FB
100
AcDbEntity
  8
AP_392_215MM
  6
Continuous
 62
     7
100
AcDbLine
 10
153.1879615223
 20
203.1362420308
 30
0.0
 11
153.1879615223
 21
206.0122721703
 31
0.0
  0
ARC
  5
271
330
1FB
100
AcDbEntity
  8
AP_392_215MM
  6
Continuous
 62
     7
100
AcDbCircle
 10
153.1879615223
 20
202.9362420308
 30
0.0
 40
0.2000000000000018
100
AcDbArc
 50
90.0000000007
 51
270.0000000001
  0
LINE
  5
272
330
1FB
100
AcDbEntity
  8
AP_392_215MM
  6
Continuous
 62
     7
100
AcDbLine
 10
143.9804974909
 20
202.7362420308
 30
0.0
 11
143.9804974909
 21
190.1427096102
 31
0.0
  0
ARC
  5
273
330
1FB
100
AcDbEntity
  8
AP_392_215MM
  6
Continuous
 62
     7
100
AcDbCircle
 10
143.9804974909
 20
202.9362420308
 30
0.0
 40
0.2000000000000001
100
AcDbArc
 50
269.9999999996
 51
89.9999999996
  0
LINE
  5
274
330
1FB
100
AcDbEntity
  8
AP_392_215MM
  6
Continuous
 62
     7
100
AcDbLine
 10
143.9804974909
 20
206.0122721703
 30
0.0
 11
143.9804974909
 21
203.1362420308
 31
0.0
  0
LINE
  5
275
330
1FB
100
AcDbEntity
  8
AP_392_215MM
  6
Continuous
 62
     7
100
AcDbLine
 10
144.4149807751
 20
206.2631212114
 30
0.0
 11
143.9804974909
 21
206.0122721703
 31
0.0
  0
LINE
  5
276
330
1FB
100
AcDbEntity
  8
AP_392_215MM
  6
Continuous
 62
     7
100
AcDbLine
 10
144.9802843831
 20
205.6978176034
 30
0.0
 11
144.4149807751
 21
206.2631212114
 31
0.0
  0
LINE
  5
277
330
1FB
100
AcDbEntity
  8
AP_392_215MM
  6
Continuous
 62
     7
100
AcDbLine
 10
144.9802843831
 20
205.6856454592
 30
0.0
 11
144.9802843831
 21
205.6978176034
 31
0.0
  0
ARC
  5
278
330
1FB
100
AcDbEntity
  8
AP_392_215MM
  6
Continuous
 62
     7
100
AcDbCircle
 10
145.1802843831
 20
205.6856454592
 30
0.0
 40
0.2000000000000008
100
AcDbArc
 50
180.0
 51
303.9432284018
  0
LINE
  5
279
330
1FB
100
AcDbEntity
  8
AP_392_215MM
  6
Continuous
 62
     7
100
AcDbLine
 10
145.4878326319
 20
205.6515637077
 30
0.0
 11
145.2919586183
 21
205.5197272107
 31
0.0
  0
ARC
  5
27A
330
1FB
100
AcDbEntity
  8
AP_392_215MM
  6
Continuous
 62
     7
100
AcDbCircle
 10
145.5995068671
 20
205.4856454592
 30
0.0
 40
0.2000000000000002
100
AcDbArc
 50
57.5
 51
123.9432284018
  0
LINE
  5
27B
330
1FB
100
AcDbEntity
  8
AP_392_215MM
  6
Continuous
 62
     7
100
AcDbLine
 10
146.8842309716
 20
204.9043237484
 30
0.0
 11
145.7069667888
 21
205.6543237484
 31
0.0
  0
ARC
  5
27C
330
1FB
100
AcDbEntity
  8
AP_392_215MM
  6
Continuous
 62
     7
100
AcDbCircle
 10
146.77677105
 20
204.7356454592
 30
0.0
 40
0.2000000000000024
100
AcDbArc
 50
302.5
 51
57.5
  0
LINE
  5
27D
330
1FB
100
AcDbEntity
  8
AP_392_215MM
  6
Continuous
 62
     7
100
AcDbLine
 10
145.7069667888
 20
203.81696717
 30
0.0
 11
146.8842309716
 21
204.56696717
 31
0.0
  0
ARC
  5
27E
330
1FB
100
AcDbEntity
  8
AP_392_215MM
  6
Continuous
 62
     7
100
AcDbCircle
 10
145.5995068671
 20
203.9856454592
 30
0.0
 40
0.1999999999999932
100
AcDbArc
 50
236.0567715982
 51
302.5
  0
LINE
  5
27F
330
1FB
100
AcDbEntity
  8
AP_392_215MM
  6
Continuous
 62
     7
100
AcDbLine
 10
145.2919586183
 20
203.9515637077
 30
0.0
 11
145.4878326319
 21
203.8197272107
 31
0.0
  0
ARC
  5
280
330
1FB
100
AcDbEntity
  8
AP_392_215MM
  6
Continuous
 62
     7
100
AcDbCircle
 10
145.1802843831
 20
203.7856454592
 30
0.0
 40
0.200000000000004
100
AcDbArc
 50
56.0567715982
 51
180.0
  0
LINE
  5
281
330
1FB
100
AcDbEntity
  8
AP_392_215MM
  6
Continuous
 62
     7
100
AcDbLine
 10
144.9802843831
 20
200.3364330759
 30
0.0
 11
144.9802843831
 21
203.7856454592
 31
0.0
  0
ARC
  5
282
330
1FB
100
AcDbEntity
  8
AP_392_215MM
  6
Continuous
 62
     7
100
AcDbCircle
 10
144.9773043574
 20
199.9364441767
 30
0.0
 40
0.3999999999999742
100
AcDbArc
 50
89.5731388136
 51
262.8586896529
  0
ARC
  5
283
330
1FB
100
AcDbEntity
  8
AP_392_215MM
  6
Continuous
 62
     7
100
AcDbCircle
 10
144.8775235621
 20
199.1426912655
 30
0.0
 40
0.4000000000000002
100
AcDbArc
 50
0.0
 51
82.8114439839
  0
LINE
  5
284
330
1FB
100
AcDbEntity
  8
AP_392_215MM
  6
Continuous
 62
     7
100
AcDbLine
 10
145.2775235621
 20
190.0032002662
 30
0.0
 11
145.2775235621
 21
199.1426912655
 31
0.0
  0
ARC
  5
285
330
1FB
100
AcDbEntity
  8
AP_392_215MM
  6
Continuous
 62
     7
100
AcDbCircle
 10
145.7775235621
 20
190.0032002662
 30
0.0
 40
0.4999999999999999
100
AcDbArc
 50
180.0
 51
255.0784671139
  0
ARC
  5
286
330
1FB
100
AcDbEntity
  8
AP_392_215MM
  6
Continuous
 62
     7
100
AcDbCircle
 10
148.5842295066
 20
200.5356454591
 30
0.0
 40
11.4
100
AcDbArc
 50
255.0784671139
 51
284.9215328861
  0
ARC
  5
287
330
1FB
100
AcDbEntity
  8
AP_392_215MM
  6
Continuous
 62
     7
100
AcDbCircle
 10
151.3909354511
 20
190.0032002662
 30
0.0
 40
0.5
100
AcDbArc
 50
284.9215328861
 51
0.0
  0
ARC
  5
288
330
1FB
100
AcDbEntity
  8
AP_392_215MM
  6
Continuous
 62
     7
100
AcDbCircle
 10
148.5842295066
 20
200.5356454591
 30
0.0
 40
12.0
100
AcDbArc
 50
250.876102371
 51
289.123897629
  0
ARC
  5
289
330
1FB
100
AcDbEntity
  8
AP_392_215MM
  6
Continuous
 62
     7
100
AcDbCircle
 10
144.9804974909
 20
190.1427096102
 30
0.0
 40
0.9999999999999996
100
AcDbArc
 50
180.0
 51
250.876102371
  0
LINE
  5
28A
330
1FB
100
AcDbEntity
  8
AP_392_215MM
  6
Continuous
 62
     7
100
AcDbLine
 10
153.1879615223
 20
190.1427096102
 30
0.0
 11
153.1879615223
 21
202.7362420308
 31
0.0
  0
ARC
  5
28B
330
1FB
100
AcDbEntity
  8
AP_392_215MM
  6
Continuous
 62
     7
100
AcDbCircle
 10
152.1879615223
 20
190.1427096102
 30
0.0
 40
0.9999999999999998
100
AcDbArc
 50
289.123897629
 51
0.0
  0
ENDBLK
  5
28D
330
1FB
100
AcDbEntity
  8
0
100
AcDbBlockEnd
  0
BLOCK
  5
340
330
28E
100
AcDbEntity
  8
0
100
AcDbBlockBegin
  2
SE3
 70
     0
 10
0.0
 20
0.0
 30
0.0
  3
SE3
  1
SE3
  0
ARC
  5
290
330
28E
100
AcDbEntity
  8
AP_391
  6
Continuous
 62
     7
100
AcDbCircle
 10
151.4288029943
 20
121.782671825
 30
0.0
 40
0.2000000000000023
100
AcDbArc
 50
60.0000000001
 51
89.9999999992
  0
LINE
  5
291
330
28E
100
AcDbEntity
  8
AP_391
  6
Continuous
 62
     7
100
AcDbLine
 10
150.7900139166
 20
121.982671825
 30
0.0
 11
151.4288029943
 21
121.982671825
 31
0.0
  0
ARC
  5
292
330
28E
100
AcDbEntity
  8
AP_391
  6
Continuous
 62
     7
100
AcDbCircle
 10
150.7900139166
 20
121.782671825
 30
0.0
 40
0.200000000006504
100
AcDbArc
 50
90.000000001
 51
180.0
  0
LINE
  5
293
330
28E
100
AcDbEntity
  8
AP_391
  6
Continuous
 62
     7
100
AcDbLine
 10
150.5900139165
 20
121.1826718251
 30
0.0
 11
150.5900139165
 21
121.782671825
 31
0.0
  0
ARC
  5
294
330
28E
100
AcDbEntity
  8
AP_391
  6
Continuous
 62
     7
100
AcDbCircle
 10
150.7900139165
 20
121.1826718251
 30
0.0
 40
0.199999999993497
100
AcDbArc
 50
180.0
 51
270.0
  0
LINE
  5
295
330
28E
100
AcDbEntity
  8
AP_391
  6
Continuous
 62
     7
100
AcDbLine
 10
151.3900139165
 20
120.9826718251
 30
0.0
 11
150.7900139165
 21
120.9826718251
 31
0.0
  0
ARC
  5
296
330
28E
100
AcDbEntity
  8
AP_391
  6
Continuous
 62
     7
100
AcDbCircle
 10
151.3900139165
 20
120.7826718251
 30
0.0
 40
0.1999999999911439
100
AcDbArc
 50
0.0
 51
90.0
  0
LINE
  5
297
330
28E
100
AcDbEntity
  8
AP_391
  6
Continuous
 62
     7
100
AcDbLine
 10
151.5900139165
 20
119.6826718251
 30
0.0
 11
151.5900139165
 21
120.7826718251
 31
0.0
  0
ARC
  5
298
330
28E
100
AcDbEntity
  8
AP_391
  6
Continuous
 62
     7
100
AcDbCircle
 10
151.3900139165
 20
119.6826718251
 30
0.0
 40
0.1999999999999988
100
AcDbArc
 50
270.0
 51
0.0
  0
LINE
  5
299
330
28E
100
AcDbEntity
  8
AP_391
  6
Continuous
 62
     7
100
AcDbLine
 10
149.4538561729
 20
119.4826718251
 30
0.0
 11
151.3900139165
 21
119.4826718251
 31
0.0
  0
LINE
  5
29A
330
28E
100
AcDbEntity
  8
AP_391
  6
Continuous
 62
     7
100
AcDbLine
 10
148.5878307692
 20
117.9826718251
 30
0.0
 11
149.4538561729
 21
119.4826718251
 31
0.0
  0
LINE
  5
29B
330
28E
100
AcDbEntity
  8
AP_391
  6
Continuous
 62
     7
100
AcDbLine
 10
147.7921970639
 20
117.9826718251
 30
0.0
 11
148.5878307692
 21
117.9826718251
 31
0.0
  0
LINE
  5
29C
330
28E
100
AcDbEntity
  8
AP_391
  6
Continuous
 62
     7
100
AcDbLine
 10
146.9261716601
 20
119.4826718251
 30
0.0
 11
147.7921970639
 21
117.9826718251
 31
0.0
  0
LINE
  5
29D
330
28E
100
AcDbEntity
  8
AP_391
  6
Continuous
 62
     7
100
AcDbLine
 10
144.9900139165
 20
119.4826718251
 30
0.0
 11
146.9261716601
 21
119.4826718251
 31
0.0
  0
ARC
  5
29E
330
28E
100
AcDbEntity
  8
AP_391
  6
Continuous
 62
     7
100
AcDbCircle
 10
144.9900139165
 20
119.6826718251
 30
0.0
 40
0.1999999999999988
100
AcDbArc
 50
180.0
 51
270.0
  0
LINE
  5
29F
330
28E
100
AcDbEntity
  8
AP_391
  6
Continuous
 62
     7
100
AcDbLine
 10
144.7900139165
 20
120.7826718251
 30
0.0
 11
144.7900139165
 21
119.6826718251
 31
0.0
  0
ARC
  5
2A0
330
28E
100
AcDbEntity
  8
AP_391
  6
Continuous
 62
     7
100
AcDbCircle
 10
144.9900139165
 20
120.7826718251
 30
0.0
 40
0.1999999999911448
100
AcDbArc
 50
90.0
 51
180.0
  0
LINE
  5
2A1
330
28E
100
AcDbEntity
  8
AP_391
  6
Continuous
 62
     7
100
AcDbLine
 10
145.5900139165
 20
120.9826718251
 30
0.0
 11
144.9900139165
 21
120.9826718251
 31
0.0
  0
ARC
  5
2A2
330
28E
100
AcDbEntity
  8
AP_391
  6
Continuous
 62
     7
100
AcDbCircle
 10
145.5900139165
 20
121.1826718251
 30
0.0
 40
0.1999999999999988
100
AcDbArc
 50
270.0
 51
0.0
  0
LINE
  5
2A3
330
28E
100
AcDbEntity
  8
AP_391
  6
Continuous
 62
     7
100
AcDbLine
 10
145.7900139165
 20
121.782671825
 30
0.0
 11
145.7900139165
 21
121.1826718251
 31
0.0
  0
ARC
  5
2A4
330
28E
100
AcDbEntity
  8
AP_391
  6
Continuous
 62
     7
100
AcDbCircle
 10
145.5900139165
 20
121.782671825
 30
0.0
 40
0.1999999999999988
100
AcDbArc
 50
0.0
 51
90.0
  0
LINE
  5
2A5
330
28E
100
AcDbEntity
  8
AP_391
  6
Continuous
 62
     7
100
AcDbLine
 10
144.9512248388
 20
121.982671825
 30
0.0
 11
145.5900139165
 21
121.982671825
 31
0.0
  0
ARC
  5
2A6
330
28E
100
AcDbEntity
  8
AP_391
  6
Continuous
 62
     7
100
AcDbCircle
 10
144.9512248388
 20
121.782671825
 30
0.0
 40
0.2000000000000016
100
AcDbArc
 50
90.0
 51
120.0
  0
LINE
  5
2A7
330
28E
100
AcDbEntity
  8
AP_391
  6
Continuous
 62
     7
100
AcDbLine
 10
143.7900139165
 20
121.3431864941
 30
0.0
 11
144.8512248388
 21
121.9558769058
 31
0.0
  0
LINE
  5
2A8
330
28E
100
AcDbEntity
  8
AP_391
  6
Continuous
 62
     7
100
AcDbLine
 10
143.7900139165
 20
119.2370771509
 30
0.0
 11
143.7900139165
 21
121.3431864941
 31
0.0
  0
LINE
  5
2A9
330
28E
100
AcDbEntity
  8
AP_391
  6
Continuous
 62
     7
100
AcDbLine
 10
144.7264126484
 20
118.300678419
 30
0.0
 11
144.5822470981
 21
118.4448439693
 31
0.0
  0
LINE
  5
2AA
330
28E
100
AcDbEntity
  8
AP_391
  6
Continuous
 62
     7
100
AcDbLine
 10
144.0169434901
 20
119.0101475773
 30
0.0
 11
143.7900139165
 21
119.2370771509
 31
0.0
  0
ARC
  5
2AB
330
28E
100
AcDbEntity
  8
AP_391
  6
Continuous
 62
     7
100
AcDbCircle
 10
144.8678340047
 20
118.4420997752
 30
0.0
 40
0.2000000000000003
100
AcDbArc
 50
225.0
 51
263.8552836453
  0
ARC
  5
2AC
330
28E
100
AcDbEntity
  8
AP_391
  6
Continuous
 62
     7
100
AcDbCircle
 10
145.5885925603
 20
117.4826718251
 30
0.0
 40
0.9999978695709355
100
AcDbArc
 50
250.5118303766
 51
109.4881696234
  0
ARC
  5
2AD
330
28E
100
AcDbEntity
  8
AP_391
  6
Continuous
 62
     7
100
AcDbCircle
 10
144.8390044057
 20
116.5455952619
 30
0.0
 40
0.2000000000000003
100
AcDbArc
 50
111.1950341566
 51
135.0
  0
LINE
  5
2AE
330
28E
100
AcDbEntity
  8
AP_391
  6
Continuous
 62
     7
100
AcDbLine
 10
144.5898904879
 20
116.5793240566
 30
0.0
 11
144.6975830494
 21
116.6870166181
 31
0.0
  0
LINE
  5
2AF
330
28E
100
AcDbEntity
  8
AP_391
  6
Continuous
 62
     7
100
AcDbLine
 10
144.5898904879
 20
115.7498723068
 30
0.0
 11
144.5898904879
 21
116.5793240566
 31
0.0
  0
ARC
  5
2B0
330
28E
100
AcDbEntity
  8
AP_391
  6
Continuous
 62
     7
100
AcDbCircle
 10
145.5885925603
 20
117.4826718251
 30
0.0
 40
1.999999999999985
100
AcDbArc
 50
240.0429258204
 51
252.5816887241
  0
LINE
  5
2B1
330
28E
100
AcDbEntity
  8
AP_391
  6
Continuous
 62
     7
100
AcDbLine
 10
144.9899010711
 20
106.9801241275
 30
0.0
 11
144.9899010711
 21
115.5743824077
 31
0.0
  0
ARC
  5
2B2
330
28E
100
AcDbEntity
  8
AP_391
  6
Continuous
 62
     7
100
AcDbCircle
 10
145.4897566975
 20
106.992138817
 30
0.0
 40
0.5000000000000264
100
AcDbArc
 50
181.3769145339
 51
358.6230854663
  0
LINE
  5
2B3
330
28E
100
AcDbEntity
  8
AP_391
  6
Continuous
 62
     7
100
AcDbLine
 10
145.9896123239
 20
115.5232884657
 30
0.0
 11
145.9896123239
 21
106.9801241275
 31
0.0
  0
ARC
  5
2B4
330
28E
100
AcDbEntity
  8
AP_391
  6
Continuous
 62
     7
100
AcDbCircle
 10
145.5885925603
 20
117.4826718251
 30
0.0
 40
1.999999999999984
100
AcDbArc
 50
281.5667771078
 51
345.5224878141
  0
LINE
  5
2B5
330
28E
100
AcDbEntity
  8
AP_391
  6
Continuous
 62
     7
100
AcDbLine
 10
148.8549435997
 20
116.9826718251
 30
0.0
 11
147.5250842334
 21
116.9826718251
 31
0.0
  0
ARC
  5
2B6
330
28E
100
AcDbEntity
  8
AP_391
  6
Continuous
 62
     7
100
AcDbCircle
 10
150.7914352728
 20
117.4826718251
 30
0.0
 40
1.999999999999985
100
AcDbArc
 50
194.4775121859
 51
258.4332228922
  0
LINE
  5
2B7
330
28E
100
AcDbEntity
  8
AP_391
  6
Continuous
 62
     7
100
AcDbLine
 10
150.3904155092
 20
106.9801241275
 30
0.0
 11
150.3904155092
 21
115.5232884657
 31
0.0
  0
ARC
  5
2B8
330
28E
100
AcDbEntity
  8
AP_391
  6
Continuous
 62
     7
100
AcDbCircle
 10
150.8902711356
 20
106.992138817
 30
0.0
 40
0.5000000000000264
100
AcDbArc
 50
181.3769145338
 51
358.6230854663
  0
LINE
  5
2B9
330
28E
100
AcDbEntity
  8
AP_391
  6
Continuous
 62
     7
100
AcDbLine
 10
151.390126762
 20
115.5743824077
 30
0.0
 11
151.390126762
 21
106.9801241275
 31
0.0
  0
ARC
  5
2BA
330
28E
100
AcDbEntity
  8
AP_391
  6
Continuous
 62
     7
100
AcDbCircle
 10
150.7914352728
 20
117.4826718251
 30
0.0
 40
1.999999999999984
100
AcDbArc
 50
287.4183112759
 51
299.9570741796
  0
LINE
  5
2BB
330
28E
100
AcDbEntity
  8
AP_391
  6
Continuous
 62
     7
100
AcDbLine
 10
151.6867493869
 20
116.6904762381
 30
0.0
 11
151.7791360806
 21
116.5980895444
 31
0.0
  0
ARC
  5
2BC
330
28E
100
AcDbEntity
  8
AP_391
  6
Continuous
 62
     7
100
AcDbCircle
 10
151.5453280306
 20
116.5490548819
 30
0.0
 40
0.2
100
AcDbArc
 50
45.0
 51
63.0664019827
  0
ARC
  5
2BD
330
28E
100
AcDbEntity
  8
AP_391
  6
Continuous
 62
     7
100
AcDbCircle
 10
150.7914352728
 20
117.4826718251
 30
0.0
 40
0.999997869570936
100
AcDbArc
 50
70.71150351
 51
289.28849649
  0
ARC
  5
2BE
330
28E
100
AcDbEntity
  8
AP_391
  6
Continuous
 62
     7
100
AcDbCircle
 10
151.5121938284
 20
118.4420997752
 30
0.0
 40
0.2000000000000003
100
AcDbArc
 50
274.422535532
 51
315.0
  0
LINE
  5
2BF
330
28E
100
AcDbEntity
  8
AP_391
  6
Continuous
 62
     7
100
AcDbLine
 10
152.5900139165
 20
119.2370771509
 30
0.0
 11
152.3602866681
 21
119.0073499024
 31
0.0
  0
LINE
  5
2C0
330
28E
100
AcDbEntity
  8
AP_391
  6
Continuous
 62
     7
100
AcDbLine
 10
151.7901373451
 20
118.4372005795
 30
0.0
 11
151.6536151846
 21
118.300678419
 31
0.0
  0
LINE
  5
2C1
330
28E
100
AcDbEntity
  8
AP_391
  6
Continuous
 62
     7
100
AcDbLine
 10
152.5900139165
 20
121.3431864941
 30
0.0
 11
152.5900139165
 21
119.2370771509
 31
0.0
  0
LINE
  5
2C2
330
28E
100
AcDbEntity
  8
AP_391
  6
Continuous
 62
     7
100
AcDbLine
 10
151.5288029943
 20
121.9558769058
 30
0.0
 11
152.5900139165
 21
121.3431864941
 31
0.0
  0
LINE
  5
2C3
330
28E
100
AcDbEntity
  8
AP_390
  6
Continuous
 62
     7
100
AcDbLine
 10
144.0043732705
 20
121.982671825
 30
0.0
 11
145.0900139165
 21
122.6094667443
 31
0.0
  0
LINE
  5
2C4
330
28E
100
AcDbEntity
  8
AP_390
  6
Continuous
 62
     7
100
AcDbLine
 10
143.1900139165
 20
121.982671825
 30
0.0
 11
144.0043732705
 21
121.982671825
 31
0.0
  0
LINE
  5
2C5
330
28E
100
AcDbEntity
  8
AP_390
  6
Continuous
 62
     7
100
AcDbLine
 10
143.1900139165
 20
102.282671825
 30
0.0
 11
143.1900139165
 21
121.982671825
 31
0.0
  0
ARC
  5
2C6
330
28E
100
AcDbEntity
  8
AP_390
  6
Continuous
 62
     7
100
AcDbCircle
 10
142.8900139165
 20
102.282671825
 30
0.0
 40
0.3000000000000017
100
AcDbArc
 50
270.0
 51
0.0
  0
LINE
  5
2C7
330
28E
100
AcDbEntity
  8
AP_390
  6
Continuous
 62
     7
100
AcDbLine
 10
142.1900139165
 20
101.982671825
 30
0.0
 11
142.8900139165
 21
101.982671825
 31
0.0
  0
LINE
  5
2C8
330
28E
100
AcDbEntity
  8
AP_390
  6
HIDDEN2
 62
     7
100
AcDbLine
 10
142.1900139165
 20
136.482671825
 30
0.0
 11
142.1900139165
 21
135.482671825
 31
0.0
  0
LINE
  5
2C9
330
28E
100
AcDbEntity
  8
AP_390
  6
Continuous
 62
     7
100
AcDbLine
 10
142.1900139165
 20
135.482671825
 30
0.0
 11
142.1900139165
 21
101.982671825
 31
0.0
  0
ARC
  5
2CA
330
28E
100
AcDbEntity
  8
AP_390
  6
HIDDEN2
 62
     7
100
AcDbCircle
 10
142.6900139165
 20
136.482671825
 30
0.0
 40
0.5000000000000004
100
AcDbArc
 50
90.0
 51
180.0
  0
LINE
  5
2CB
330
28E
100
AcDbEntity
  8
AP_390
  6
HIDDEN2
 62
     7
100
AcDbLine
 10
145.1900139165
 20
136.982671825
 30
0.0
 11
142.6900139165
 21
136.982671825
 31
0.0
  0
LINE
  5
2CC
330
28E
100
AcDbEntity
  8
AP_390
  6
HIDDEN2
 62
     7
100
AcDbLine
 10
145.1900139165
 20
135.982671825
 30
0.0
 11
145.1900139165
 21
136.982671825
 31
0.0
  0
LINE
  5
2CD
330
28E
100
AcDbEntity
  8
AP_390
  6
HIDDEN2
 62
     7
100
AcDbLine
 10
143.3419512287
 20
135.982671825
 30
0.0
 11
145.1900139165
 21
135.982671825
 31
0.0
  0
LINE
  5
2CE
330
28E
100
AcDbEntity
  8
AP_390
  6
Continuous
 62
     7
100
AcDbLine
 10
143.3419512287
 20
133.682671825
 30
0.0
 11
143.3419512287
 21
135.482671825
 31
0.0
  0
LINE
  5
2CF
330
28E
100
AcDbEntity
  8
AP_390
  6
HIDDEN2
 62
     7
100
AcDbLine
 10
143.3419512287
 20
135.482671825
 30
0.0
 11
143.3419512287
 21
135.982671825
 31
0.0
  0
LINE
  5
2D0
330
28E
100
AcDbEntity
  8
AP_390
  6
Continuous
 62
     7
100
AcDbLine
 10
153.0400139165
 20
133.682671825
 30
0.0
 11
143.3419512287
 21
133.682671825
 31
0.0
  0
LINE
  5
2D1
330
28E
100
AcDbEntity
  8
AP_390
  6
HIDDEN2
 62
     7
100
AcDbLine
 10
153.0400139165
 20
135.982671825
 30
0.0
 11
153.0400139165
 21
135.482671825
 31
0.0
  0
LINE
  5
2D2
330
28E
100
AcDbEntity
  8
AP_390
  6
Continuous
 62
     7
100
AcDbLine
 10
153.0400139165
 20
135.482671825
 30
0.0
 11
153.0400139165
 21
133.682671825
 31
0.0
  0
LINE
  5
2D3
330
28E
100
AcDbEntity
  8
AP_390
  6
HIDDEN2
 62
     7
100
AcDbLine
 10
151.1900139165
 20
135.982671825
 30
0.0
 11
153.0400139165
 21
135.982671825
 31
0.0
  0
LINE
  5
2D4
330
28E
100
AcDbEntity
  8
AP_390
  6
HIDDEN2
 62
     7
100
AcDbLine
 10
151.1900139165
 20
136.982671825
 30
0.0
 11
151.1900139165
 21
135.982671825
 31
0.0
  0
LINE
  5
2D5
330
28E
100
AcDbEntity
  8
AP_390
  6
HIDDEN2
 62
     7
100
AcDbLine
 10
153.6900139165
 20
136.982671825
 30
0.0
 11
151.1900139165
 21
136.982671825
 31
0.0
  0
ARC
  5
2D6
330
28E
100
AcDbEntity
  8
AP_390
  6
HIDDEN2
 62
     7
100
AcDbCircle
 10
153.6900139165
 20
136.482671825
 30
0.0
 40
0.4999999999999996
100
AcDbArc
 50
0.0
 51
90.0
  0
LINE
  5
2D7
330
28E
100
AcDbEntity
  8
AP_390
  6
Continuous
 62
     7
100
AcDbLine
 10
154.1900139165
 20
101.982671825
 30
0.0
 11
154.1900139165
 21
135.482671825
 31
0.0
  0
LINE
  5
2D8
330
28E
100
AcDbEntity
  8
AP_390
  6
HIDDEN2
 62
     7
100
AcDbLine
 10
154.1900139165
 20
135.482671825
 30
0.0
 11
154.1900139165
 21
136.482671825
 31
0.0
  0
LINE
  5
2D9
330
28E
100
AcDbEntity
  8
AP_390
  6
Continuous
 62
     7
100
AcDbLine
 10
153.4900139165
 20
101.982671825
 30
0.0
 11
154.1900139165
 21
101.982671825
 31
0.0
  0
ARC
  5
2DA
330
28E
100
AcDbEntity
  8
AP_390
  6
Continuous
 62
     7
100
AcDbCircle
 10
153.4900139165
 20
102.282671825
 30
0.0
 40
0.3000000000000008
100
AcDbArc
 50
180.0
 51
270.0
  0
LINE
  5
2DB
330
28E
100
AcDbEntity
  8
AP_390
  6
Continuous
 62
     7
100
AcDbLine
 10
153.1900139165
 20
121.982671825
 30
0.0
 11
153.1900139165
 21
102.282671825
 31
0.0
  0
LINE
  5
2DC
330
28E
100
AcDbEntity
  8
AP_390
  6
Continuous
 62
     7
100
AcDbLine
 10
152.3756545626
 20
121.982671825
 30
0.0
 11
153.1900139165
 21
121.982671825
 31
0.0
  0
LINE
  5
2DD
330
28E
100
AcDbEntity
  8
AP_390
  6
Continuous
 62
     7
100
AcDbLine
 10
151.2900139165
 20
122.6094667443
 30
0.0
 11
152.3756545626
 21
121.982671825
 31
0.0
  0
ARC
  5
2DE
330
28E
100
AcDbEntity
  8
AP_390
  6
Continuous
 62
     7
100
AcDbCircle
 10
151.3900139165
 20
122.782671825
 30
0.0
 40
0.2000000000000005
100
AcDbArc
 50
90.0
 51
240.0
  0
LINE
  5
2DF
330
28E
100
AcDbEntity
  8
AP_390
  6
Continuous
 62
     7
100
AcDbLine
 10
153.0400139165
 20
122.982671825
 30
0.0
 11
151.3900139165
 21
122.982671825
 31
0.0
  0
LINE
  5
2E0
330
28E
100
AcDbEntity
  8
AP_390
  6
Continuous
 62
     7
100
AcDbLine
 10
153.0400139165
 20
132.682671825
 30
0.0
 11
153.0400139165
 21
122.982671825
 31
0.0
  0
LINE
  5
2E1
330
28E
100
AcDbEntity
  8
AP_390
  6
Continuous
 62
     7
100
AcDbLine
 10
143.3419512287
 20
132.682671825
 30
0.0
 11
153.0400139165
 21
132.682671825
 31
0.0
  0
LINE
  5
2E2
330
28E
100
AcDbEntity
  8
AP_390
  6
Continuous
 62
     7
100
AcDbLine
 10
143.3419512287
 20
122.982671825
 30
0.0
 11
143.3419512287
 21
132.682671825
 31
0.0
  0
LINE
  5
2E3
330
28E
100
AcDbEntity
  8
AP_390
  6
Continuous
 62
     7
100
AcDbLine
 10
144.9900139165
 20
122.982671825
 30
0.0
 11
143.3419512287
 21
122.982671825
 31
0.0
  0
ARC
  5
2E4
330
28E
100
AcDbEntity
  8
AP_390
  6
Continuous
 62
     7
100
AcDbCircle
 10
144.9900139165
 20
122.782671825
 30
0.0
 40
0.2000000000000003
100
AcDbArc
 50
300.0
 51
90.0
  0
LINE
  5
2E5
330
28E
100
AcDbEntity
  8
AJ_145
  6
Continuous
 62
     7
100
AcDbLine
 10
152.0419512287
 20
123.232671825
 30
0.0
 11
152.2919512287
 21
123.232671825
 31
0.0
  0
LINE
  5
2E6
330
28E
100
AcDbEntity
  8
AJ_145
  6
Continuous
 62
     7
100
AcDbLine
 10
152.0419512287
 20
132.432671825
 30
0.0
 11
152.2919512287
 21
132.432671825
 31
0.0
  0
LINE
  5
2E7
330
28E
100
AcDbEntity
  8
AJ_145
  6
Continuous
 62
     7
100
AcDbLine
 10
144.0919512287
 20
132.432671825
 30
0.0
 11
152.0419512287
 21
132.432671825
 31
0.0
  0
ARC
  5
2E8
330
28E
100
AcDbEntity
  8
AJ_145
  6
Continuous
 62
     7
100
AcDbCircle
 10
144.0919512287
 20
131.932671825
 30
0.0
 40
0.5000000000000004
100
AcDbArc
 50
90.0
 51
180.0
  0
LINE
  5
2E9
330
28E
100
AcDbEntity
  8
AJ_145
  6
Continuous
 62
     7
100
AcDbLine
 10
152.7919512287
 20
123.732671825
 30
0.0
 11
152.7919512287
 21
131.932671825
 31
0.0
  0
ARC
  5
2EA
330
28E
100
AcDbEntity
  8
AJ_145
  6
Continuous
 62
     7
100
AcDbCircle
 10
152.2919512287
 20
123.732671825
 30
0.0
 40
0.5000000000000004
100
AcDbArc
 50
270.0
 51
0.0
  0
ARC
  5
2EB
330
28E
100
AcDbEntity
  8
AJ_145
  6
Continuous
 62
     7
100
AcDbCircle
 10
152.2919512287
 20
131.932671825
 30
0.0
 40
0.5000000000000004
100
AcDbArc
 50
0.0
 51
90.0
  0
LINE
  5
2EC
330
28E
100
AcDbEntity
  8
AJ_145
  6
Continuous
 62
     7
100
AcDbLine
 10
143.5919512287
 20
123.732671825
 30
0.0
 11
143.5919512287
 21
131.932671825
 31
0.0
  0
LINE
  5
2ED
330
28E
100
AcDbEntity
  8
AJ_145
  6
Continuous
 62
     7
100
AcDbLine
 10
144.0919512287
 20
123.232671825
 30
0.0
 11
152.0419512287
 21
123.232671825
 31
0.0
  0
ARC
  5
2EE
330
28E
100
AcDbEntity
  8
AJ_145
  6
Continuous
 62
     7
100
AcDbCircle
 10
144.0919512287
 20
123.732671825
 30
0.0
 40
0.5000000000000004
100
AcDbArc
 50
180.0
 51
270.0
  0
LINE
  5
2EF
330
28E
100
AcDbEntity
  8
AJ_146
  6
Continuous
 62
     7
100
AcDbLine
 10
152.6919512287
 20
132.332671825
 30
0.0
 11
152.6919512287
 21
132.232671825
 31
0.0
  0
LINE
  5
2F0
330
28E
100
AcDbEntity
  8
AJ_146
  6
Continuous
 62
     7
100
AcDbLine
 10
152.6919512287
 20
123.432671825
 30
0.0
 11
152.6919512287
 21
123.332671825
 31
0.0
  0
LINE
  5
2F1
330
28E
100
AcDbEntity
  8
AJ_146
  6
Continuous
 62
     7
100
AcDbLine
 10
152.6919512287
 20
123.332671825
 30
0.0
 11
152.5919512287
 21
123.332671825
 31
0.0
  0
LINE
  5
2F2
330
28E
100
AcDbEntity
  8
AJ_146
  6
Continuous
 62
     7
100
AcDbLine
 10
143.7919512287
 20
123.332671825
 30
0.0
 11
143.6919512287
 21
123.332671825
 31
0.0
  0
LINE
  5
2F3
330
28E
100
AcDbEntity
  8
AJ_146
  6
Continuous
 62
     7
100
AcDbLine
 10
143.6919512287
 20
123.332671825
 30
0.0
 11
143.6919512287
 21
123.432671825
 31
0.0
  0
LINE
  5
2F4
330
28E
100
AcDbEntity
  8
AJ_146
  6
Continuous
 62
     7
100
AcDbLine
 10
143.6919512287
 20
132.232671825
 30
0.0
 11
143.6919512287
 21
132.332671825
 31
0.0
  0
LINE
  5
2F5
330
28E
100
AcDbEntity
  8
AJ_146
  6
Continuous
 62
     7
100
AcDbLine
 10
143.6919512287
 20
132.332671825
 30
0.0
 11
143.7919512287
 21
132.332671825
 31
0.0
  0
LINE
  5
2F6
330
28E
100
AcDbEntity
  8
AJ_146
  6
Continuous
 62
     7
100
AcDbLine
 10
152.5919512287
 20
132.332671825
 30
0.0
 11
152.6919512287
 21
132.332671825
 31
0.0
  0
LINE
  5
2F7
330
28E
100
AcDbEntity
  8
AP_392_215MM
  6
Continuous
 62
     7
100
AcDbLine
 10
151.4928981662
 20
111.8897176314
 30
0.0
 11
151.4928981662
 21
102.7502266321
 31
0.0
  0
ARC
  5
2F8
330
28E
100
AcDbEntity
  8
AP_392_215MM
  6
Continuous
 62
     7
100
AcDbCircle
 10
151.8928981662
 20
111.8897176314
 30
0.0
 40
0.4
100
AcDbArc
 50
97.188556016
 51
180.0
  0
ARC
  5
2F9
330
28E
100
AcDbEntity
  8
AP_392_215MM
  6
Continuous
 62
     7
100
AcDbCircle
 10
151.7931173708
 20
112.6834705426
 30
0.0
 40
0.4000000000000005
100
AcDbArc
 50
277.1413103469
 51
90.4268611866
  0
LINE
  5
2FA
330
28E
100
AcDbEntity
  8
AP_392_215MM
  6
Continuous
 62
     7
100
AcDbLine
 10
151.7901373451
 20
116.5326718251
 30
0.0
 11
151.7901373451
 21
113.0834594418
 31
0.0
  0
ARC
  5
2FB
330
28E
100
AcDbEntity
  8
AP_392_215MM
  6
Continuous
 62
     7
100
AcDbCircle
 10
151.5901373451
 20
116.5326718251
 30
0.0
 40
0.2000000000000008
100
AcDbArc
 50
0.0
 51
123.9432284018
  0
LINE
  5
2FC
330
28E
100
AcDbEntity
  8
AP_392_215MM
  6
Continuous
 62
     7
100
AcDbLine
 10
151.2825890963
 20
116.5667535766
 30
0.0
 11
151.4784631099
 21
116.6985900736
 31
0.0
  0
ARC
  5
2FD
330
28E
100
AcDbEntity
  8
AP_392_215MM
  6
Continuous
 62
     7
100
AcDbCircle
 10
151.1709148611
 20
116.7326718251
 30
0.0
 40
0.2000000000000008
100
AcDbArc
 50
237.5
 51
303.9432284018
  0
LINE
  5
2FE
330
28E
100
AcDbEntity
  8
AP_392_215MM
  6
Continuous
 62
     7
100
AcDbLine
 10
149.8861907566
 20
117.313993536
 30
0.0
 11
151.0634549394
 21
116.563993536
 31
0.0
  0
ARC
  5
2FF
330
28E
100
AcDbEntity
  8
AP_392_215MM
  6
Continuous
 62
     7
100
AcDbCircle
 10
149.9936506782
 20
117.4826718251
 30
0.0
 40
0.2000000000000002
100
AcDbArc
 50
122.5
 51
237.5
  0
LINE
  5
300
330
28E
100
AcDbEntity
  8
AP_392_215MM
  6
Continuous
 62
     7
100
AcDbLine
 10
151.0634549394
 20
118.4013501143
 30
0.0
 11
149.8861907566
 21
117.6513501143
 31
0.0
  0
ARC
  5
301
330
28E
100
AcDbEntity
  8
AP_392_215MM
  6
Continuous
 62
     7
100
AcDbCircle
 10
151.1709148611
 20
118.2326718251
 30
0.0
 40
0.1999999999999933
100
AcDbArc
 50
56.0567715982
 51
122.5
  0
LINE
  5
302
330
28E
100
AcDbEntity
  8
AP_392_215MM
  6
Continuous
 62
     7
100
AcDbLine
 10
151.4784631099
 20
118.2667535766
 30
0.0
 11
151.2825890963
 21
118.3985900736
 31
0.0
  0
ARC
  5
303
330
28E
100
AcDbEntity
  8
AP_392_215MM
  6
Continuous
 62
     7
100
AcDbCircle
 10
151.5901373451
 20
118.4326718251
 30
0.0
 40
0.2000000000000001
100
AcDbArc
 50
236.0567715982
 51
0.0
  0
LINE
  5
304
330
28E
100
AcDbEntity
  8
AP_392_215MM
  6
Continuous
 62
     7
100
AcDbLine
 10
151.7901373451
 20
118.4448439693
 30
0.0
 11
151.7901373451
 21
118.4326718251
 31
0.0
  0
LINE
  5
305
330
28E
100
AcDbEntity
  8
AP_392_215MM
  6
Continuous
 62
     7
100
AcDbLine
 10
152.3554409531
 20
119.0101475773
 30
0.0
 11
151.7901373451
 21
118.4448439693
 31
0.0
  0
LINE
  5
306
330
28E
100
AcDbEntity
  8
AP_392_215MM
  6
Continuous
 62
     7
100
AcDbLine
 10
152.7899242373
 20
118.7592985362
 30
0.0
 11
152.3554409531
 21
119.0101475773
 31
0.0
  0
LINE
  5
307
330
28E
100
AcDbEntity
  8
AP_392_215MM
  6
Continuous
 62
     7
100
AcDbLine
 10
152.7899242373
 20
115.8832683967
 30
0.0
 11
152.7899242373
 21
118.7592985362
 31
0.0
  0
ARC
  5
308
330
28E
100
AcDbEntity
  8
AP_392_215MM
  6
Continuous
 62
     7
100
AcDbCircle
 10
152.7899242373
 20
115.6832683967
 30
0.0
 40
0.2000000000000018
100
AcDbArc
 50
90.0000000007
 51
270.0000000001
  0
LINE
  5
309
330
28E
100
AcDbEntity
  8
AP_392_215MM
  6
Continuous
 62
     7
100
AcDbLine
 10
143.5824602059
 20
115.4832683967
 30
0.0
 11
143.5824602059
 21
102.8897359761
 31
0.0
  0
ARC
  5
30A
330
28E
100
AcDbEntity
  8
AP_392_215MM
  6
Continuous
 62
     7
100
AcDbCircle
 10
143.5824602059
 20
115.6832683967
 30
0.0
 40
0.2000000000000001
100
AcDbArc
 50
269.9999999996
 51
89.9999999996
  0
LINE
  5
30B
330
28E
100
AcDbEntity
  8
AP_392_215MM
  6
Continuous
 62
     7
100
AcDbLine
 10
143.5824602059
 20
118.7592985362
 30
0.0
 11
143.5824602059
 21
115.8832683967
 31
0.0
  0
LINE
  5
30C
330
28E
100
AcDbEntity
  8
AP_392_215MM
  6
Continuous
 62
     7
100
AcDbLine
 10
144.0169434901
 20
119.0101475773
 30
0.0
 11
143.5824602059
 21
118.7592985362
 31
0.0
  0
LINE
  5
30D
330
28E
100
AcDbEntity
  8
AP_392_215MM
  6
Continuous
 62
     7
100
AcDbLine
 10
144.5822470981
 20
118.4448439693
 30
0.0
 11
144.0169434901
 21
119.0101475773
 31
0.0
  0
LINE
  5
30E
330
28E
100
AcDbEntity
  8
AP_392_215MM
  6
Continuous
 62
     7
100
AcDbLine
 10
144.5822470981
 20
118.4326718251
 30
0.0
 11
144.5822470981
 21
118.4448439693
 31
0.0
  0
ARC
  5
30F
330
28E
100
AcDbEntity
  8
AP_392_215MM
  6
Continuous
 62
     7
100
AcDbCircle
 10
144.7822470981
 20
118.4326718251
 30
0.0
 40
0.2000000000000008
100
AcDbArc
 50
180.0
 51
303.9432284018
  0
LINE
  5
310
330
28E
100
AcDbEntity
  8
AP_392_215MM
  6
Continuous
 62
     7
100
AcDbLine
 10
145.0897953469
 20
118.3985900736
 30
0.0
 11
144.8939213333
 21
118.2667535766
 31
0.0
  0
ARC
  5
311
330
28E
100
AcDbEntity
  8
AP_392_215MM
  6
Continuous
 62
     7
100
AcDbCircle
 10
145.2014695822
 20
118.2326718251
 30
0.0
 40
0.2000000000000002
100
AcDbArc
 50
57.5
 51
123.9432284018
  0
LINE
  5
312
330
28E
100
AcDbEntity
  8
AP_392_215MM
  6
Continuous
 62
     7
100
AcDbLine
 10
146.4861936867
 20
117.6513501143
 30
0.0
 11
145.3089295038
 21
118.4013501143
 31
0.0
  0
ARC
  5
313
330
28E
100
AcDbEntity
  8
AP_392_215MM
  6
Continuous
 62
     7
100
AcDbCircle
 10
146.378733765
 20
117.4826718251
 30
0.0
 40
0.2000000000000024
100
AcDbArc
 50
302.5
 51
57.5
  0
LINE
  5
314
330
28E
100
AcDbEntity
  8
AP_392_215MM
  6
Continuous
 62
     7
100
AcDbLine
 10
145.3089295038
 20
116.563993536
 30
0.0
 11
146.4861936867
 21
117.313993536
 31
0.0
  0
ARC
  5
315
330
28E
100
AcDbEntity
  8
AP_392_215MM
  6
Continuous
 62
     7
100
AcDbCircle
 10
145.2014695822
 20
116.7326718251
 30
0.0
 40
0.1999999999999932
100
AcDbArc
 50
236.0567715982
 51
302.5
  0
LINE
  5
316
330
28E
100
AcDbEntity
  8
AP_392_215MM
  6
Continuous
 62
     7
100
AcDbLine
 10
144.8939213333
 20
116.6985900736
 30
0.0
 11
145.0897953469
 21
116.5667535766
 31
0.0
  0
ARC
  5
317
330
28E
100
AcDbEntity
  8
AP_392_215MM
  6
Continuous
 62
     7
100
AcDbCircle
 10
144.7822470981
 20
116.5326718251
 30
0.0
 40
0.200000000000004
100
AcDbArc
 50
56.0567715982
 51
180.0
  0
LINE
  5
318
330
28E
100
AcDbEntity
  8
AP_392_215MM
  6
Continuous
 62
     7
100
AcDbLine
 10
144.5822470981
 20
113.0834594418
 30
0.0
 11
144.5822470981
 21
116.5326718251
 31
0.0
  0
ARC
  5
319
330
28E
100
AcDbEntity
  8
AP_392_215MM
  6
Continuous
 62
     7
100
AcDbCircle
 10
144.5792670724
 20
112.6834705426
 30
0.0
 40
0.3999999999999742
100
AcDbArc
 50
89.5731388136
 51
262.8586896529
  0
ARC
  5
31A
330
28E
100
AcDbEntity
  8
AP_392_215MM
  6
Continuous
 62
     7
100
AcDbCircle
 10
144.4794862771
 20
111.8897176314
 30
0.0
 40
0.4000000000000002
100
AcDbArc
 50
0.0
 51
82.8114439839
  0
LINE
  5
31B
330
28E
100
AcDbEntity
  8
AP_392_215MM
  6
Continuous
 62
     7
100
AcDbLine
 10
144.8794862771
 20
102.7502266321
 30
0.0
 11
144.8794862771
 21
111.8897176314
 31
0.0
  0
ARC
  5
31C
330
28E
100
AcDbEntity
  8
AP_392_215MM
  6
Continuous
 62
     7
100
AcDbCircle
 10
145.3794862771
 20
102.7502266321
 30
0.0
 40
0.4999999999999999
100
AcDbArc
 50
180.0
 51
255.0784671139
  0
ARC
  5
31D
330
28E
100
AcDbEntity
  8
AP_392_215MM
  6
Continuous
 62
     7
100
AcDbCircle
 10
148.1861922216
 20
113.282671825
 30
0.0
 40
11.4
100
AcDbArc
 50
255.0784671139
 51
284.9215328861
  0
ARC
  5
31E
330
28E
100
AcDbEntity
  8
AP_392_215MM
  6
Continuous
 62
     7
100
AcDbCircle
 10
150.9928981662
 20
102.7502266321
 30
0.0
 40
0.5
100
AcDbArc
 50
284.9215328861
 51
0.0
  0
ARC
  5
31F
330
28E
100
AcDbEntity
  8
AP_392_215MM
  6
Continuous
 62
     7
100
AcDbCircle
 10
148.1861922216
 20
113.282671825
 30
0.0
 40
12.0
100
AcDbArc
 50
250.876102371
 51
289.123897629
  0
ARC
  5
320
330
28E
100
AcDbEntity
  8
AP_392_215MM
  6
Continuous
 62
     7
100
AcDbCircle
 10
144.5824602059
 20
102.8897359761
 30
0.0
 40
0.9999999999999996
100
AcDbArc
 50
180.0
 51
250.876102371
  0
LINE
  5
321
330
28E
100
AcDbEntity
  8
AP_392_215MM
  6
Continuous
 62
     7
100
AcDbLine
 10
152.7899242373
 20
102.8897359761
 30
0.0
 11
152.7899242373
 21
115.4832683967
 31
0.0
  0
ARC
  5
322
330
28E
100
AcDbEntity
  8
AP_392_215MM
  6
Continuous
 62
     7
100
AcDbCircle
 10
151.7899242373
 20
102.8897359761
 30
0.0
 40
0.9999999999999998
100
AcDbArc
 50
289.123897629
 51
0.0
  0
LINE
  5
323
330
28E
100
AcDbEntity
  8
AW_065
  6
Continuous
 62
     7
100
AcDbLine
 10
141.6900139165
 20
148.982671825
 30
0.0
 11
141.6900139165
 21
135.982671825
 31
0.0
  0
LINE
  5
324
330
28E
100
AcDbEntity
  8
AW_065
  6
Continuous
 62
     7
100
AcDbLine
 10
154.6900139165
 20
148.982671825
 30
0.0
 11
154.6900139165
 21
135.982671825
 31
0.0
  0
ARC
  5
325
330
28E
100
AcDbEntity
  8
AW_065
  6
Continuous
 62
     7
100
AcDbCircle
 10
148.1900139165
 20
148.982671825
 30
0.0
 40
6.5
100
AcDbArc
 50
0.0
 51
180.0
  0
LINE
  5
326
330
28E
100
AcDbEntity
  8
AW_065
  6
Continuous
 62
     7
100
AcDbLine
 10
143.9400139165
 20
135.482671825
 30
0.0
 11
143.9400139165
 21
134.982671825
 31
0.0
  0
LINE
  5
327
330
28E
100
AcDbEntity
  8
AW_065
  6
Continuous
 62
     7
100
AcDbLine
 10
152.4400139165
 20
135.482671825
 30
0.0
 11
154.1900139165
 21
135.482671825
 31
0.0
  0
LINE
  5
328
330
28E
100
AcDbEntity
  8
AW_065
  6
Continuous
 62
     7
100
AcDbLine
 10
152.4400139165
 20
134.982671825
 30
0.0
 11
152.4400139165
 21
135.482671825
 31
0.0
  0
LINE
  5
329
330
28E
100
AcDbEntity
  8
AW_065
  6
Continuous
 62
     7
100
AcDbLine
 10
152.4400139165
 20
134.982671825
 30
0.0
 11
152.4400139165
 21
133.982671825
 31
0.0
  0
LINE
  5
32A
330
28E
100
AcDbEntity
  8
AW_065
  6
Continuous
 62
     7
100
AcDbLine
 10
152.4400139165
 20
133.982671825
 30
0.0
 11
143.9400139165
 21
133.982671825
 31
0.0
  0
LINE
  5
32B
330
28E
100
AcDbEntity
  8
AW_065
  6
Continuous
 62
     7
100
AcDbLine
 10
143.9400139165
 20
133.982671825
 30
0.0
 11
143.9400139165
 21
134.982671825
 31
0.0
  0
ARC
  5
32C
330
28E
100
AcDbEntity
  8
AW_065
  6
Continuous
 62
     7
100
AcDbCircle
 10
154.1900139165
 20
135.982671825
 30
0.0
 40
0.5000000000000004
100
AcDbArc
 50
270.0
 51
0.0
  0
LINE
  5
32D
330
28E
100
AcDbEntity
  8
AW_065
  6
Continuous
 62
     7
100
AcDbLine
 10
142.1900139165
 20
135.482671825
 30
0.0
 11
143.9400139165
 21
135.482671825
 31
0.0
  0
ARC
  5
32E
330
28E
100
AcDbEntity
  8
AW_065
  6
Continuous
 62
     7
100
AcDbCircle
 10
142.1900139165
 20
135.982671825
 30
0.0
 40
0.5000000000000004
100
AcDbArc
 50
180.0
 51
270.0
  0
CIRCLE
  5
32F
330
28E
100
AcDbEntity
  8
3MM_SCHRAUBE_X_1
  6
Continuous
 62
     7
100
AcDbCircle
 10
148.1900139165
 20
148.982671825
 30
0.0
 40
3.065933786798643
  0
LINE
  5
330
330
28E
100
AcDbEntity
  8
3MM_SCHRAUBE_X_1
  6
Continuous
 62
     7
100
AcDbLine
 10
147.2708936645
 20
147.1180419933
 30
0.0
 11
146.3400274477
 21
147.1326853562
 31
0.0
  0
LINE
  5
331
330
28E
100
AcDbEntity
  8
3MM_SCHRAUBE_X_1
  6
Continuous
 62
     7
100
AcDbLine
 10
146.3400274477
 20
147.1326853562
 30
0.0
 11
146.3253840849
 21
148.063551573
 31
0.0
  0
LINE
  5
332
330
28E
100
AcDbEntity
  8
3MM_SCHRAUBE_X_1
  6
Continuous
 62
     7
100
AcDbLine
 10
146.3253840849
 20
148.063551573
 30
0.0
 11
147.2445043368
 21
148.982671825
 31
0.0
  0
LINE
  5
333
330
28E
100
AcDbEntity
  8
3MM_SCHRAUBE_X_1
  6
Continuous
 62
     7
100
AcDbLine
 10
147.2445043368
 20
148.982671825
 30
0.0
 11
146.3253840849
 21
149.901792077
 31
0.0
  0
LINE
  5
334
330
28E
100
AcDbEntity
  8
3MM_SCHRAUBE_X_1
  6
Continuous
 62
     7
100
AcDbLine
 10
146.3253840849
 20
149.901792077
 30
0.0
 11
146.3400274477
 21
150.8326582938
 31
0.0
  0
LINE
  5
335
330
28E
100
AcDbEntity
  8
3MM_SCHRAUBE_X_1
  6
Continuous
 62
     7
100
AcDbLine
 10
146.3400274477
 20
150.8326582938
 30
0.0
 11
147.2708936645
 21
150.8473016567
 31
0.0
  0
LINE
  5
336
330
28E
100
AcDbEntity
  8
3MM_SCHRAUBE_X_1
  6
Continuous
 62
     7
100
AcDbLine
 10
147.2708936645
 20
150.8473016567
 30
0.0
 11
148.1900139165
 21
149.9281814047
 31
0.0
  0
LINE
  5
337
330
28E
100
AcDbEntity
  8
3MM_SCHRAUBE_X_1
  6
Continuous
 62
     7
100
AcDbLine
 10
148.1900139165
 20
149.9281814047
 30
0.0
 11
149.1091341685
 21
150.8473016567
 31
0.0
  0
LINE
  5
338
330
28E
100
AcDbEntity
  8
3MM_SCHRAUBE_X_1
  6
Continuous
 62
     7
100
AcDbLine
 10
149.1091341685
 20
150.8473016567
 30
0.0
 11
150.0400003853
 21
150.8326582938
 31
0.0
  0
LINE
  5
339
330
28E
100
AcDbEntity
  8
3MM_SCHRAUBE_X_1
  6
Continuous
 62
     7
100
AcDbLine
 10
150.0400003853
 20
150.8326582938
 30
0.0
 11
150.0546437482
 21
149.901792077
 31
0.0
  0
LINE
  5
33A
330
28E
100
AcDbEntity
  8
3MM_SCHRAUBE_X_1
  6
Continuous
 62
     7
100
AcDbLine
 10
150.0546437482
 20
149.901792077
 30
0.0
 11
149.1355234962
 21
148.982671825
 31
0.0
  0
LINE
  5
33B
330
28E
100
AcDbEntity
  8
3MM_SCHRAUBE_X_1
  6
Continuous
 62
     7
100
AcDbLine
 10
149.1355234962
 20
148.982671825
 30
0.0
 11
150.0546437482
 21
148.063551573
 31
0.0
  0
LINE
  5
33C
330
28E
100
AcDbEntity
  8
3MM_SCHRAUBE_X_1
  6
Continuous
 62
     7
100
AcDbLine
 10
150.0546437482
 20
148.063551573
 30
0.0
 11
150.0400003853
 21
147.1326853562
 31
0.0
  0
LINE
  5
33D
330
28E
100
AcDbEntity
  8
3MM_SCHRAUBE_X_1
  6
Continuous
 62
     7
100
AcDbLine
 10
150.0400003853
 20
147.1326853562
 30
0.0
 11
149.1091341685
 21
147.1180419933
 31
0.0
  0
LINE
  5
33E
330
28E
100
AcDbEntity
  8
3MM_SCHRAUBE_X_1
  6
Continuous
 62
     7
100
AcDbLine
 10
149.1091341685
 20
147.1180419933
 30
0.0
 11
148.1900139165
 21
148.0371622453
 31
0.0
  0
LINE
  5
33F
330
28E
100
AcDbEntity
  8
3MM_SCHRAUBE_X_1
  6
Continuous
 62
     7
100
AcDbLine
 10
148.1900139165
 20
148.0371622453
 30
0.0
 11
147.2708936645
 21
147.1180419933
 31
0.0
  0
ENDBLK
  5
341
330
28E
100
AcDbEntity
  8
0
100
AcDbBlockEnd
  0
ENDSEC
  0
SECTION
  2
ENTITIES
  0
INSERT
  5
70
330
1F
100
AcDbEntity
  8
Standard
100
AcDbBlockReference
  2
SE
 10
0.0
 20
0.0
 30
0.0
  0
DIMENSION
  5
140
330
1F
100
AcDbEntity
  8
Standard
  6
Continuous
 62
     7
100
AcDbDimension
  2
DMBLK69
 10
73.5922625332
 20
100.7922491897
 30
0.0
 11
73.5922625332
 21
118.2922491152
 31
0.0
 70
   160
  1
\A1;<>
 71
     5
 42
-1.0
 73
     0
 74
     0
 75
     0
  3
E-Katalog
100
AcDbAlignedDimension
 13
65.8963445618
 23
135.7922491897
 33
0.0
 14
66.3963445618
 24
100.7922491897
 34
0.0
 50
90.0
100
AcDbRotatedDimension
  0
DIMENSION
  5
14A
330
1F
100
AcDbEntity
  8
Standard
  6
Continuous
 62
     7
100
AcDbDimension
  2
DMBLK70
 10
54.3963445618
 20
158.3397895265
 30
0.0
 11
60.396344614
 21
158.3397895265
 31
0.0
 70
   161
  1
\A1;<>
 71
     5
 42
-1.0
 73
     0
 74
     0
 75
     0
  3
E-Katalog
100
AcDbAlignedDimension
 13
54.3963445618
 23
135.2922491897
 33
0.0
 14
66.3963445618
 24
135.2922491897
 34
0.0
  0
INSERT
  5
155
330
1F
100
AcDbEntity
  8
Standard
100
AcDbBlockReference
  2
SE1
 10
0.0
 20
0.0
 30
0.0
  0
DIMENSION
  5
1E7
330
1F
100
AcDbEntity
  8
Standard
  6
Continuous
 62
     7
100
AcDbDimension
  2
DMBLK71
 10
74.287905477
 20
187.7476171649
 30
0.0
 11
74.287905477
 21
205.2476170904
 31
0.0
 70
   160
  1
\A1;<>
 71
     5
 42
-1.0
 73
     0
 74
     0
 75
     0
  3
E-Katalog
100
AcDbAlignedDimension
 13
66.5919875056
 23
222.7476171649
 33
0.0
 14
67.0919875056
 24
187.7476171649
 34
0.0
 50
90.0
100
AcDbRotatedDimension
  0
DIMENSION
  5
1F1
330
1F
100
AcDbEntity
  8
Standard
  6
Continuous
 62
     7
100
AcDbDimension
  2
DMBLK72
 10
55.0919875056
 20
229.4279721885
 30
0.0
 11
61.0919875578
 21
229.4279721885
 31
0.0
 70
   161
  1
\A1;<>
 71
     5
 42
-1.0
 73
     0
 74
     0
 75
     0
  3
E-Katalog
100
AcDbAlignedDimension
 13
55.0919875056
 23
222.2476171649
 33
0.0
 14
67.0919875056
 24
222.2476171649
 34
0.0
  0
INSERT
  5
1FC
330
1F
100
AcDbEntity
  8
Standard
100
AcDbBlockReference
  2
SE2
 10
0.0
 20
0.0
 30
0.0
  0
INSERT
  5
28F
330
1F
100
AcDbEntity
  8
Standard
100
AcDbBlockReference
  2
SE3
 10
0.0
 20
0.0
 30
0.0
  0
LINE
  5
342
330
1F
100
AcDbEntity
  8
Standard
  6
Continuous
 62
     7
100
AcDbLine
 10
18.1568766159
 20
171.0856000139
 30
0.0
 11
198.0131616313
 21
171.0856000139
 31
0.0
  0
LINE
  5
343
330
1F
100
AcDbEntity
  8
Standard
  6
Continuous
 62
     7
100
AcDbLine
 10
108.0850191236
 20
248.4701847857
 30
0.0
 11
108.0850191236
 21
78.496657704
 31
0.0
  0
ENDSEC
  0
SECTION
  2
OBJECTS
  0
DICTIONARY
  5
C
330
0
100
AcDbDictionary
281
     1
  3
ACAD_DETAILVIEWSTYLE
350
37F
  3
ACAD_GROUP
350
D
  3
ACAD_LAYOUT
350
1A
  3
ACAD_MATERIAL
350
43
  3
ACAD_MLEADERSTYLE
350
6B
  3
ACAD_MLINESTYLE
350
17
  3
ACAD_PLOTSETTINGS
350
19
  3
ACAD_PLOTSTYLENAME
350
E
  3
ACAD_SCALELIST
350
47
  3
ACAD_SECTIONVIEWSTYLE
350
380
  3
ACAD_TABLESTYLE
350
69
  3
ACAD_VISUALSTYLE
350
2A
  3
ACDB_RECOMPOSE_DATA
350
37C
  3
AcDbVariableDictionary
350
344
  0
SUN
  5
6D
330
29
100
AcDbSun
 90
        1
290
     0
 63
     7
421
 16777215
 40
1.0
291
     1
 91
  2455826
 92
 54000000
292
     0
 70
     2
 71
   256
280
     1
  0
DICTIONARY
  5
37F
102
{ACAD_REACTORS
330
C
102
}
330
C
100
AcDbDictionary
281
     1
  0
DICTIONARY
  5
D
102
{ACAD_REACTORS
330
C
102
}
330
C
100
AcDbDictionary
281
     1
  0
DICTIONARY
  5
1A
102
{ACAD_REACTORS
330
C
102
}
330
C
100
AcDbDictionary
281
     1
  3
Layout1
350
1E
  3
Model
350
22
  0
DICTIONARY
  5
43
102
{ACAD_REACTORS
330
C
102
}
330
C
100
AcDbDictionary
281
     1
  3
ByBlock
350
45
  3
ByLayer
350
44
  3
Global
350
46
  0
DICTIONARY
  5
6B
102
{ACAD_REACTORS
330
C
102
}
330
C
100
AcDbDictionary
281
     1
  3
Standard
350
6C
  0
DICTIONARY
  5
17
102
{ACAD_REACTORS
330
C
102
}
330
C
100
AcDbDictionary
281
     1
  3
Standard
350
18
  0
DICTIONARY
  5
19
102
{ACAD_REACTORS
330
C
102
}
330
C
100
AcDbDictionary
281
     1
  0
ACDBDICTIONARYWDFLT
  5
E
102
{ACAD_REACTORS
330
C
102
}
330
C
100
AcDbDictionary
281
     1
  3
Normal
350
F
100
AcDbDictionaryWithDefault
340
F
  0
DICTIONARY
  5
47
102
{ACAD_REACTORS
330
C
102
}
330
C
100
AcDbDictionary
281
     1
  3
A0
350
48
  3
A1
350
49
  3
A2
350
4A
  3
A3
350
4B
  3
A4
350
4C
  3
A5
350
4D
  3
A6
350
4E
  3
A7
350
4F
  3
A8
350
50
  3
A9
350
51
  3
B0
350
52
  3
B1
350
53
  3
B2
350
54
  3
B3
350
55
  3
B4
350
56
  3
B5
350
57
  3
B6
350
58
  3
B7
350
59
  3
B8
350
5A
  3
B9
350
5B
  3
C0
350
5C
  3
C1
350
5D
  3
C2
350
5E
  3
C3
350
5F
  3
C4
350
60
  3
C5
350
61
  3
C6
350
62
  3
C7
350
63
  3
C8
350
64
  3
C9
350
65
  3
D0
350
66
  3
D1
350
67
  3
D2
350
68
  0
DICTIONARY
  5
380
102
{ACAD_REACTORS
330
C
102
}
330
C
100
AcDbDictionary
281
     1
  0
DICTIONARY
  5
69
102
{ACAD_REACTORS
330
C
102
}
330
C
100
AcDbDictionary
281
     1
  3
Standard
350
6A
  0
DICTIONARY
  5
2A
102
{ACAD_REACTORS
330
C
102
}
330
C
100
AcDbDictionary
281
     1
  3
2dWireframe
350
2F
  3
Basic
350
32
  3
Brighten
350
36
  3
ColorChange
350
3A
  3
Conceptual
350
34
  3
Dim
350
35
  3
EdgeColorOff
350
3D
  3
Facepattern
350
39
  3
Flat
350
2B
  3
FlatWithEdges
350
2C
  3
Gouraud
350
2D
  3
GouraudWithEdges
350
2E
  3
Hidden
350
31
  3
JitterOff
350
3B
  3
Linepattern
350
38
  3
OverhangOff
350
3C
  3
Realistic
350
33
  3
Shaded
350
42
  3
Shaded with edges
350
41
  3
Shades of Gray
350
3E
  3
Sketchy
350
3F
  3
Thicken
350
37
  3
Wireframe
350
30
  3
X-Ray
350
40
  0
XRECORD
  5
37C
102
{ACAD_REACTORS
330
C
102
}
330
C
100
AcDbXrecord
280
     1
 90
        1
330
6A
  0
DICTIONARY
  5
344
102
{ACAD_REACTORS
330
C
102
}
330
C
100
AcDbDictionary
281
     1
  3
CANNOSCALE
350
345
  3
CMLEADERSTYLE
350
37E
  3
CTABLESTYLE
350
37D
  3
XCLIPFRAME
350
346
  0
LAYOUT
  5
1E
102
{ACAD_REACTORS
330
1A
102
}
330
1A
100
AcDbPlotSettings
  1

  2
none_device
  4

  6

 40
0.0
 41
0.0
 42
0.0
 43
0.0
 44
0.0
 45
0.0
 46
0.0
 47
0.0
 48
0.0
 49
0.0
140
0.0
141
0.0
142
1.0
143
1.0
 70
   688
 72
     1
 73
     0
 74
     5
  7

 75
    16
 76
     0
 77
     2
 78
   300
147
1.0
148
0.0
149
0.0
100
AcDbLayout
  1
Layout1
 70
     1
 71
     1
 10
0.0
 20
0.0
 11
215.9
 21
279.4
 12
0.0
 22
0.0
 32
0.0
 14
0.0
 24
0.0
 34
0.0
 15
215.9
 25
279.4
 35
0.0
146
0.0
 13
0.0
 23
0.0
 33
0.0
 16
1.0
 26
0.0
 36
0.0
 17
0.0
 27
1.0
 37
0.0
 76
     0
330
1B
  0
LAYOUT
  5
22
102
{ACAD_REACTORS
330
1A
102
}
330
1A
100
AcDbPlotSettings
  1

  2
none_device
  4
Letter_(8.50_x_11.00_Inches)
  6

 40
6.35
 41
6.35
 42
6.35000508
 43
6.35000508
 44
215.9
 45
279.4
 46
0.0
 47
0.0
 48
0.0
 49
0.0
140
0.0
141
0.0
142
1.0
143
1.0
 70
  1712
 72
     1
 73
     0
 74
     0
  7

 75
     0
 76
     0
 77
     2
 78
   300
147
1.0
148
0.0
149
0.0
100
AcDbLayout
  1
Model
 70
     1
 71
     0
 10
0.0
 20
0.0
 11
215.9
 21
279.4
 12
0.0
 22
0.0
 32
0.0
 14
0.0
 24
0.0
 34
0.0
 15
215.9
 25
279.4
 35
0.0
146
0.0
 13
0.0
 23
0.0
 33
0.0
 16
1.0
 26
0.0
 36
0.0
 17
0.0
 27
1.0
 37
0.0
 76
     0
330
1F
331
29
  0
MATERIAL
  5
45
102
{ACAD_REACTORS
330
43
102
}
330
43
100
AcDbMaterial
  1
ByBlock
 72
     1
 94
      127
  0
MATERIAL
  5
44
102
{ACAD_REACTORS
330
43
102
}
330
43
100
AcDbMaterial
  1
ByLayer
 72
     1
 94
      127
  0
MATERIAL
  5
46
102
{ACAD_REACTORS
330
43
102
}
330
43
100
AcDbMaterial
  1
Global
 72
     1
 94
      127
  0
MLEADERSTYLE
  5
6C
102
{ACAD_REACTORS
330
6B
102
}
102
{ACAD_XDICTIONARY
360
37A
102
}
330
6B
100
AcDbMLeaderStyle
170
     2
171
     1
172
     0
 90
        2
 40
0.0
 41
0.0
173
     1
 91
-1056964608
340
14
 92
       -2
290
     1
 42
2.0
291
     1
 43
8.0
  3
Standard
341
0
 44
4.0
300

342
11
174
     1
178
     6
175
     1
176
     0
 93
-1056964608
 45
4.0
292
     0
297
     0
 46
4.0
343
0
 94
-1056964608
 47
1.0
 49
1.0
140
1.0
293
     1
141
0.0
294
     1
177
     0
142
1.0
295
     0
296
     0
143
3.75
1001
ACAD_MLEADERVER
1070
     2
  0
MLINESTYLE
  5
18
102
{ACAD_REACTORS
330
17
102
}
330
17
100
AcDbMlineStyle
  2
Standard
 70
     0
  3

 62
   256
 51
90.0
 52
90.0
 71
     2
 49
0.5
 62
   256
  6
BYLAYER
 49
-0.5
 62
   256
  6
BYLAYER
  0
ACDBPLACEHOLDER
  5
F
102
{ACAD_REACTORS
330
E
102
}
330
E
  0
SCALE
  5
48
102
{ACAD_REACTORS
330
47
102
}
330
47
100
AcDbScale
 70
     0
300
1:1
140
1.0
141
1.0
290
     1
  0
SCALE
  5
49
102
{ACAD_REACTORS
330
47
102
}
330
47
100
AcDbScale
 70
     0
300
1:2
140
1.0
141
2.0
290
     0
  0
SCALE
  5
4A
102
{ACAD_REACTORS
330
47
102
}
330
47
100
AcDbScale
 70
     0
300
1:4
140
1.0
141
4.0
290
     0
  0
SCALE
  5
4B
102
{ACAD_REACTORS
330
47
102
}
330
47
100
AcDbScale
 70
     0
300
1:5
140
1.0
141
5.0
290
     0
  0
SCALE
  5
4C
102
{ACAD_REACTORS
330
47
102
}
330
47
100
AcDbScale
 70
     0
300
1:8
140
1.0
141
8.0
290
     0
  0
SCALE
  5
4D
102
{ACAD_REACTORS
330
47
102
}
330
47
100
AcDbScale
 70
     0
300
1:10
140
1.0
141
10.0
290
     0
  0
SCALE
  5
4E
102
{ACAD_REACTORS
330
47
102
}
330
47
100
AcDbScale
 70
     0
300
1:16
140
1.0
141
16.0
290
     0
  0
SCALE
  5
4F
102
{ACAD_REACTORS
330
47
102
}
330
47
100
AcDbScale
 70
     0
300
1:20
140
1.0
141
20.0
290
     0
  0
SCALE
  5
50
102
{ACAD_REACTORS
330
47
102
}
330
47
100
AcDbScale
 70
     0
300
1:30
140
1.0
141
30.0
290
     0
  0
SCALE
  5
51
102
{ACAD_REACTORS
330
47
102
}
330
47
100
AcDbScale
 70
     0
300
1:40
140
1.0
141
40.0
290
     0
  0
SCALE
  5
52
102
{ACAD_REACTORS
330
47
102
}
330
47
100
AcDbScale
 70
     0
300
1:50
140
1.0
141
50.0
290
     0
  0
SCALE
  5
53
102
{ACAD_REACTORS
330
47
102
}
330
47
100
AcDbScale
 70
     0
300
1:100
140
1.0
141
100.0
290
     0
  0
SCALE
  5
54
102
{ACAD_REACTORS
330
47
102
}
330
47
100
AcDbScale
 70
     0
300
2:1
140
2.0
141
1.0
290
     0
  0
SCALE
  5
55
102
{ACAD_REACTORS
330
47
102
}
330
47
100
AcDbScale
 70
     0
300
4:1
140
4.0
141
1.0
290
     0
  0
SCALE
  5
56
102
{ACAD_REACTORS
330
47
102
}
330
47
100
AcDbScale
 70
     0
300
8:1
140
8.0
141
1.0
290
     0
  0
SCALE
  5
57
102
{ACAD_REACTORS
330
47
102
}
330
47
100
AcDbScale
 70
     0
300
10:1
140
10.0
141
1.0
290
     0
  0
SCALE
  5
58
102
{ACAD_REACTORS
330
47
102
}
330
47
100
AcDbScale
 70
     0
300
100:1
140
100.0
141
1.0
290
     0
  0
SCALE
  5
59
102
{ACAD_REACTORS
330
47
102
}
330
47
100
AcDbScale
 70
     0
300
1/128" = 1'-0"
140
0.0078125
141
12.0
290
     0
  0
SCALE
  5
5A
102
{ACAD_REACTORS
330
47
102
}
330
47
100
AcDbScale
 70
     0
300
1/64" = 1'-0"
140
0.015625
141
12.0
290
     0
  0
SCALE
  5
5B
102
{ACAD_REACTORS
330
47
102
}
330
47
100
AcDbScale
 70
     0
300
1/32" = 1'-0"
140
0.03125
141
12.0
290
     0
  0
SCALE
  5
5C
102
{ACAD_REACTORS
330
47
102
}
330
47
100
AcDbScale
 70
     0
300
1/16" = 1'-0"
140
0.0625
141
12.0
290
     0
  0
SCALE
  5
5D
102
{ACAD_REACTORS
330
47
102
}
330
47
100
AcDbScale
 70
     0
300
3/32" = 1'-0"
140
0.09375
141
12.0
290
     0
  0
SCALE
  5
5E
102
{ACAD_REACTORS
330
47
102
}
330
47
100
AcDbScale
 70
     0
300
1/8" = 1'-0"
140
0.125
141
12.0
290
     0
  0
SCALE
  5
5F
102
{ACAD_REACTORS
330
47
102
}
330
47
100
AcDbScale
 70
     0
300
3/16" = 1'-0"
140
0.1875
141
12.0
290
     0
  0
SCALE
  5
60
102
{ACAD_REACTORS
330
47
102
}
330
47
100
AcDbScale
 70
     0
300
1/4" = 1'-0"
140
0.25
141
12.0
290
     0
  0
SCALE
  5
61
102
{ACAD_REACTORS
330
47
102
}
330
47
100
AcDbScale
 70
     0
300
3/8" = 1'-0"
140
0.375
141
12.0
290
     0
  0
SCALE
  5
62
102
{ACAD_REACTORS
330
47
102
}
330
47
100
AcDbScale
 70
     0
300
1/2" = 1'-0"
140
0.5
141
12.0
290
     0
  0
SCALE
  5
63
102
{ACAD_REACTORS
330
47
102
}
330
47
100
AcDbScale
 70
     0
300
3/4" = 1'-0"
140
0.75
141
12.0
290
     0
  0
SCALE
  5
64
102
{ACAD_REACTORS
330
47
102
}
330
47
100
AcDbScale
 70
     0
300
1" = 1'-0"
140
1.0
141
12.0
290
     0
  0
SCALE
  5
65
102
{ACAD_REACTORS
330
47
102
}
330
47
100
AcDbScale
 70
     0
300
1-1/2" = 1'-0"
140
1.5
141
12.0
290
     0
  0
SCALE
  5
66
102
{ACAD_REACTORS
330
47
102
}
330
47
100
AcDbScale
 70
     0
300
3" = 1'-0"
140
3.0
141
12.0
290
     0
  0
SCALE
  5
67
102
{ACAD_REACTORS
330
47
102
}
330
47
100
AcDbScale
 70
     0
300
6" = 1'-0"
140
6.0
141
12.0
290
     0
  0
SCALE
  5
68
102
{ACAD_REACTORS
330
47
102
}
330
47
100
AcDbScale
 70
     0
300
1'-0" = 1'-0"
140
12.0
141
12.0
290
     0
  0
TABLESTYLE
  5
6A
102
{ACAD_REACTORS
330
69
102
}
102
{ACAD_XDICTIONARY
360
377
102
}
330
69
100
AcDbTableStyle
  3
Standard
 70
     0
 71
     0
 40
0.06
 41
0.06
280
     0
281
     0
  7
Standard
140
4.5
170
     2
 62
     0
 63
   257
283
     0
 90
        4
 91
        0
  1

274
    -2
284
     1
 64
     0
275
    -2
285
     1
 65
     0
276
    -2
286
     1
 66
     0
277
    -2
287
     1
 67
     0
278
    -2
288
     1
 68
     0
279
    -2
289
     1
 69
     0
  7
Standard
140
6.0
170
     5
 62
     0
 63
   257
283
     0
 90
        4
 91
        0
  1

274
    -2
284
     1
 64
     0
275
    -2
285
     1
 65
     0
276
    -2
286
     1
 66
     0
277
    -2
287
     1
 67
     0
278
    -2
288
     1
 68
     0
279
    -2
289
     1
 69
     0
  7
Standard
140
4.5
170
     5
 62
     0
 63
   257
283
     0
 90
        4
 91
        0
  1

274
    -2
284
     1
 64
     0
275
    -2
285
     1
 65
     0
276
    -2
286
     1
 66
     0
277
    -2
287
     1
 67
     0
278
    -2
288
     1
 68
     0
279
    -2
289
     1
 69
     0
  0
VISUALSTYLE
  5
2F
102
{ACAD_REACTORS
330
2A
102
}
102
{ACAD_XDICTIONARY
360
34F
102
}
330
2A
100
AcDbVisualStyle
  2
2dWireframe
 70
     4
 71
     0
 72
     2
 73
     0
 90
        0
 40
0.6
 41
30.0
 62
     5
 63
     7
421
 16777215
 74
     1
 91
        4
 64
     7
 65
   257
 75
     1
175
     1
 42
1.0
 92
        0
 66
   257
 43
1.0
 76
     1
 77
     6
 78
     2
 67
     7
 79
     5
170
     0
171
     0
290
     0
174
     0
 93
        1
 44
0.0
173
     0
291
     0
 45
0.0
  0
VISUALSTYLE
  5
32
102
{ACAD_REACTORS
330
2A
102
}
102
{ACAD_XDICTIONARY
360
355
102
}
330
2A
100
AcDbVisualStyle
  2
Basic
 70
     7
 71
     1
 72
     0
 73
     1
 90
        0
 40
0.6
 41
30.0
 62
     5
 63
     7
421
 16777215
 74
     0
 91
        4
 64
     7
 65
   257
 75
     1
175
     1
 42
1.0
 92
        8
 66
     7
 43
1.0
 76
     1
 77
     6
 78
     2
 67
     7
 79
     5
170
     0
171
     0
290
     0
174
     0
 93
        1
 44
0.0
173
     0
291
     1
 45
0.0
  0
VISUALSTYLE
  5
36
102
{ACAD_REACTORS
330
2A
102
}
102
{ACAD_XDICTIONARY
360
35D
102
}
330
2A
100
AcDbVisualStyle
  2
Brighten
 70
    12
 71
     2
 72
     2
 73
     0
 90
        0
 40
0.6
 41
30.0
 62
     5
 63
     7
421
 16777215
 74
     1
 91
        4
 64
     7
 65
   257
 75
     1
175
     1
 42
1.0
 92
        8
 66
     7
 43
1.0
 76
     1
 77
     6
 78
     2
 67
     7
 79
     5
170
     0
171
     0
290
     0
174
     0
 93
        1
 44
50.0
173
     0
291
     1
 45
0.0
  0
VISUALSTYLE
  5
3A
102
{ACAD_REACTORS
330
2A
102
}
102
{ACAD_XDICTIONARY
360
365
102
}
330
2A
100
AcDbVisualStyle
  2
ColorChange
 70
    16
 71
     2
 72
     2
 73
     3
 90
        0
 40
0.6
 41
30.0
 62
     5
 63
     8
421
  8421504
 74
     1
 91
        4
 64
     7
 65
   257
 75
     1
175
     1
 42
1.0
 92
        8
 66
     8
424
  8421504
 43
1.0
 76
     1
 77
     6
 78
     2
 67
     7
 79
     5
170
     0
171
     0
290
     0
174
     0
 93
        1
 44
0.0
173
     0
291
     1
 45
0.0
  0
VISUALSTYLE
  5
34
102
{ACAD_REACTORS
330
2A
102
}
102
{ACAD_XDICTIONARY
360
359
102
}
330
2A
100
AcDbVisualStyle
  2
Conceptual
 70
     9
 71
     3
 72
     2
 73
     0
 90
        0
 40
0.6
 41
30.0
 62
     5
 63
     7
421
 16777215
 74
     2
 91
        2
 64
     7
 65
   257
 75
     1
175
     1
 42
179.0
 92
        8
 66
     7
 43
1.0
 76
     1
 77
     6
 78
     2
 67
     7
 79
     3
170
     0
171
     0
290
     0
174
     0
 93
        1
 44
0.0
173
     0
291
     0
 45
0.0
  0
VISUALSTYLE
  5
35
102
{ACAD_REACTORS
330
2A
102
}
102
{ACAD_XDICTIONARY
360
35B
102
}
330
2A
100
AcDbVisualStyle
  2
Dim
 70
    11
 71
     2
 72
     2
 73
     0
 90
        0
 40
0.6
 41
30.0
 62
     5
 63
     7
421
 16777215
 74
     1
 91
        4
 64
     7
 65
   257
 75
     1
175
     1
 42
1.0
 92
        8
 66
     7
 43
1.0
 76
     1
 77
     6
 78
     2
 67
     7
 79
     5
170
     0
171
     0
290
     0
174
     0
 93
        1
 44
-50.0
173
     0
291
     1
 45
0.0
  0
VISUALSTYLE
  5
3D
102
{ACAD_REACTORS
330
2A
102
}
102
{ACAD_XDICTIONARY
360
36B
102
}
330
2A
100
AcDbVisualStyle
  2
EdgeColorOff
 70
    22
 71
     2
 72
     2
 73
     0
 90
        0
 40
0.6
 41
30.0
 62
     5
 63
     7
421
 16777215
 74
     1
 91
        4
 64
     7
 65
   257
 75
     1
175
     1
 42
1.0
 92
        8
 66
     7
 43
1.0
 76
     1
 77
     6
 78
     2
 67
     7
 79
     5
170
     0
171
     0
290
     0
174
     0
 93
        1
 44
0.0
173
     0
291
     1
 45
0.0
  0
VISUALSTYLE
  5
39
102
{ACAD_REACTORS
330
2A
102
}
102
{ACAD_XDICTIONARY
360
363
102
}
330
2A
100
AcDbVisualStyle
  2
Facepattern
 70
    15
 71
     2
 72
     2
 73
     0
 90
        0
 40
0.6
 41
30.0
 62
     5
 63
     7
421
 16777215
 74
     1
 91
        4
 64
     7
 65
   257
 75
     1
175
     1
 42
1.0
 92
        8
 66
     7
 43
1.0
 76
     1
 77
     6
 78
     2
 67
     7
 79
     5
170
     0
171
     0
290
     0
174
     0
 93
        1
 44
0.0
173
     0
291
     1
 45
0.0
  0
VISUALSTYLE
  5
2B
102
{ACAD_REACTORS
330
2A
102
}
102
{ACAD_XDICTIONARY
360
347
102
}
330
2A
100
AcDbVisualStyle
  2
Flat
 70
     0
 71
     2
 72
     1
 73
     1
 90
        2
 40
0.6
 41
30.0
 62
     5
 63
     7
421
 16777215
 74
     0
 91
        0
 64
     7
 65
   257
 75
     1
175
     1
 42
1.0
 92
        8
 66
     7
 43
1.0
 76
     1
 77
     6
 78
     2
 67
     7
 79
     5
170
     0
171
     0
290
     0
174
     0
 93
       13
 44
0.0
173
     0
291
     1
 45
0.0
  0
VISUALSTYLE
  5
2C
102
{ACAD_REACTORS
330
2A
102
}
102
{ACAD_XDICTIONARY
360
349
102
}
330
2A
100
AcDbVisualStyle
  2
FlatWithEdges
 70
     1
 71
     2
 72
     1
 73
     1
 90
        2
 40
0.6
 41
30.0
 62
     5
 63
     7
421
 16777215
 74
     1
 91
        0
 64
     7
 65
   257
 75
     1
175
     1
 42
1.0
 92
        0
 66
   257
 43
1.0
 76
     1
 77
     6
 78
     2
 67
     7
 79
     5
170
     0
171
     0
290
     0
174
     0
 93
       13
 44
0.0
173
     0
291
     1
 45
0.0
  0
VISUALSTYLE
  5
2D
102
{ACAD_REACTORS
330
2A
102
}
102
{ACAD_XDICTIONARY
360
34B
102
}
330
2A
100
AcDbVisualStyle
  2
Gouraud
 70
     2
 71
     2
 72
     2
 73
     1
 90
        2
 40
0.6
 41
30.0
 62
     5
 63
     7
421
 16777215
 74
     0
 91
        0
 64
     7
 65
   257
 75
     1
175
     1
 42
1.0
 92
        0
 66
     7
 43
1.0
 76
     1
 77
     6
 78
     2
 67
     7
 79
     5
170
     0
171
     0
290
     0
174
     0
 93
       13
 44
0.0
173
     0
291
     1
 45
0.0
  0
VISUALSTYLE
  5
2E
102
{ACAD_REACTORS
330
2A
102
}
102
{ACAD_XDICTIONARY
360
34D
102
}
330
2A
100
AcDbVisualStyle
  2
GouraudWithEdges
 70
     3
 71
     2
 72
     2
 73
     1
 90
        2
 40
0.6
 41
30.0
 62
     5
 63
     7
421
 16777215
 74
     1
 91
        0
 64
     7
 65
   257
 75
     1
175
     1
 42
1.0
 92
        0
 66
   257
 43
1.0
 76
     1
 77
     6
 78
     2
 67
     7
 79
     5
170
     0
171
     0
290
     0
174
     0
 93
       13
 44
0.0
173
     0
291
     1
 45
0.0
  0
VISUALSTYLE
  5
31
102
{ACAD_REACTORS
330
2A
102
}
102
{ACAD_XDICTIONARY
360
353
102
}
330
2A
100
AcDbVisualStyle
  2
Hidden
 70
     6
 71
     1
 72
     2
 73
     2
 90
        0
 40
0.6
 41
30.0
 62
     5
 63
     7
421
 16777215
 74
     2
 91
        2
 64
     7
 65
   257
 75
     2
175
     1
 42
40.0
 92
        0
 66
   257
 43
1.0
 76
     1
 77
     6
 78
     2
 67
     7
 79
     3
170
     0
171
     0
290
     0
174
     0
 93
        1
 44
0.0
173
     0
291
     0
 45
0.0
  0
VISUALSTYLE
  5
3B
102
{ACAD_REACTORS
330
2A
102
}
102
{ACAD_XDICTIONARY
360
367
102
}
330
2A
100
AcDbVisualStyle
  2
JitterOff
 70
    20
 71
     2
 72
     2
 73
     0
 90
        0
 40
0.6
 41
30.0
 62
     5
 63
     7
421
 16777215
 74
     1
 91
        4
 64
     7
 65
   257
 75
     1
175
     1
 42
1.0
 92
       10
 66
     7
 43
1.0
 76
     1
 77
     6
 78
     2
 67
     7
 79
     5
170
     0
171
     0
290
     0
174
     0
 93
        1
 44
0.0
173
     0
291
     1
 45
0.0
  0
VISUALSTYLE
  5
38
102
{ACAD_REACTORS
330
2A
102
}
102
{ACAD_XDICTIONARY
360
361
102
}
330
2A
100
AcDbVisualStyle
  2
Linepattern
 70
    14
 71
     2
 72
     2
 73
     0
 90
        0
 40
0.6
 41
30.0
 62
     5
 63
     7
421
 16777215
 74
     1
 91
        4
 64
     7
 65
   257
 75
     7
175
     7
 42
1.0
 92
        8
 66
     7
 43
1.0
 76
     1
 77
     6
 78
     2
 67
     7
 79
     5
170
     0
171
     0
290
     0
174
     0
 93
        1
 44
0.0
173
     0
291
     1
 45
0.0
  0
VISUALSTYLE
  5
3C
102
{ACAD_REACTORS
330
2A
102
}
102
{ACAD_XDICTIONARY
360
369
102
}
330
2A
100
AcDbVisualStyle
  2
OverhangOff
 70
    21
 71
     2
 72
     2
 73
     0
 90
        0
 40
0.6
 41
30.0
 62
     5
 63
     7
421
 16777215
 74
     1
 91
        4
 64
     7
 65
   257
 75
     1
175
     1
 42
1.0
 92
        9
 66
     7
 43
1.0
 76
     1
 77
     6
 78
     2
 67
     7
 79
     5
170
     0
171
     0
290
     0
174
     0
 93
        1
 44
0.0
173
     0
291
     1
 45
0.0
  0
VISUALSTYLE
  5
33
102
{ACAD_REACTORS
330
2A
102
}
102
{ACAD_XDICTIONARY
360
357
102
}
330
2A
100
AcDbVisualStyle
  2
Realistic
 70
     8
 71
     2
 72
     3
 73
     0
 90
        2
 40
0.6
 41
30.0
 62
     5
 63
     7
421
 16777215
 74
     0
 91
        0
 64
     7
 65
   257
 75
     1
175
     1
 42
1.0
 92
        8
 66
   257
 43
1.0
 76
     1
 77
     6
 78
     2
 67
     7
 79
     3
170
     0
171
     0
290
     0
174
     0
 93
       13
 44
0.0
173
     0
291
     0
 45
0.0
  0
VISUALSTYLE
  5
42
102
{ACAD_REACTORS
330
2A
102
}
102
{ACAD_XDICTIONARY
360
375
102
}
330
2A
100
AcDbVisualStyle
  2
Shaded
 70
    27
 71
     2
 72
     2
 73
     1
 90
        2
 40
0.6
 41
30.0
 62
     5
 63
     7
421
 16777215
 74
     0
 91
        4
 64
     7
 65
   257
 75
     1
175
     1
 42
1.0
 92
        8
 66
   257
 43
1.0
 76
     1
 77
     6
 78
     2
 67
     8
425
  7895160
 79
     3
170
     0
171
     0
290
     0
174
     0
 93
        5
 44
0.0
173
     0
291
     0
 45
0.0
  0
VISUALSTYLE
  5
41
102
{ACAD_REACTORS
330
2A
102
}
102
{ACAD_XDICTIONARY
360
373
102
}
330
2A
100
AcDbVisualStyle
  2
Shaded with edges
 70
    26
 71
     2
 72
     2
 73
     1
 90
        2
 40
0.6
 41
30.0
 62
     5
 63
     7
421
 16777215
 74
     1
 91
       10
 64
     7
 65
   257
 75
     2
175
     1
 42
1.0
 92
        8
 66
   257
 43
1.0
 76
     1
 77
     6
 78
     2
 67
     7
 79
     3
170
     0
171
     0
290
     0
174
     0
 93
        5
 44
0.0
173
     0
291
     0
 45
0.0
  0
VISUALSTYLE
  5
3E
102
{ACAD_REACTORS
330
2A
102
}
102
{ACAD_XDICTIONARY
360
36D
102
}
330
2A
100
AcDbVisualStyle
  2
Shades of Gray
 70
    23
 71
     2
 72
     2
 73
     3
 90
        0
 40
0.6
 41
30.0
 62
     5
 63
     7
421
 16777215
 74
     2
 91
        2
 64
     7
 65
     7
 75
     1
175
     1
 42
40.0
 92
        8
 66
     7
 43
1.0
 76
     1
 77
     6
 78
     2
 67
     7
 79
     3
170
     0
171
     0
290
     0
174
     0
 93
        1
 44
0.0
173
     0
291
     0
 45
0.0
  0
VISUALSTYLE
  5
3F
102
{ACAD_REACTORS
330
2A
102
}
102
{ACAD_XDICTIONARY
360
36F
102
}
330
2A
100
AcDbVisualStyle
  2
Sketchy
 70
    24
 71
     1
 72
     2
 73
     2
 90
        0
 40
0.6
 41
30.0
 62
     5
 63
     7
421
 16777215
 74
     2
 91
        2
 64
     7
 65
     7
 75
     1
175
     1
 42
40.0
 92
       11
 66
     7
 43
1.0
 76
     1
 77
     6
 78
     2
 67
     7
 79
     6
170
     0
171
     0
290
     0
174
     0
 93
        1
 44
0.0
173
     0
291
     0
 45
0.0
  0
VISUALSTYLE
  5
37
102
{ACAD_REACTORS
330
2A
102
}
102
{ACAD_XDICTIONARY
360
35F
102
}
330
2A
100
AcDbVisualStyle
  2
Thicken
 70
    13
 71
     2
 72
     2
 73
     0
 90
        0
 40
0.6
 41
30.0
 62
     5
 63
     7
421
 16777215
 74
     1
 91
        4
 64
     7
 65
   257
 75
     1
175
     1
 42
1.0
 92
       12
 66
     7
 43
1.0
 76
     1
 77
     6
 78
     2
 67
     7
 79
     5
170
     0
171
     0
290
     0
174
     0
 93
        1
 44
0.0
173
     0
291
     1
 45
0.0
  0
VISUALSTYLE
  5
30
102
{ACAD_REACTORS
330
2A
102
}
102
{ACAD_XDICTIONARY
360
351
102
}
330
2A
100
AcDbVisualStyle
  2
Wireframe
 70
     5
 71
     0
 72
     2
 73
     0
 90
        0
 40
0.6
 41
30.0
 62
     5
 63
     7
421
 16777215
 74
     1
 91
        4
 64
     7
 65
   257
 75
     1
175
     1
 42
1.0
 92
        0
 66
   257
 43
1.0
 76
     1
 77
     6
 78
     2
 67
     7
 79
     3
170
     0
171
     0
290
     0
174
     0
 93
        1
 44
0.0
173
     0
291
     0
 45
0.0
  0
VISUALSTYLE
  5
40
102
{ACAD_REACTORS
330
2A
102
}
102
{ACAD_XDICTIONARY
360
371
102
}
330
2A
100
AcDbVisualStyle
  2
X-Ray
 70
    25
 71
     2
 72
     2
 73
     1
 90
        1
 40
0.5
 41
30.0
 62
     5
 63
     7
421
 16777215
 74
     1
 91
        0
 64
     7
 65
   257
 75
     1
175
     1
 42
1.0
 92
        8
 66
     7
 43
1.0
 76
     1
 77
     6
 78
     2
 67
     7
 79
     3
170
     0
171
     0
290
     0
174
     0
 93
       13
 44
0.0
173
     0
291
     0
 45
0.0
  0
DICTIONARYVAR
  5
345
102
{ACAD_REACTORS
330
344
102
}
330
344
100
DictionaryVariables
280
     0
  1
1:1
  0
DICTIONARYVAR
  5
37E
102
{ACAD_REACTORS
330
344
102
}
330
344
100
DictionaryVariables
280
     0
  1
Standard
  0
DICTIONARYVAR
  5
37D
102
{ACAD_REACTORS
330
344
102
}
330
344
100
DictionaryVariables
280
     0
  1
Standard
  0
DICTIONARYVAR
  5
346
102
{ACAD_REACTORS
330
344
102
}
330
344
100
DictionaryVariables
280
     0
  1
2
  0
DICTIONARY
  5
37A
330
6C
100
AcDbDictionary
280
     1
281
     1
  3
ACAD_XREC_ROUNDTRIP
360
37B
  0
DICTIONARY
  5
377
330
6A
100
AcDbDictionary
280
     1
281
     1
  3
ACAD_ROUNDTRIP_2008_TABLESTYLE_CELLSTYLEMAP
360
378
  0
DICTIONARY
  5
34F
330
2F
100
AcDbDictionary
280
     1
281
     1
  3
ACAD_XREC_ROUNDTRIP
360
350
  0
DICTIONARY
  5
355
330
32
100
AcDbDictionary
280
     1
281
     1
  3
ACAD_XREC_ROUNDTRIP
360
356
  0
DICTIONARY
  5
35D
330
36
100
AcDbDictionary
280
     1
281
     1
  3
ACAD_XREC_ROUNDTRIP
360
35E
  0
DICTIONARY
  5
365
330
3A
100
AcDbDictionary
280
     1
281
     1
  3
ACAD_XREC_ROUNDTRIP
360
366
  0
DICTIONARY
  5
359
330
34
100
AcDbDictionary
280
     1
281
     1
  3
ACAD_XREC_ROUNDTRIP
360
35A
  0
DICTIONARY
  5
35B
330
35
100
AcDbDictionary
280
     1
281
     1
  3
ACAD_XREC_ROUNDTRIP
360
35C
  0
DICTIONARY
  5
36B
330
3D
100
AcDbDictionary
280
     1
281
     1
  3
ACAD_XREC_ROUNDTRIP
360
36C
  0
DICTIONARY
  5
363
330
39
100
AcDbDictionary
280
     1
281
     1
  3
ACAD_XREC_ROUNDTRIP
360
364
  0
DICTIONARY
  5
347
330
2B
100
AcDbDictionary
280
     1
281
     1
  3
ACAD_XREC_ROUNDTRIP
360
348
  0
DICTIONARY
  5
349
330
2C
100
AcDbDictionary
280
     1
281
     1
  3
ACAD_XREC_ROUNDTRIP
360
34A
  0
DICTIONARY
  5
34B
330
2D
100
AcDbDictionary
280
     1
281
     1
  3
ACAD_XREC_ROUNDTRIP
360
34C
  0
DICTIONARY
  5
34D
330
2E
100
AcDbDictionary
280
     1
281
     1
  3
ACAD_XREC_ROUNDTRIP
360
34E
  0
DICTIONARY
  5
353
330
31
100
AcDbDictionary
280
     1
281
     1
  3
ACAD_XREC_ROUNDTRIP
360
354
  0
DICTIONARY
  5
367
330
3B
100
AcDbDictionary
280
     1
281
     1
  3
ACAD_XREC_ROUNDTRIP
360
368
  0
DICTIONARY
  5
361
330
38
100
AcDbDictionary
280
     1
281
     1
  3
ACAD_XREC_ROUNDTRIP
360
362
  0
DICTIONARY
  5
369
330
3C
100
AcDbDictionary
280
     1
281
     1
  3
ACAD_XREC_ROUNDTRIP
360
36A
  0
DICTIONARY
  5
357
330
33
100
AcDbDictionary
280
     1
281
     1
  3
ACAD_XREC_ROUNDTRIP
360
358
  0
DICTIONARY
  5
375
330
42
100
AcDbDictionary
280
     1
281
     1
  3
ACAD_XREC_ROUNDTRIP
360
376
  0
DICTIONARY
  5
373
330
41
100
AcDbDictionary
280
     1
281
     1
  3
ACAD_XREC_ROUNDTRIP
360
374
  0
DICTIONARY
  5
36D
330
3E
100
AcDbDictionary
280
     1
281
     1
  3
ACAD_XREC_ROUNDTRIP
360
36E
  0
DICTIONARY
  5
36F
330
3F
100
AcDbDictionary
280
     1
281
     1
  3
ACAD_XREC_ROUNDTRIP
360
370
  0
DICTIONARY
  5
35F
330
37
100
AcDbDictionary
280
     1
281
     1
  3
ACAD_XREC_ROUNDTRIP
360
360
  0
DICTIONARY
  5
351
330
30
100
AcDbDictionary
280
     1
281
     1
  3
ACAD_XREC_ROUNDTRIP
360
352
  0
DICTIONARY
  5
371
330
40
100
AcDbDictionary
280
     1
281
     1
  3
ACAD_XREC_ROUNDTRIP
360
372
  0
XRECORD
  5
37B
102
{ACAD_REACTORS
330
37A
102
}
330
37A
100
AcDbXrecord
280
     1
102
ACAD_ROUNDTRIP_2010_MLEADER_STYLE
  0
CELLSTYLEMAP
  5
378
102
{ACAD_REACTORS
330
377
102
}
330
377
100
AcDbCellStyleMap
 90
        3
300
CELLSTYLE
  1
TABLEFORMAT_BEGIN
 90
        5
170
     1
 91
        0
 92
    32768
 62
   257
 93
        1
300
CONTENTFORMAT
  1
CONTENTFORMAT_BEGIN
 90
        0
 91
        0
 92
        4
 93
        0
300

 40
0.0
140
1.0
 94
        5
 62
     0
340
11
144
6.0
309
CONTENTFORMAT_END
171
     1
301
MARGIN
  1
CELLMARGIN_BEGIN
 40
1.5
 40
1.5
 40
1.5
 40
1.5
 40
1.5
 40
1.5
309
CELLMARGIN_END
 94
        6
 95
        1
302
GRIDFORMAT
  1
GRIDFORMAT_BEGIN
 90
        0
 91
        1
 62
     0
 92
       -2
340
14
 93
        0
 40
0.045
309
GRIDFORMAT_END
 95
        2
302
GRIDFORMAT
  1
GRIDFORMAT_BEGIN
 90
        0
 91
        1
 62
     0
 92
       -2
340
14
 93
        0
 40
0.045
309
GRIDFORMAT_END
 95
        4
302
GRIDFORMAT
  1
GRIDFORMAT_BEGIN
 90
        0
 91
        1
 62
     0
 92
       -2
340
14
 93
        0
 40
0.045
309
GRIDFORMAT_END
 95
        8
302
GRIDFORMAT
  1
GRIDFORMAT_BEGIN
 90
        0
 91
        1
 62
     0
 92
       -2
340
14
 93
        0
 40
0.045
309
GRIDFORMAT_END
 95
       16
302
GRIDFORMAT
  1
GRIDFORMAT_BEGIN
 90
        0
 91
        1
 62
     0
 92
       -2
340
14
 93
        0
 40
0.045
309
GRIDFORMAT_END
 95
       32
302
GRIDFORMAT
  1
GRIDFORMAT_BEGIN
 90
        0
 91
        1
 62
     0
 92
       -2
340
14
 93
        0
 40
0.045
309
GRIDFORMAT_END
309
TABLEFORMAT_END
  1
CELLSTYLE_BEGIN
 90
        1
 91
        1
300
_TITLE
309
CELLSTYLE_END
300
CELLSTYLE
  1
TABLEFORMAT_BEGIN
 90
        5
170
     1
 91
        0
 92
        0
 62
   257
 93
        1
300
CONTENTFORMAT
  1
CONTENTFORMAT_BEGIN
 90
        0
 91
        0
 92
        4
 93
        0
300

 40
0.0
140
1.0
 94
        5
 62
     0
340
11
144
4.5
309
CONTENTFORMAT_END
171
     1
301
MARGIN
  1
CELLMARGIN_BEGIN
 40
1.5
 40
1.5
 40
1.5
 40
1.5
 40
1.5
 40
1.5
309
CELLMARGIN_END
 94
        6
 95
        1
302
GRIDFORMAT
  1
GRIDFORMAT_BEGIN
 90
        0
 91
        1
 62
     0
 92
       -2
340
14
 93
        0
 40
0.045
309
GRIDFORMAT_END
 95
        2
302
GRIDFORMAT
  1
GRIDFORMAT_BEGIN
 90
        0
 91
        1
 62
     0
 92
       -2
340
14
 93
        0
 40
0.045
309
GRIDFORMAT_END
 95
        4
302
GRIDFORMAT
  1
GRIDFORMAT_BEGIN
 90
        0
 91
        1
 62
     0
 92
       -2
340
14
 93
        0
 40
0.045
309
GRIDFORMAT_END
 95
        8
302
GRIDFORMAT
  1
GRIDFORMAT_BEGIN
 90
        0
 91
        1
 62
     0
 92
       -2
340
14
 93
        0
 40
0.045
309
GRIDFORMAT_END
 95
       16
302
GRIDFORMAT
  1
GRIDFORMAT_BEGIN
 90
        0
 91
        1
 62
     0
 92
       -2
340
14
 93
        0
 40
0.045
309
GRIDFORMAT_END
 95
       32
302
GRIDFORMAT
  1
GRIDFORMAT_BEGIN
 90
        0
 91
        1
 62
     0
 92
       -2
340
14
 93
        0
 40
0.045
309
GRIDFORMAT_END
309
TABLEFORMAT_END
  1
CELLSTYLE_BEGIN
 90
        2
 91
        1
300
_HEADER
309
CELLSTYLE_END
300
CELLSTYLE
  1
TABLEFORMAT_BEGIN
 90
        5
170
     1
 91
        0
 92
        0
 62
   257
 93
        1
300
CONTENTFORMAT
  1
CONTENTFORMAT_BEGIN
 90
        0
 91
        0
 92
        4
 93
        0
300

 40
0.0
140
1.0
 94
        2
 62
     0
340
11
144
4.5
309
CONTENTFORMAT_END
171
     1
301
MARGIN
  1
CELLMARGIN_BEGIN
 40
1.5
 40
1.5
 40
1.5
 40
1.5
 40
1.5
 40
1.5
309
CELLMARGIN_END
 94
        6
 95
        1
302
GRIDFORMAT
  1
GRIDFORMAT_BEGIN
 90
        0
 91
        1
 62
     0
 92
       -2
340
14
 93
        0
 40
0.045
309
GRIDFORMAT_END
 95
        2
302
GRIDFORMAT
  1
GRIDFORMAT_BEGIN
 90
        0
 91
        1
 62
     0
 92
       -2
340
14
 93
        0
 40
0.045
309
GRIDFORMAT_END
 95
        4
302
GRIDFORMAT
  1
GRIDFORMAT_BEGIN
 90
        0
 91
        1
 62
     0
 92
       -2
340
14
 93
        0
 40
0.045
309
GRIDFORMAT_END
 95
        8
302
GRIDFORMAT
  1
GRIDFORMAT_BEGIN
 90
        0
 91
        1
 62
     0
 92
       -2
340
14
 93
        0
 40
0.045
309
GRIDFORMAT_END
 95
       16
302
GRIDFORMAT
  1
GRIDFORMAT_BEGIN
 90
        0
 91
        1
 62
     0
 92
       -2
340
14
 93
        0
 40
0.045
309
GRIDFORMAT_END
 95
       32
302
GRIDFORMAT
  1
GRIDFORMAT_BEGIN
 90
        0
 91
        1
 62
     0
 92
       -2
340
14
 93
        0
 40
0.045
309
GRIDFORMAT_END
309
TABLEFORMAT_END
  1
CELLSTYLE_BEGIN
 90
        3
 91
        2
300
_DATA
309
CELLSTYLE_END
  0
XRECORD
  5
350
102
{ACAD_REACTORS
330
34F
102
}
330
34F
100
AcDbXrecord
280
     1
102
RTVSPropertyOp0
 70
     1
102
RTVSPropertyOp1
 70
     1
102
RTVSPropertyOp2
 70
     1
102
RTVSPropertyOp3
 70
     1
102
RTVSPropertyOp4
 70
     1
102
RTVSPropertyOp5
 70
     1
102
RTVSPropertyOp6
 70
     1
102
RTVSPropertyOp7
 70
     1
102
RTVSPropertyOp8
 70
     1
102
RTVSPropertyOp9
 70
     1
102
RTVSPropertyOp10
 70
     1
102
RTVSPropertyOp11
 70
     1
102
RTVSPropertyOp12
 70
     1
102
RTVSPropertyOp13
 70
     1
102
RTVSPropertyOp14
 70
     1
102
RTVSPropertyOp15
 70
     1
102
RTVSPropertyOp16
 70
     1
102
RTVSPropertyOp17
 70
     1
102
RTVSPropertyOp18
 70
     1
102
RTVSPropertyOp19
 70
     1
102
RTVSPropertyOp20
 70
     1
102
RTVSPropertyOp21
 70
     1
102
RTVSPropertyOp22
 70
     1
102
RTVSPropertyOp23
 70
     1
102
RTVSPropertyOp24
 70
     1
102
RTVSPropertyOp25
 70
     1
102
RTVSPropertyOp26
 70
     1
102
RTVSPropertyOp27
 70
     1
102
RTVSPropertyOp28
 70
     1
102
RTVSPropertyOp29
 70
     1
102
RTVSPropertyOp30
 70
     1
102
RTVSPropertyOp31
 70
     1
102
RTVSPropertyOp32
 70
     1
102
RTVSPropertyOp33
 70
     1
102
RTVSPropertyOp34
 70
     1
102
RTVSPropertyOp35
 70
     1
102
RTVSPropertyOp36
 70
     1
102
RTVSPropertyOp37
 70
     1
102
RTVSPropertyOp38
 70
     1
102
RTVSPropertyOp39
 70
     1
102
RTVSPropertyOp40
 70
     1
102
RTVSPropertyOp41
 70
     1
102
RTVSPropertyOp42
 70
     1
102
RTVSPropertyOp43
 70
     1
102
RTVSPropertyOp44
 70
     1
102
RTVSPropertyOp45
 70
     1
102
RTVSPropertyOp46
 70
     1
102
RTVSPropertyOp47
 70
     1
102
RTVSPropertyOp48
 70
     1
102
RTVSPropertyOp49
 70
     1
102
RTVSPropertyOp50
 70
     1
102
RTVSPropertyOp51
 70
     0
102
RTVSPropertyOp52
 70
     0
102
RTVSPropertyOp53
 70
     1
102
RTVSPropertyOp54
 70
     1
102
RTVSPropertyOp55
 70
     1
102
RTVSPropertyOp56
 70
     1
102
RTVSPropertyOp57
 70
     1
102
RTVSPost2010Prop28
280
     1
102
RTVSPost2010PropOp28
 70
     1
102
RTVSPost2010Prop29
280
     1
102
RTVSPost2010PropOp29
 70
     1
102
RTVSPost2010Prop30
280
     0
102
RTVSPost2010PropOp30
 70
     1
102
RTVSPost2010Prop31
280
     0
102
RTVSPost2010PropOp31
 70
     1
102
RTVSPost2010Prop32
280
     0
102
RTVSPost2010PropOp32
 70
     1
102
RTVSPost2010Prop33
280
     0
102
RTVSPost2010PropOp33
 70
     1
102
RTVSPost2010Prop34
280
     0
102
RTVSPost2010PropOp34
 70
     1
102
RTVSPost2010Prop35
280
     0
102
RTVSPost2010PropOp35
 70
     1
102
RTVSPost2010Prop36
280
     0
102
RTVSPost2010PropOp36
 70
     1
102
RTVSPost2010Prop37
 90
       50
102
RTVSPost2010PropOp37
 70
     1
102
RTVSPost2010Prop38
140
0.0
102
RTVSPost2010PropOp38
 70
     1
102
RTVSPost2010Prop39
140
1.0
102
RTVSPost2010PropOp39
 70
     1
102
RTVSPost2010Prop40
 90
        0
102
RTVSPost2010PropOp40
 70
     1
102
RTVSPost2010Prop41ColorIndex
 90
       18
102
RTVSPost2010Prop41ColorRGB
 90
        0
102
RTVSPost2010PropOp41
 70
     1
102
RTVSPost2010Prop42
 90
       50
102
RTVSPost2010PropOp42
 70
     1
102
RTVSPost2010Prop43
 90
        3
102
RTVSPost2010PropOp43
 70
     1
102
RTVSPost2010Prop44ColorIndex
 90
        5
102
RTVSPost2010Prop44ColorRGB
 90
      255
102
RTVSPost2010PropOp44
 70
     1
102
RTVSPost2010Prop45
280
     0
102
RTVSPost2010PropOp45
 70
     1
102
RTVSPost2010Prop46
 90
       50
102
RTVSPost2010PropOp46
 70
     1
102
RTVSPost2010Prop47
 90
       50
102
RTVSPost2010PropOp47
 70
     1
102
RTVSPost2010Prop48
 90
       50
102
RTVSPost2010PropOp48
 70
     1
102
RTVSPost2010Prop49
280
     0
102
RTVSPost2010PropOp49
 70
     1
102
RTVSPost2010Prop50
 90
       50
102
RTVSPost2010PropOp50
 70
     1
102
RTVSPost2010Prop51ColorIndex
 90
      256
102
RTVSPost2010Prop51ColorRGB
 90
-16777216
102
RTVSPost2010PropOp51
 70
     0
102
RTVSPost2010Prop52
140
1.0
102
RTVSPost2010PropOp52
 70
     0
102
RTVSPost2010Prop53
 90
        2
102
RTVSPost2010PropOp53
 70
     1
102
RTVSPost2010Prop54
  1
strokes_ogs.tif
102
RTVSPost2010PropOp54
 70
     1
102
RTVSPost2010Prop55
280
     0
102
RTVSPost2010PropOp55
 70
     1
102
RTVSPost2010Prop56
140
1.0
102
RTVSPost2010PropOp56
 70
     1
102
RTVSPost2010Prop57
140
1.0
102
RTVSPost2010PropOp57
 70
     1
  0
XRECORD
  5
356
102
{ACAD_REACTORS
330
355
102
}
330
355
100
AcDbXrecord
280
     1
102
RTVSPropertyOp0
 70
     1
102
RTVSPropertyOp1
 70
     1
102
RTVSPropertyOp2
 70
     1
102
RTVSPropertyOp3
 70
     1
102
RTVSPropertyOp4
 70
     1
102
RTVSPropertyOp5
 70
     1
102
RTVSPropertyOp6
 70
     1
102
RTVSPropertyOp7
 70
     1
102
RTVSPropertyOp8
 70
     1
102
RTVSPropertyOp9
 70
     1
102
RTVSPropertyOp10
 70
     1
102
RTVSPropertyOp11
 70
     1
102
RTVSPropertyOp12
 70
     1
102
RTVSPropertyOp13
 70
     1
102
RTVSPropertyOp14
 70
     1
102
RTVSPropertyOp15
 70
     1
102
RTVSPropertyOp16
 70
     1
102
RTVSPropertyOp17
 70
     1
102
RTVSPropertyOp18
 70
     1
102
RTVSPropertyOp19
 70
     1
102
RTVSPropertyOp20
 70
     1
102
RTVSPropertyOp21
 70
     1
102
RTVSPropertyOp22
 70
     1
102
RTVSPropertyOp23
 70
     1
102
RTVSPropertyOp24
 70
     1
102
RTVSPropertyOp25
 70
     1
102
RTVSPropertyOp26
 70
     1
102
RTVSPropertyOp27
 70
     1
102
RTVSPropertyOp28
 70
     1
102
RTVSPropertyOp29
 70
     1
102
RTVSPropertyOp30
 70
     1
102
RTVSPropertyOp31
 70
     1
102
RTVSPropertyOp32
 70
     1
102
RTVSPropertyOp33
 70
     1
102
RTVSPropertyOp34
 70
     1
102
RTVSPropertyOp35
 70
     1
102
RTVSPropertyOp36
 70
     1
102
RTVSPropertyOp37
 70
     1
102
RTVSPropertyOp38
 70
     1
102
RTVSPropertyOp39
 70
     1
102
RTVSPropertyOp40
 70
     1
102
RTVSPropertyOp41
 70
     1
102
RTVSPropertyOp42
 70
     1
102
RTVSPropertyOp43
 70
     1
102
RTVSPropertyOp44
 70
     1
102
RTVSPropertyOp45
 70
     1
102
RTVSPropertyOp46
 70
     1
102
RTVSPropertyOp47
 70
     1
102
RTVSPropertyOp48
 70
     1
102
RTVSPropertyOp49
 70
     1
102
RTVSPropertyOp50
 70
     1
102
RTVSPropertyOp51
 70
     0
102
RTVSPropertyOp52
 70
     0
102
RTVSPropertyOp53
 70
     1
102
RTVSPropertyOp54
 70
     1
102
RTVSPropertyOp55
 70
     1
102
RTVSPropertyOp56
 70
     1
102
RTVSPropertyOp57
 70
     1
102
RTVSPost2010Prop28
280
     0
102
RTVSPost2010PropOp28
 70
     1
102
RTVSPost2010Prop29
280
     1
102
RTVSPost2010PropOp29
 70
     1
102
RTVSPost2010Prop30
280
     1
102
RTVSPost2010PropOp30
 70
     1
102
RTVSPost2010Prop31
280
     0
102
RTVSPost2010PropOp31
 70
     1
102
RTVSPost2010Prop32
280
     0
102
RTVSPost2010PropOp32
 70
     1
102
RTVSPost2010Prop33
280
     0
102
RTVSPost2010PropOp33
 70
     1
102
RTVSPost2010Prop34
280
     0
102
RTVSPost2010PropOp34
 70
     1
102
RTVSPost2010Prop35
280
     0
102
RTVSPost2010PropOp35
 70
     1
102
RTVSPost2010Prop36
280
     0
102
RTVSPost2010PropOp36
 70
     1
102
RTVSPost2010Prop37
 90
       50
102
RTVSPost2010PropOp37
 70
     1
102
RTVSPost2010Prop38
140
0.0
102
RTVSPost2010PropOp38
 70
     1
102
RTVSPost2010Prop39
140
1.0
102
RTVSPost2010PropOp39
 70
     1
102
RTVSPost2010Prop40
 90
        0
102
RTVSPost2010PropOp40
 70
     1
102
RTVSPost2010Prop41ColorIndex
 90
       18
102
RTVSPost2010Prop41ColorRGB
 90
        0
102
RTVSPost2010PropOp41
 70
     1
102
RTVSPost2010Prop42
 90
       50
102
RTVSPost2010PropOp42
 70
     1
102
RTVSPost2010Prop43
 90
        3
102
RTVSPost2010PropOp43
 70
     1
102
RTVSPost2010Prop44ColorIndex
 90
        5
102
RTVSPost2010Prop44ColorRGB
 90
      255
102
RTVSPost2010PropOp44
 70
     1
102
RTVSPost2010Prop45
280
     0
102
RTVSPost2010PropOp45
 70
     1
102
RTVSPost2010Prop46
 90
       50
102
RTVSPost2010PropOp46
 70
     1
102
RTVSPost2010Prop47
 90
       50
102
RTVSPost2010PropOp47
 70
     1
102
RTVSPost2010Prop48
 90
       50
102
RTVSPost2010PropOp48
 70
     1
102
RTVSPost2010Prop49
280
     0
102
RTVSPost2010PropOp49
 70
     1
102
RTVSPost2010Prop50
 90
       50
102
RTVSPost2010PropOp50
 70
     1
102
RTVSPost2010Prop51ColorIndex
 90
      256
102
RTVSPost2010Prop51ColorRGB
 90
-16777216
102
RTVSPost2010PropOp51
 70
     0
102
RTVSPost2010Prop52
140
1.0
102
RTVSPost2010PropOp52
 70
     0
102
RTVSPost2010Prop53
 90
        2
102
RTVSPost2010PropOp53
 70
     1
102
RTVSPost2010Prop54
  1
strokes_ogs.tif
102
RTVSPost2010PropOp54
 70
     1
102
RTVSPost2010Prop55
280
     0
102
RTVSPost2010PropOp55
 70
     1
102
RTVSPost2010Prop56
140
1.0
102
RTVSPost2010PropOp56
 70
     1
102
RTVSPost2010Prop57
140
1.0
102
RTVSPost2010PropOp57
 70
     1
  0
XRECORD
  5
35E
102
{ACAD_REACTORS
330
35D
102
}
330
35D
100
AcDbXrecord
280
     1
102
RTVSPropertyOp0
 70
     1
102
RTVSPropertyOp1
 70
     1
102
RTVSPropertyOp2
 70
     1
102
RTVSPropertyOp3
 70
     1
102
RTVSPropertyOp4
 70
     1
102
RTVSPropertyOp5
 70
     1
102
RTVSPropertyOp6
 70
     1
102
RTVSPropertyOp7
 70
     1
102
RTVSPropertyOp8
 70
     1
102
RTVSPropertyOp9
 70
     1
102
RTVSPropertyOp10
 70
     1
102
RTVSPropertyOp11
 70
     1
102
RTVSPropertyOp12
 70
     1
102
RTVSPropertyOp13
 70
     1
102
RTVSPropertyOp14
 70
     1
102
RTVSPropertyOp15
 70
     1
102
RTVSPropertyOp16
 70
     1
102
RTVSPropertyOp17
 70
     1
102
RTVSPropertyOp18
 70
     1
102
RTVSPropertyOp19
 70
     1
102
RTVSPropertyOp20
 70
     1
102
RTVSPropertyOp21
 70
     1
102
RTVSPropertyOp22
 70
     1
102
RTVSPropertyOp23
 70
     1
102
RTVSPropertyOp24
 70
     1
102
RTVSPropertyOp25
 70
     1
102
RTVSPropertyOp26
 70
     1
102
RTVSPropertyOp27
 70
     1
102
RTVSPropertyOp28
 70
     1
102
RTVSPropertyOp29
 70
     1
102
RTVSPropertyOp30
 70
     1
102
RTVSPropertyOp31
 70
     1
102
RTVSPropertyOp32
 70
     1
102
RTVSPropertyOp33
 70
     1
102
RTVSPropertyOp34
 70
     1
102
RTVSPropertyOp35
 70
     1
102
RTVSPropertyOp36
 70
     1
102
RTVSPropertyOp37
 70
     1
102
RTVSPropertyOp38
 70
     1
102
RTVSPropertyOp39
 70
     1
102
RTVSPropertyOp40
 70
     1
102
RTVSPropertyOp41
 70
     1
102
RTVSPropertyOp42
 70
     1
102
RTVSPropertyOp43
 70
     1
102
RTVSPropertyOp44
 70
     1
102
RTVSPropertyOp45
 70
     1
102
RTVSPropertyOp46
 70
     1
102
RTVSPropertyOp47
 70
     1
102
RTVSPropertyOp48
 70
     1
102
RTVSPropertyOp49
 70
     1
102
RTVSPropertyOp50
 70
     1
102
RTVSPropertyOp51
 70
     0
102
RTVSPropertyOp52
 70
     0
102
RTVSPropertyOp53
 70
     1
102
RTVSPropertyOp54
 70
     1
102
RTVSPropertyOp55
 70
     1
102
RTVSPropertyOp56
 70
     1
102
RTVSPropertyOp57
 70
     1
102
RTVSPost2010Prop28
280
     0
102
RTVSPost2010PropOp28
 70
     1
102
RTVSPost2010Prop29
280
     1
102
RTVSPost2010PropOp29
 70
     1
102
RTVSPost2010Prop30
280
     1
102
RTVSPost2010PropOp30
 70
     1
102
RTVSPost2010Prop31
280
     0
102
RTVSPost2010PropOp31
 70
     1
102
RTVSPost2010Prop32
280
     0
102
RTVSPost2010PropOp32
 70
     1
102
RTVSPost2010Prop33
280
     0
102
RTVSPost2010PropOp33
 70
     1
102
RTVSPost2010Prop34
280
     0
102
RTVSPost2010PropOp34
 70
     1
102
RTVSPost2010Prop35
280
     0
102
RTVSPost2010PropOp35
 70
     1
102
RTVSPost2010Prop36
280
     0
102
RTVSPost2010PropOp36
 70
     1
102
RTVSPost2010Prop37
 90
       50
102
RTVSPost2010PropOp37
 70
     1
102
RTVSPost2010Prop38
140
0.0
102
RTVSPost2010PropOp38
 70
     1
102
RTVSPost2010Prop39
140
1.0
102
RTVSPost2010PropOp39
 70
     1
102
RTVSPost2010Prop40
 90
        0
102
RTVSPost2010PropOp40
 70
     1
102
RTVSPost2010Prop41ColorIndex
 90
       18
102
RTVSPost2010Prop41ColorRGB
 90
        0
102
RTVSPost2010PropOp41
 70
     1
102
RTVSPost2010Prop42
 90
       50
102
RTVSPost2010PropOp42
 70
     1
102
RTVSPost2010Prop43
 90
        3
102
RTVSPost2010PropOp43
 70
     1
102
RTVSPost2010Prop44ColorIndex
 90
        5
102
RTVSPost2010Prop44ColorRGB
 90
      255
102
RTVSPost2010PropOp44
 70
     1
102
RTVSPost2010Prop45
280
     0
102
RTVSPost2010PropOp45
 70
     1
102
RTVSPost2010Prop46
 90
       50
102
RTVSPost2010PropOp46
 70
     1
102
RTVSPost2010Prop47
 90
       50
102
RTVSPost2010PropOp47
 70
     1
102
RTVSPost2010Prop48
 90
       50
102
RTVSPost2010PropOp48
 70
     1
102
RTVSPost2010Prop49
280
     0
102
RTVSPost2010PropOp49
 70
     1
102
RTVSPost2010Prop50
 90
       50
102
RTVSPost2010PropOp50
 70
     1
102
RTVSPost2010Prop51ColorIndex
 90
      256
102
RTVSPost2010Prop51ColorRGB
 90
-16777216
102
RTVSPost2010PropOp51
 70
     0
102
RTVSPost2010Prop52
140
1.0
102
RTVSPost2010PropOp52
 70
     0
102
RTVSPost2010Prop53
 90
        2
102
RTVSPost2010PropOp53
 70
     1
102
RTVSPost2010Prop54
  1
strokes_ogs.tif
102
RTVSPost2010PropOp54
 70
     1
102
RTVSPost2010Prop55
280
     0
102
RTVSPost2010PropOp55
 70
     1
102
RTVSPost2010Prop56
140
1.0
102
RTVSPost2010PropOp56
 70
     1
102
RTVSPost2010Prop57
140
1.0
102
RTVSPost2010PropOp57
 70
     1
  0
XRECORD
  5
366
102
{ACAD_REACTORS
330
365
102
}
330
365
100
AcDbXrecord
280
     1
102
RTVSPropertyOp0
 70
     1
102
RTVSPropertyOp1
 70
     1
102
RTVSPropertyOp2
 70
     1
102
RTVSPropertyOp3
 70
     1
102
RTVSPropertyOp4
 70
     1
102
RTVSPropertyOp5
 70
     1
102
RTVSPropertyOp6
 70
     1
102
RTVSPropertyOp7
 70
     1
102
RTVSPropertyOp8
 70
     1
102
RTVSPropertyOp9
 70
     1
102
RTVSPropertyOp10
 70
     1
102
RTVSPropertyOp11
 70
     1
102
RTVSPropertyOp12
 70
     1
102
RTVSPropertyOp13
 70
     1
102
RTVSPropertyOp14
 70
     1
102
RTVSPropertyOp15
 70
     1
102
RTVSPropertyOp16
 70
     1
102
RTVSPropertyOp17
 70
     1
102
RTVSPropertyOp18
 70
     1
102
RTVSPropertyOp19
 70
     1
102
RTVSPropertyOp20
 70
     1
102
RTVSPropertyOp21
 70
     1
102
RTVSPropertyOp22
 70
     1
102
RTVSPropertyOp23
 70
     1
102
RTVSPropertyOp24
 70
     1
102
RTVSPropertyOp25
 70
     1
102
RTVSPropertyOp26
 70
     1
102
RTVSPropertyOp27
 70
     1
102
RTVSPropertyOp28
 70
     1
102
RTVSPropertyOp29
 70
     1
102
RTVSPropertyOp30
 70
     1
102
RTVSPropertyOp31
 70
     1
102
RTVSPropertyOp32
 70
     1
102
RTVSPropertyOp33
 70
     1
102
RTVSPropertyOp34
 70
     1
102
RTVSPropertyOp35
 70
     1
102
RTVSPropertyOp36
 70
     1
102
RTVSPropertyOp37
 70
     1
102
RTVSPropertyOp38
 70
     1
102
RTVSPropertyOp39
 70
     1
102
RTVSPropertyOp40
 70
     1
102
RTVSPropertyOp41
 70
     1
102
RTVSPropertyOp42
 70
     1
102
RTVSPropertyOp43
 70
     1
102
RTVSPropertyOp44
 70
     1
102
RTVSPropertyOp45
 70
     1
102
RTVSPropertyOp46
 70
     1
102
RTVSPropertyOp47
 70
     1
102
RTVSPropertyOp48
 70
     1
102
RTVSPropertyOp49
 70
     1
102
RTVSPropertyOp50
 70
     1
102
RTVSPropertyOp51
 70
     0
102
RTVSPropertyOp52
 70
     0
102
RTVSPropertyOp53
 70
     1
102
RTVSPropertyOp54
 70
     1
102
RTVSPropertyOp55
 70
     1
102
RTVSPropertyOp56
 70
     1
102
RTVSPropertyOp57
 70
     1
102
RTVSPost2010Prop28
280
     0
102
RTVSPost2010PropOp28
 70
     1
102
RTVSPost2010Prop29
280
     1
102
RTVSPost2010PropOp29
 70
     1
102
RTVSPost2010Prop30
280
     1
102
RTVSPost2010PropOp30
 70
     1
102
RTVSPost2010Prop31
280
     0
102
RTVSPost2010PropOp31
 70
     1
102
RTVSPost2010Prop32
280
     0
102
RTVSPost2010PropOp32
 70
     1
102
RTVSPost2010Prop33
280
     0
102
RTVSPost2010PropOp33
 70
     1
102
RTVSPost2010Prop34
280
     0
102
RTVSPost2010PropOp34
 70
     1
102
RTVSPost2010Prop35
280
     0
102
RTVSPost2010PropOp35
 70
     1
102
RTVSPost2010Prop36
280
     0
102
RTVSPost2010PropOp36
 70
     1
102
RTVSPost2010Prop37
 90
       50
102
RTVSPost2010PropOp37
 70
     1
102
RTVSPost2010Prop38
140
0.0
102
RTVSPost2010PropOp38
 70
     1
102
RTVSPost2010Prop39
140
1.0
102
RTVSPost2010PropOp39
 70
     1
102
RTVSPost2010Prop40
 90
        0
102
RTVSPost2010PropOp40
 70
     1
102
RTVSPost2010Prop41ColorIndex
 90
       18
102
RTVSPost2010Prop41ColorRGB
 90
        0
102
RTVSPost2010PropOp41
 70
     1
102
RTVSPost2010Prop42
 90
       50
102
RTVSPost2010PropOp42
 70
     1
102
RTVSPost2010Prop43
 90
        3
102
RTVSPost2010PropOp43
 70
     1
102
RTVSPost2010Prop44ColorIndex
 90
        5
102
RTVSPost2010Prop44ColorRGB
 90
      255
102
RTVSPost2010PropOp44
 70
     1
102
RTVSPost2010Prop45
280
     0
102
RTVSPost2010PropOp45
 70
     1
102
RTVSPost2010Prop46
 90
       50
102
RTVSPost2010PropOp46
 70
     1
102
RTVSPost2010Prop47
 90
       50
102
RTVSPost2010PropOp47
 70
     1
102
RTVSPost2010Prop48
 90
       50
102
RTVSPost2010PropOp48
 70
     1
102
RTVSPost2010Prop49
280
     0
102
RTVSPost2010PropOp49
 70
     1
102
RTVSPost2010Prop50
 90
       50
102
RTVSPost2010PropOp50
 70
     1
102
RTVSPost2010Prop51ColorIndex
 90
      256
102
RTVSPost2010Prop51ColorRGB
 90
-16777216
102
RTVSPost2010PropOp51
 70
     0
102
RTVSPost2010Prop52
140
1.0
102
RTVSPost2010PropOp52
 70
     0
102
RTVSPost2010Prop53
 90
        2
102
RTVSPost2010PropOp53
 70
     1
102
RTVSPost2010Prop54
  1
strokes_ogs.tif
102
RTVSPost2010PropOp54
 70
     1
102
RTVSPost2010Prop55
280
     0
102
RTVSPost2010PropOp55
 70
     1
102
RTVSPost2010Prop56
140
1.0
102
RTVSPost2010PropOp56
 70
     1
102
RTVSPost2010Prop57
140
1.0
102
RTVSPost2010PropOp57
 70
     1
  0
XRECORD
  5
35A
102
{ACAD_REACTORS
330
359
102
}
330
359
100
AcDbXrecord
280
     1
102
RTVSPropertyOp0
 70
     1
102
RTVSPropertyOp1
 70
     1
102
RTVSPropertyOp2
 70
     1
102
RTVSPropertyOp3
 70
     1
102
RTVSPropertyOp4
 70
     1
102
RTVSPropertyOp5
 70
     1
102
RTVSPropertyOp6
 70
     1
102
RTVSPropertyOp7
 70
     1
102
RTVSPropertyOp8
 70
     1
102
RTVSPropertyOp9
 70
     1
102
RTVSPropertyOp10
 70
     1
102
RTVSPropertyOp11
 70
     1
102
RTVSPropertyOp12
 70
     1
102
RTVSPropertyOp13
 70
     1
102
RTVSPropertyOp14
 70
     1
102
RTVSPropertyOp15
 70
     1
102
RTVSPropertyOp16
 70
     1
102
RTVSPropertyOp17
 70
     1
102
RTVSPropertyOp18
 70
     1
102
RTVSPropertyOp19
 70
     1
102
RTVSPropertyOp20
 70
     1
102
RTVSPropertyOp21
 70
     1
102
RTVSPropertyOp22
 70
     1
102
RTVSPropertyOp23
 70
     1
102
RTVSPropertyOp24
 70
     1
102
RTVSPropertyOp25
 70
     1
102
RTVSPropertyOp26
 70
     1
102
RTVSPropertyOp27
 70
     1
102
RTVSPropertyOp28
 70
     1
102
RTVSPropertyOp29
 70
     1
102
RTVSPropertyOp30
 70
     1
102
RTVSPropertyOp31
 70
     1
102
RTVSPropertyOp32
 70
     1
102
RTVSPropertyOp33
 70
     1
102
RTVSPropertyOp34
 70
     1
102
RTVSPropertyOp35
 70
     1
102
RTVSPropertyOp36
 70
     1
102
RTVSPropertyOp37
 70
     1
102
RTVSPropertyOp38
 70
     1
102
RTVSPropertyOp39
 70
     1
102
RTVSPropertyOp40
 70
     1
102
RTVSPropertyOp41
 70
     1
102
RTVSPropertyOp42
 70
     1
102
RTVSPropertyOp43
 70
     1
102
RTVSPropertyOp44
 70
     1
102
RTVSPropertyOp45
 70
     1
102
RTVSPropertyOp46
 70
     1
102
RTVSPropertyOp47
 70
     1
102
RTVSPropertyOp48
 70
     1
102
RTVSPropertyOp49
 70
     1
102
RTVSPropertyOp50
 70
     1
102
RTVSPropertyOp51
 70
     0
102
RTVSPropertyOp52
 70
     0
102
RTVSPropertyOp53
 70
     1
102
RTVSPropertyOp54
 70
     1
102
RTVSPropertyOp55
 70
     1
102
RTVSPropertyOp56
 70
     1
102
RTVSPropertyOp57
 70
     1
102
RTVSPost2010Prop28
280
     0
102
RTVSPost2010PropOp28
 70
     1
102
RTVSPost2010Prop29
280
     1
102
RTVSPost2010PropOp29
 70
     1
102
RTVSPost2010Prop30
280
     1
102
RTVSPost2010PropOp30
 70
     1
102
RTVSPost2010Prop31
280
     0
102
RTVSPost2010PropOp31
 70
     1
102
RTVSPost2010Prop32
280
     0
102
RTVSPost2010PropOp32
 70
     1
102
RTVSPost2010Prop33
280
     0
102
RTVSPost2010PropOp33
 70
     1
102
RTVSPost2010Prop34
280
     0
102
RTVSPost2010PropOp34
 70
     1
102
RTVSPost2010Prop35
280
     0
102
RTVSPost2010PropOp35
 70
     1
102
RTVSPost2010Prop36
280
     0
102
RTVSPost2010PropOp36
 70
     1
102
RTVSPost2010Prop37
 90
       50
102
RTVSPost2010PropOp37
 70
     1
102
RTVSPost2010Prop38
140
0.0
102
RTVSPost2010PropOp38
 70
     1
102
RTVSPost2010Prop39
140
1.0
102
RTVSPost2010PropOp39
 70
     1
102
RTVSPost2010Prop40
 90
        0
102
RTVSPost2010PropOp40
 70
     1
102
RTVSPost2010Prop41ColorIndex
 90
       18
102
RTVSPost2010Prop41ColorRGB
 90
        0
102
RTVSPost2010PropOp41
 70
     1
102
RTVSPost2010Prop42
 90
       50
102
RTVSPost2010PropOp42
 70
     1
102
RTVSPost2010Prop43
 90
        3
102
RTVSPost2010PropOp43
 70
     1
102
RTVSPost2010Prop44ColorIndex
 90
        5
102
RTVSPost2010Prop44ColorRGB
 90
      255
102
RTVSPost2010PropOp44
 70
     1
102
RTVSPost2010Prop45
280
     0
102
RTVSPost2010PropOp45
 70
     1
102
RTVSPost2010Prop46
 90
       50
102
RTVSPost2010PropOp46
 70
     1
102
RTVSPost2010Prop47
 90
       50
102
RTVSPost2010PropOp47
 70
     1
102
RTVSPost2010Prop48
 90
       50
102
RTVSPost2010PropOp48
 70
     1
102
RTVSPost2010Prop49
280
     0
102
RTVSPost2010PropOp49
 70
     1
102
RTVSPost2010Prop50
 90
       50
102
RTVSPost2010PropOp50
 70
     1
102
RTVSPost2010Prop51ColorIndex
 90
      256
102
RTVSPost2010Prop51ColorRGB
 90
-16777216
102
RTVSPost2010PropOp51
 70
     0
102
RTVSPost2010Prop52
140
1.0
102
RTVSPost2010PropOp52
 70
     0
102
RTVSPost2010Prop53
 90
        2
102
RTVSPost2010PropOp53
 70
     1
102
RTVSPost2010Prop54
  1
strokes_ogs.tif
102
RTVSPost2010PropOp54
 70
     1
102
RTVSPost2010Prop55
280
     0
102
RTVSPost2010PropOp55
 70
     1
102
RTVSPost2010Prop56
140
1.0
102
RTVSPost2010PropOp56
 70
     1
102
RTVSPost2010Prop57
140
1.0
102
RTVSPost2010PropOp57
 70
     1
  0
XRECORD
  5
35C
102
{ACAD_REACTORS
330
35B
102
}
330
35B
100
AcDbXrecord
280
     1
102
RTVSPropertyOp0
 70
     1
102
RTVSPropertyOp1
 70
     1
102
RTVSPropertyOp2
 70
     1
102
RTVSPropertyOp3
 70
     1
102
RTVSPropertyOp4
 70
     1
102
RTVSPropertyOp5
 70
     1
102
RTVSPropertyOp6
 70
     1
102
RTVSPropertyOp7
 70
     1
102
RTVSPropertyOp8
 70
     1
102
RTVSPropertyOp9
 70
     1
102
RTVSPropertyOp10
 70
     1
102
RTVSPropertyOp11
 70
     1
102
RTVSPropertyOp12
 70
     1
102
RTVSPropertyOp13
 70
     1
102
RTVSPropertyOp14
 70
     1
102
RTVSPropertyOp15
 70
     1
102
RTVSPropertyOp16
 70
     1
102
RTVSPropertyOp17
 70
     1
102
RTVSPropertyOp18
 70
     1
102
RTVSPropertyOp19
 70
     1
102
RTVSPropertyOp20
 70
     1
102
RTVSPropertyOp21
 70
     1
102
RTVSPropertyOp22
 70
     1
102
RTVSPropertyOp23
 70
     1
102
RTVSPropertyOp24
 70
     1
102
RTVSPropertyOp25
 70
     1
102
RTVSPropertyOp26
 70
     1
102
RTVSPropertyOp27
 70
     1
102
RTVSPropertyOp28
 70
     1
102
RTVSPropertyOp29
 70
     1
102
RTVSPropertyOp30
 70
     1
102
RTVSPropertyOp31
 70
     1
102
RTVSPropertyOp32
 70
     1
102
RTVSPropertyOp33
 70
     1
102
RTVSPropertyOp34
 70
     1
102
RTVSPropertyOp35
 70
     1
102
RTVSPropertyOp36
 70
     1
102
RTVSPropertyOp37
 70
     1
102
RTVSPropertyOp38
 70
     1
102
RTVSPropertyOp39
 70
     1
102
RTVSPropertyOp40
 70
     1
102
RTVSPropertyOp41
 70
     1
102
RTVSPropertyOp42
 70
     1
102
RTVSPropertyOp43
 70
     1
102
RTVSPropertyOp44
 70
     1
102
RTVSPropertyOp45
 70
     1
102
RTVSPropertyOp46
 70
     1
102
RTVSPropertyOp47
 70
     1
102
RTVSPropertyOp48
 70
     1
102
RTVSPropertyOp49
 70
     1
102
RTVSPropertyOp50
 70
     1
102
RTVSPropertyOp51
 70
     0
102
RTVSPropertyOp52
 70
     0
102
RTVSPropertyOp53
 70
     1
102
RTVSPropertyOp54
 70
     1
102
RTVSPropertyOp55
 70
     1
102
RTVSPropertyOp56
 70
     1
102
RTVSPropertyOp57
 70
     1
102
RTVSPost2010Prop28
280
     0
102
RTVSPost2010PropOp28
 70
     1
102
RTVSPost2010Prop29
280
     1
102
RTVSPost2010PropOp29
 70
     1
102
RTVSPost2010Prop30
280
     1
102
RTVSPost2010PropOp30
 70
     1
102
RTVSPost2010Prop31
280
     0
102
RTVSPost2010PropOp31
 70
     1
102
RTVSPost2010Prop32
280
     0
102
RTVSPost2010PropOp32
 70
     1
102
RTVSPost2010Prop33
280
     0
102
RTVSPost2010PropOp33
 70
     1
102
RTVSPost2010Prop34
280
     0
102
RTVSPost2010PropOp34
 70
     1
102
RTVSPost2010Prop35
280
     0
102
RTVSPost2010PropOp35
 70
     1
102
RTVSPost2010Prop36
280
     0
102
RTVSPost2010PropOp36
 70
     1
102
RTVSPost2010Prop37
 90
       50
102
RTVSPost2010PropOp37
 70
     1
102
RTVSPost2010Prop38
140
0.0
102
RTVSPost2010PropOp38
 70
     1
102
RTVSPost2010Prop39
140
1.0
102
RTVSPost2010PropOp39
 70
     1
102
RTVSPost2010Prop40
 90
        0
102
RTVSPost2010PropOp40
 70
     1
102
RTVSPost2010Prop41ColorIndex
 90
       18
102
RTVSPost2010Prop41ColorRGB
 90
        0
102
RTVSPost2010PropOp41
 70
     1
102
RTVSPost2010Prop42
 90
       50
102
RTVSPost2010PropOp42
 70
     1
102
RTVSPost2010Prop43
 90
        3
102
RTVSPost2010PropOp43
 70
     1
102
RTVSPost2010Prop44ColorIndex
 90
        5
102
RTVSPost2010Prop44ColorRGB
 90
      255
102
RTVSPost2010PropOp44
 70
     1
102
RTVSPost2010Prop45
280
     0
102
RTVSPost2010PropOp45
 70
     1
102
RTVSPost2010Prop46
 90
       50
102
RTVSPost2010PropOp46
 70
     1
102
RTVSPost2010Prop47
 90
       50
102
RTVSPost2010PropOp47
 70
     1
102
RTVSPost2010Prop48
 90
       50
102
RTVSPost2010PropOp48
 70
     1
102
RTVSPost2010Prop49
280
     0
102
RTVSPost2010PropOp49
 70
     1
102
RTVSPost2010Prop50
 90
       50
102
RTVSPost2010PropOp50
 70
     1
102
RTVSPost2010Prop51ColorIndex
 90
      256
102
RTVSPost2010Prop51ColorRGB
 90
-16777216
102
RTVSPost2010PropOp51
 70
     0
102
RTVSPost2010Prop52
140
1.0
102
RTVSPost2010PropOp52
 70
     0
102
RTVSPost2010Prop53
 90
        2
102
RTVSPost2010PropOp53
 70
     1
102
RTVSPost2010Prop54
  1
strokes_ogs.tif
102
RTVSPost2010PropOp54
 70
     1
102
RTVSPost2010Prop55
280
     0
102
RTVSPost2010PropOp55
 70
     1
102
RTVSPost2010Prop56
140
1.0
102
RTVSPost2010PropOp56
 70
     1
102
RTVSPost2010Prop57
140
1.0
102
RTVSPost2010PropOp57
 70
     1
  0
XRECORD
  5
36C
102
{ACAD_REACTORS
330
36B
102
}
330
36B
100
AcDbXrecord
280
     1
102
RTVSPropertyOp0
 70
     0
102
RTVSPropertyOp1
 70
     0
102
RTVSPropertyOp2
 70
     0
102
RTVSPropertyOp3
 70
     0
102
RTVSPropertyOp4
 70
     0
102
RTVSPropertyOp5
 70
     0
102
RTVSPropertyOp6
 70
     0
102
RTVSPropertyOp7
 70
     0
102
RTVSPropertyOp8
 70
     0
102
RTVSPropertyOp9
 70
     0
102
RTVSPropertyOp10
 70
     0
102
RTVSPropertyOp11
 70
     0
102
RTVSPropertyOp12
 70
     0
102
RTVSPropertyOp13
 70
     0
102
RTVSPropertyOp14
 70
     2
102
RTVSPropertyOp15
 70
     0
102
RTVSPropertyOp16
 70
     0
102
RTVSPropertyOp17
 70
     0
102
RTVSPropertyOp18
 70
     0
102
RTVSPropertyOp19
 70
     0
102
RTVSPropertyOp20
 70
     0
102
RTVSPropertyOp21
 70
     0
102
RTVSPropertyOp22
 70
     0
102
RTVSPropertyOp23
 70
     0
102
RTVSPropertyOp24
 70
     0
102
RTVSPropertyOp25
 70
     0
102
RTVSPropertyOp26
 70
     0
102
RTVSPropertyOp27
 70
     0
102
RTVSPropertyOp28
 70
     0
102
RTVSPropertyOp29
 70
     0
102
RTVSPropertyOp30
 70
     0
102
RTVSPropertyOp31
 70
     0
102
RTVSPropertyOp32
 70
     0
102
RTVSPropertyOp33
 70
     0
102
RTVSPropertyOp34
 70
     0
102
RTVSPropertyOp35
 70
     0
102
RTVSPropertyOp36
 70
     0
102
RTVSPropertyOp37
 70
     0
102
RTVSPropertyOp38
 70
     0
102
RTVSPropertyOp39
 70
     0
102
RTVSPropertyOp40
 70
     0
102
RTVSPropertyOp41
 70
     0
102
RTVSPropertyOp42
 70
     0
102
RTVSPropertyOp43
 70
     0
102
RTVSPropertyOp44
 70
     0
102
RTVSPropertyOp45
 70
     0
102
RTVSPropertyOp46
 70
     0
102
RTVSPropertyOp47
 70
     0
102
RTVSPropertyOp48
 70
     0
102
RTVSPropertyOp49
 70
     0
102
RTVSPropertyOp50
 70
     0
102
RTVSPropertyOp51
 70
     0
102
RTVSPropertyOp52
 70
     0
102
RTVSPropertyOp53
 70
     0
102
RTVSPropertyOp54
 70
     0
102
RTVSPropertyOp55
 70
     0
102
RTVSPropertyOp56
 70
     0
102
RTVSPropertyOp57
 70
     0
102
RTVSPost2010Prop28
280
     0
102
RTVSPost2010PropOp28
 70
     0
102
RTVSPost2010Prop29
280
     1
102
RTVSPost2010PropOp29
 70
     0
102
RTVSPost2010Prop30
280
     1
102
RTVSPost2010PropOp30
 70
     0
102
RTVSPost2010Prop31
280
     0
102
RTVSPost2010PropOp31
 70
     0
102
RTVSPost2010Prop32
280
     0
102
RTVSPost2010PropOp32
 70
     0
102
RTVSPost2010Prop33
280
     0
102
RTVSPost2010PropOp33
 70
     0
102
RTVSPost2010Prop34
280
     0
102
RTVSPost2010PropOp34
 70
     0
102
RTVSPost2010Prop35
280
     0
102
RTVSPost2010PropOp35
 70
     0
102
RTVSPost2010Prop36
280
     0
102
RTVSPost2010PropOp36
 70
     0
102
RTVSPost2010Prop37
 90
       50
102
RTVSPost2010PropOp37
 70
     0
102
RTVSPost2010Prop38
140
0.0
102
RTVSPost2010PropOp38
 70
     0
102
RTVSPost2010Prop39
140
1.0
102
RTVSPost2010PropOp39
 70
     0
102
RTVSPost2010Prop40
 90
        0
102
RTVSPost2010PropOp40
 70
     0
102
RTVSPost2010Prop41ColorIndex
 90
       18
102
RTVSPost2010Prop41ColorRGB
 90
        0
102
RTVSPost2010PropOp41
 70
     0
102
RTVSPost2010Prop42
 90
       50
102
RTVSPost2010PropOp42
 70
     0
102
RTVSPost2010Prop43
 90
        3
102
RTVSPost2010PropOp43
 70
     0
102
RTVSPost2010Prop44ColorIndex
 90
        5
102
RTVSPost2010Prop44ColorRGB
 90
      255
102
RTVSPost2010PropOp44
 70
     0
102
RTVSPost2010Prop45
280
     0
102
RTVSPost2010PropOp45
 70
     0
102
RTVSPost2010Prop46
 90
       50
102
RTVSPost2010PropOp46
 70
     0
102
RTVSPost2010Prop47
 90
       50
102
RTVSPost2010PropOp47
 70
     0
102
RTVSPost2010Prop48
 90
       50
102
RTVSPost2010PropOp48
 70
     0
102
RTVSPost2010Prop49
280
     0
102
RTVSPost2010PropOp49
 70
     0
102
RTVSPost2010Prop50
 90
       50
102
RTVSPost2010PropOp50
 70
     0
102
RTVSPost2010Prop51ColorIndex
 90
      256
102
RTVSPost2010Prop51ColorRGB
 90
-16777216
102
RTVSPost2010PropOp51
 70
     0
102
RTVSPost2010Prop52
140
1.0
102
RTVSPost2010PropOp52
 70
     0
102
RTVSPost2010Prop53
 90
        2
102
RTVSPost2010PropOp53
 70
     0
102
RTVSPost2010Prop54
  1
strokes_ogs.tif
102
RTVSPost2010PropOp54
 70
     0
102
RTVSPost2010Prop55
280
     0
102
RTVSPost2010PropOp55
 70
     0
102
RTVSPost2010Prop56
140
1.0
102
RTVSPost2010PropOp56
 70
     0
102
RTVSPost2010Prop57
140
1.0
102
RTVSPost2010PropOp57
 70
     0
  0
XRECORD
  5
364
102
{ACAD_REACTORS
330
363
102
}
330
363
100
AcDbXrecord
280
     1
102
RTVSPropertyOp0
 70
     1
102
RTVSPropertyOp1
 70
     1
102
RTVSPropertyOp2
 70
     1
102
RTVSPropertyOp3
 70
     1
102
RTVSPropertyOp4
 70
     1
102
RTVSPropertyOp5
 70
     1
102
RTVSPropertyOp6
 70
     1
102
RTVSPropertyOp7
 70
     1
102
RTVSPropertyOp8
 70
     1
102
RTVSPropertyOp9
 70
     1
102
RTVSPropertyOp10
 70
     1
102
RTVSPropertyOp11
 70
     1
102
RTVSPropertyOp12
 70
     1
102
RTVSPropertyOp13
 70
     1
102
RTVSPropertyOp14
 70
     1
102
RTVSPropertyOp15
 70
     1
102
RTVSPropertyOp16
 70
     1
102
RTVSPropertyOp17
 70
     1
102
RTVSPropertyOp18
 70
     1
102
RTVSPropertyOp19
 70
     1
102
RTVSPropertyOp20
 70
     1
102
RTVSPropertyOp21
 70
     1
102
RTVSPropertyOp22
 70
     1
102
RTVSPropertyOp23
 70
     1
102
RTVSPropertyOp24
 70
     1
102
RTVSPropertyOp25
 70
     1
102
RTVSPropertyOp26
 70
     1
102
RTVSPropertyOp27
 70
     1
102
RTVSPropertyOp28
 70
     1
102
RTVSPropertyOp29
 70
     1
102
RTVSPropertyOp30
 70
     1
102
RTVSPropertyOp31
 70
     1
102
RTVSPropertyOp32
 70
     1
102
RTVSPropertyOp33
 70
     1
102
RTVSPropertyOp34
 70
     1
102
RTVSPropertyOp35
 70
     1
102
RTVSPropertyOp36
 70
     1
102
RTVSPropertyOp37
 70
     1
102
RTVSPropertyOp38
 70
     1
102
RTVSPropertyOp39
 70
     1
102
RTVSPropertyOp40
 70
     1
102
RTVSPropertyOp41
 70
     1
102
RTVSPropertyOp42
 70
     1
102
RTVSPropertyOp43
 70
     1
102
RTVSPropertyOp44
 70
     1
102
RTVSPropertyOp45
 70
     1
102
RTVSPropertyOp46
 70
     1
102
RTVSPropertyOp47
 70
     1
102
RTVSPropertyOp48
 70
     1
102
RTVSPropertyOp49
 70
     1
102
RTVSPropertyOp50
 70
     1
102
RTVSPropertyOp51
 70
     0
102
RTVSPropertyOp52
 70
     0
102
RTVSPropertyOp53
 70
     1
102
RTVSPropertyOp54
 70
     1
102
RTVSPropertyOp55
 70
     1
102
RTVSPropertyOp56
 70
     1
102
RTVSPropertyOp57
 70
     1
102
RTVSPost2010Prop28
280
     0
102
RTVSPost2010PropOp28
 70
     1
102
RTVSPost2010Prop29
280
     1
102
RTVSPost2010PropOp29
 70
     1
102
RTVSPost2010Prop30
280
     1
102
RTVSPost2010PropOp30
 70
     1
102
RTVSPost2010Prop31
280
     0
102
RTVSPost2010PropOp31
 70
     1
102
RTVSPost2010Prop32
280
     0
102
RTVSPost2010PropOp32
 70
     1
102
RTVSPost2010Prop33
280
     0
102
RTVSPost2010PropOp33
 70
     1
102
RTVSPost2010Prop34
280
     0
102
RTVSPost2010PropOp34
 70
     1
102
RTVSPost2010Prop35
280
     0
102
RTVSPost2010PropOp35
 70
     1
102
RTVSPost2010Prop36
280
     0
102
RTVSPost2010PropOp36
 70
     1
102
RTVSPost2010Prop37
 90
       50
102
RTVSPost2010PropOp37
 70
     1
102
RTVSPost2010Prop38
140
0.0
102
RTVSPost2010PropOp38
 70
     1
102
RTVSPost2010Prop39
140
1.0
102
RTVSPost2010PropOp39
 70
     1
102
RTVSPost2010Prop40
 90
        0
102
RTVSPost2010PropOp40
 70
     1
102
RTVSPost2010Prop41ColorIndex
 90
       18
102
RTVSPost2010Prop41ColorRGB
 90
        0
102
RTVSPost2010PropOp41
 70
     1
102
RTVSPost2010Prop42
 90
       50
102
RTVSPost2010PropOp42
 70
     1
102
RTVSPost2010Prop43
 90
        3
102
RTVSPost2010PropOp43
 70
     1
102
RTVSPost2010Prop44ColorIndex
 90
        5
102
RTVSPost2010Prop44ColorRGB
 90
      255
102
RTVSPost2010PropOp44
 70
     1
102
RTVSPost2010Prop45
280
     0
102
RTVSPost2010PropOp45
 70
     1
102
RTVSPost2010Prop46
 90
       50
102
RTVSPost2010PropOp46
 70
     1
102
RTVSPost2010Prop47
 90
       50
102
RTVSPost2010PropOp47
 70
     1
102
RTVSPost2010Prop48
 90
       50
102
RTVSPost2010PropOp48
 70
     1
102
RTVSPost2010Prop49
280
     0
102
RTVSPost2010PropOp49
 70
     1
102
RTVSPost2010Prop50
 90
       50
102
RTVSPost2010PropOp50
 70
     1
102
RTVSPost2010Prop51ColorIndex
 90
      256
102
RTVSPost2010Prop51ColorRGB
 90
-16777216
102
RTVSPost2010PropOp51
 70
     0
102
RTVSPost2010Prop52
140
1.0
102
RTVSPost2010PropOp52
 70
     0
102
RTVSPost2010Prop53
 90
        2
102
RTVSPost2010PropOp53
 70
     1
102
RTVSPost2010Prop54
  1
strokes_ogs.tif
102
RTVSPost2010PropOp54
 70
     1
102
RTVSPost2010Prop55
280
     0
102
RTVSPost2010PropOp55
 70
     1
102
RTVSPost2010Prop56
140
1.0
102
RTVSPost2010PropOp56
 70
     1
102
RTVSPost2010Prop57
140
1.0
102
RTVSPost2010PropOp57
 70
     1
  0
XRECORD
  5
348
102
{ACAD_REACTORS
330
347
102
}
330
347
100
AcDbXrecord
280
     1
102
RTVSPropertyOp0
 70
     1
102
RTVSPropertyOp1
 70
     1
102
RTVSPropertyOp2
 70
     1
102
RTVSPropertyOp3
 70
     1
102
RTVSPropertyOp4
 70
     1
102
RTVSPropertyOp5
 70
     1
102
RTVSPropertyOp6
 70
     1
102
RTVSPropertyOp7
 70
     1
102
RTVSPropertyOp8
 70
     1
102
RTVSPropertyOp9
 70
     1
102
RTVSPropertyOp10
 70
     1
102
RTVSPropertyOp11
 70
     1
102
RTVSPropertyOp12
 70
     1
102
RTVSPropertyOp13
 70
     1
102
RTVSPropertyOp14
 70
     1
102
RTVSPropertyOp15
 70
     1
102
RTVSPropertyOp16
 70
     1
102
RTVSPropertyOp17
 70
     1
102
RTVSPropertyOp18
 70
     1
102
RTVSPropertyOp19
 70
     1
102
RTVSPropertyOp20
 70
     1
102
RTVSPropertyOp21
 70
     1
102
RTVSPropertyOp22
 70
     1
102
RTVSPropertyOp23
 70
     1
102
RTVSPropertyOp24
 70
     1
102
RTVSPropertyOp25
 70
     1
102
RTVSPropertyOp26
 70
     1
102
RTVSPropertyOp27
 70
     1
102
RTVSPropertyOp28
 70
     1
102
RTVSPropertyOp29
 70
     1
102
RTVSPropertyOp30
 70
     1
102
RTVSPropertyOp31
 70
     1
102
RTVSPropertyOp32
 70
     1
102
RTVSPropertyOp33
 70
     1
102
RTVSPropertyOp34
 70
     1
102
RTVSPropertyOp35
 70
     1
102
RTVSPropertyOp36
 70
     1
102
RTVSPropertyOp37
 70
     1
102
RTVSPropertyOp38
 70
     1
102
RTVSPropertyOp39
 70
     1
102
RTVSPropertyOp40
 70
     1
102
RTVSPropertyOp41
 70
     1
102
RTVSPropertyOp42
 70
     1
102
RTVSPropertyOp43
 70
     1
102
RTVSPropertyOp44
 70
     1
102
RTVSPropertyOp45
 70
     1
102
RTVSPropertyOp46
 70
     1
102
RTVSPropertyOp47
 70
     1
102
RTVSPropertyOp48
 70
     1
102
RTVSPropertyOp49
 70
     1
102
RTVSPropertyOp50
 70
     1
102
RTVSPropertyOp51
 70
     0
102
RTVSPropertyOp52
 70
     0
102
RTVSPropertyOp53
 70
     1
102
RTVSPropertyOp54
 70
     1
102
RTVSPropertyOp55
 70
     1
102
RTVSPropertyOp56
 70
     1
102
RTVSPropertyOp57
 70
     1
102
RTVSPost2010Prop28
280
     0
102
RTVSPost2010PropOp28
 70
     1
102
RTVSPost2010Prop29
280
     1
102
RTVSPost2010PropOp29
 70
     1
102
RTVSPost2010Prop30
280
     1
102
RTVSPost2010PropOp30
 70
     1
102
RTVSPost2010Prop31
280
     0
102
RTVSPost2010PropOp31
 70
     1
102
RTVSPost2010Prop32
280
     0
102
RTVSPost2010PropOp32
 70
     1
102
RTVSPost2010Prop33
280
     0
102
RTVSPost2010PropOp33
 70
     1
102
RTVSPost2010Prop34
280
     0
102
RTVSPost2010PropOp34
 70
     1
102
RTVSPost2010Prop35
280
     0
102
RTVSPost2010PropOp35
 70
     1
102
RTVSPost2010Prop36
280
     0
102
RTVSPost2010PropOp36
 70
     1
102
RTVSPost2010Prop37
 90
       50
102
RTVSPost2010PropOp37
 70
     1
102
RTVSPost2010Prop38
140
0.0
102
RTVSPost2010PropOp38
 70
     1
102
RTVSPost2010Prop39
140
1.0
102
RTVSPost2010PropOp39
 70
     1
102
RTVSPost2010Prop40
 90
        0
102
RTVSPost2010PropOp40
 70
     1
102
RTVSPost2010Prop41ColorIndex
 90
       18
102
RTVSPost2010Prop41ColorRGB
 90
        0
102
RTVSPost2010PropOp41
 70
     1
102
RTVSPost2010Prop42
 90
       50
102
RTVSPost2010PropOp42
 70
     1
102
RTVSPost2010Prop43
 90
        3
102
RTVSPost2010PropOp43
 70
     1
102
RTVSPost2010Prop44ColorIndex
 90
        5
102
RTVSPost2010Prop44ColorRGB
 90
      255
102
RTVSPost2010PropOp44
 70
     1
102
RTVSPost2010Prop45
280
     0
102
RTVSPost2010PropOp45
 70
     1
102
RTVSPost2010Prop46
 90
       50
102
RTVSPost2010PropOp46
 70
     1
102
RTVSPost2010Prop47
 90
       50
102
RTVSPost2010PropOp47
 70
     1
102
RTVSPost2010Prop48
 90
       50
102
RTVSPost2010PropOp48
 70
     1
102
RTVSPost2010Prop49
280
     0
102
RTVSPost2010PropOp49
 70
     1
102
RTVSPost2010Prop50
 90
       50
102
RTVSPost2010PropOp50
 70
     1
102
RTVSPost2010Prop51ColorIndex
 90
      256
102
RTVSPost2010Prop51ColorRGB
 90
-16777216
102
RTVSPost2010PropOp51
 70
     0
102
RTVSPost2010Prop52
140
1.0
102
RTVSPost2010PropOp52
 70
     0
102
RTVSPost2010Prop53
 90
        2
102
RTVSPost2010PropOp53
 70
     1
102
RTVSPost2010Prop54
  1
strokes_ogs.tif
102
RTVSPost2010PropOp54
 70
     1
102
RTVSPost2010Prop55
280
     0
102
RTVSPost2010PropOp55
 70
     1
102
RTVSPost2010Prop56
140
1.0
102
RTVSPost2010PropOp56
 70
     1
102
RTVSPost2010Prop57
140
1.0
102
RTVSPost2010PropOp57
 70
     1
  0
XRECORD
  5
34A
102
{ACAD_REACTORS
330
349
102
}
330
349
100
AcDbXrecord
280
     1
102
RTVSPropertyOp0
 70
     1
102
RTVSPropertyOp1
 70
     1
102
RTVSPropertyOp2
 70
     1
102
RTVSPropertyOp3
 70
     1
102
RTVSPropertyOp4
 70
     1
102
RTVSPropertyOp5
 70
     1
102
RTVSPropertyOp6
 70
     1
102
RTVSPropertyOp7
 70
     1
102
RTVSPropertyOp8
 70
     1
102
RTVSPropertyOp9
 70
     1
102
RTVSPropertyOp10
 70
     1
102
RTVSPropertyOp11
 70
     1
102
RTVSPropertyOp12
 70
     1
102
RTVSPropertyOp13
 70
     1
102
RTVSPropertyOp14
 70
     1
102
RTVSPropertyOp15
 70
     1
102
RTVSPropertyOp16
 70
     1
102
RTVSPropertyOp17
 70
     1
102
RTVSPropertyOp18
 70
     1
102
RTVSPropertyOp19
 70
     1
102
RTVSPropertyOp20
 70
     1
102
RTVSPropertyOp21
 70
     1
102
RTVSPropertyOp22
 70
     1
102
RTVSPropertyOp23
 70
     1
102
RTVSPropertyOp24
 70
     1
102
RTVSPropertyOp25
 70
     1
102
RTVSPropertyOp26
 70
     1
102
RTVSPropertyOp27
 70
     1
102
RTVSPropertyOp28
 70
     1
102
RTVSPropertyOp29
 70
     1
102
RTVSPropertyOp30
 70
     1
102
RTVSPropertyOp31
 70
     1
102
RTVSPropertyOp32
 70
     1
102
RTVSPropertyOp33
 70
     1
102
RTVSPropertyOp34
 70
     1
102
RTVSPropertyOp35
 70
     1
102
RTVSPropertyOp36
 70
     1
102
RTVSPropertyOp37
 70
     1
102
RTVSPropertyOp38
 70
     1
102
RTVSPropertyOp39
 70
     1
102
RTVSPropertyOp40
 70
     1
102
RTVSPropertyOp41
 70
     1
102
RTVSPropertyOp42
 70
     1
102
RTVSPropertyOp43
 70
     1
102
RTVSPropertyOp44
 70
     1
102
RTVSPropertyOp45
 70
     1
102
RTVSPropertyOp46
 70
     1
102
RTVSPropertyOp47
 70
     1
102
RTVSPropertyOp48
 70
     1
102
RTVSPropertyOp49
 70
     1
102
RTVSPropertyOp50
 70
     1
102
RTVSPropertyOp51
 70
     0
102
RTVSPropertyOp52
 70
     0
102
RTVSPropertyOp53
 70
     1
102
RTVSPropertyOp54
 70
     1
102
RTVSPropertyOp55
 70
     1
102
RTVSPropertyOp56
 70
     1
102
RTVSPropertyOp57
 70
     1
102
RTVSPost2010Prop28
280
     0
102
RTVSPost2010PropOp28
 70
     1
102
RTVSPost2010Prop29
280
     1
102
RTVSPost2010PropOp29
 70
     1
102
RTVSPost2010Prop30
280
     1
102
RTVSPost2010PropOp30
 70
     1
102
RTVSPost2010Prop31
280
     0
102
RTVSPost2010PropOp31
 70
     1
102
RTVSPost2010Prop32
280
     0
102
RTVSPost2010PropOp32
 70
     1
102
RTVSPost2010Prop33
280
     0
102
RTVSPost2010PropOp33
 70
     1
102
RTVSPost2010Prop34
280
     0
102
RTVSPost2010PropOp34
 70
     1
102
RTVSPost2010Prop35
280
     0
102
RTVSPost2010PropOp35
 70
     1
102
RTVSPost2010Prop36
280
     0
102
RTVSPost2010PropOp36
 70
     1
102
RTVSPost2010Prop37
 90
       50
102
RTVSPost2010PropOp37
 70
     1
102
RTVSPost2010Prop38
140
0.0
102
RTVSPost2010PropOp38
 70
     1
102
RTVSPost2010Prop39
140
1.0
102
RTVSPost2010PropOp39
 70
     1
102
RTVSPost2010Prop40
 90
        0
102
RTVSPost2010PropOp40
 70
     1
102
RTVSPost2010Prop41ColorIndex
 90
       18
102
RTVSPost2010Prop41ColorRGB
 90
        0
102
RTVSPost2010PropOp41
 70
     1
102
RTVSPost2010Prop42
 90
       50
102
RTVSPost2010PropOp42
 70
     1
102
RTVSPost2010Prop43
 90
        3
102
RTVSPost2010PropOp43
 70
     1
102
RTVSPost2010Prop44ColorIndex
 90
        5
102
RTVSPost2010Prop44ColorRGB
 90
      255
102
RTVSPost2010PropOp44
 70
     1
102
RTVSPost2010Prop45
280
     0
102
RTVSPost2010PropOp45
 70
     1
102
RTVSPost2010Prop46
 90
       50
102
RTVSPost2010PropOp46
 70
     1
102
RTVSPost2010Prop47
 90
       50
102
RTVSPost2010PropOp47
 70
     1
102
RTVSPost2010Prop48
 90
       50
102
RTVSPost2010PropOp48
 70
     1
102
RTVSPost2010Prop49
280
     0
102
RTVSPost2010PropOp49
 70
     1
102
RTVSPost2010Prop50
 90
       50
102
RTVSPost2010PropOp50
 70
     1
102
RTVSPost2010Prop51ColorIndex
 90
      256
102
RTVSPost2010Prop51ColorRGB
 90
-16777216
102
RTVSPost2010PropOp51
 70
     0
102
RTVSPost2010Prop52
140
1.0
102
RTVSPost2010PropOp52
 70
     0
102
RTVSPost2010Prop53
 90
        2
102
RTVSPost2010PropOp53
 70
     1
102
RTVSPost2010Prop54
  1
strokes_ogs.tif
102
RTVSPost2010PropOp54
 70
     1
102
RTVSPost2010Prop55
280
     0
102
RTVSPost2010PropOp55
 70
     1
102
RTVSPost2010Prop56
140
1.0
102
RTVSPost2010PropOp56
 70
     1
102
RTVSPost2010Prop57
140
1.0
102
RTVSPost2010PropOp57
 70
     1
  0
XRECORD
  5
34C
102
{ACAD_REACTORS
330
34B
102
}
330
34B
100
AcDbXrecord
280
     1
102
RTVSPropertyOp0
 70
     1
102
RTVSPropertyOp1
 70
     1
102
RTVSPropertyOp2
 70
     1
102
RTVSPropertyOp3
 70
     1
102
RTVSPropertyOp4
 70
     1
102
RTVSPropertyOp5
 70
     1
102
RTVSPropertyOp6
 70
     1
102
RTVSPropertyOp7
 70
     1
102
RTVSPropertyOp8
 70
     1
102
RTVSPropertyOp9
 70
     1
102
RTVSPropertyOp10
 70
     1
102
RTVSPropertyOp11
 70
     1
102
RTVSPropertyOp12
 70
     1
102
RTVSPropertyOp13
 70
     1
102
RTVSPropertyOp14
 70
     1
102
RTVSPropertyOp15
 70
     1
102
RTVSPropertyOp16
 70
     1
102
RTVSPropertyOp17
 70
     1
102
RTVSPropertyOp18
 70
     1
102
RTVSPropertyOp19
 70
     1
102
RTVSPropertyOp20
 70
     1
102
RTVSPropertyOp21
 70
     1
102
RTVSPropertyOp22
 70
     1
102
RTVSPropertyOp23
 70
     1
102
RTVSPropertyOp24
 70
     1
102
RTVSPropertyOp25
 70
     1
102
RTVSPropertyOp26
 70
     1
102
RTVSPropertyOp27
 70
     1
102
RTVSPropertyOp28
 70
     1
102
RTVSPropertyOp29
 70
     1
102
RTVSPropertyOp30
 70
     1
102
RTVSPropertyOp31
 70
     1
102
RTVSPropertyOp32
 70
     1
102
RTVSPropertyOp33
 70
     1
102
RTVSPropertyOp34
 70
     1
102
RTVSPropertyOp35
 70
     1
102
RTVSPropertyOp36
 70
     1
102
RTVSPropertyOp37
 70
     1
102
RTVSPropertyOp38
 70
     1
102
RTVSPropertyOp39
 70
     1
102
RTVSPropertyOp40
 70
     1
102
RTVSPropertyOp41
 70
     1
102
RTVSPropertyOp42
 70
     1
102
RTVSPropertyOp43
 70
     1
102
RTVSPropertyOp44
 70
     1
102
RTVSPropertyOp45
 70
     1
102
RTVSPropertyOp46
 70
     1
102
RTVSPropertyOp47
 70
     1
102
RTVSPropertyOp48
 70
     1
102
RTVSPropertyOp49
 70
     1
102
RTVSPropertyOp50
 70
     1
102
RTVSPropertyOp51
 70
     0
102
RTVSPropertyOp52
 70
     0
102
RTVSPropertyOp53
 70
     1
102
RTVSPropertyOp54
 70
     1
102
RTVSPropertyOp55
 70
     1
102
RTVSPropertyOp56
 70
     1
102
RTVSPropertyOp57
 70
     1
102
RTVSPost2010Prop28
280
     0
102
RTVSPost2010PropOp28
 70
     1
102
RTVSPost2010Prop29
280
     1
102
RTVSPost2010PropOp29
 70
     1
102
RTVSPost2010Prop30
280
     1
102
RTVSPost2010PropOp30
 70
     1
102
RTVSPost2010Prop31
280
     0
102
RTVSPost2010PropOp31
 70
     1
102
RTVSPost2010Prop32
280
     0
102
RTVSPost2010PropOp32
 70
     1
102
RTVSPost2010Prop33
280
     0
102
RTVSPost2010PropOp33
 70
     1
102
RTVSPost2010Prop34
280
     0
102
RTVSPost2010PropOp34
 70
     1
102
RTVSPost2010Prop35
280
     0
102
RTVSPost2010PropOp35
 70
     1
102
RTVSPost2010Prop36
280
     0
102
RTVSPost2010PropOp36
 70
     1
102
RTVSPost2010Prop37
 90
       50
102
RTVSPost2010PropOp37
 70
     1
102
RTVSPost2010Prop38
140
0.0
102
RTVSPost2010PropOp38
 70
     1
102
RTVSPost2010Prop39
140
1.0
102
RTVSPost2010PropOp39
 70
     1
102
RTVSPost2010Prop40
 90
        0
102
RTVSPost2010PropOp40
 70
     1
102
RTVSPost2010Prop41ColorIndex
 90
       18
102
RTVSPost2010Prop41ColorRGB
 90
        0
102
RTVSPost2010PropOp41
 70
     1
102
RTVSPost2010Prop42
 90
       50
102
RTVSPost2010PropOp42
 70
     1
102
RTVSPost2010Prop43
 90
        3
102
RTVSPost2010PropOp43
 70
     1
102
RTVSPost2010Prop44ColorIndex
 90
        5
102
RTVSPost2010Prop44ColorRGB
 90
      255
102
RTVSPost2010PropOp44
 70
     1
102
RTVSPost2010Prop45
280
     0
102
RTVSPost2010PropOp45
 70
     1
102
RTVSPost2010Prop46
 90
       50
102
RTVSPost2010PropOp46
 70
     1
102
RTVSPost2010Prop47
 90
       50
102
RTVSPost2010PropOp47
 70
     1
102
RTVSPost2010Prop48
 90
       50
102
RTVSPost2010PropOp48
 70
     1
102
RTVSPost2010Prop49
280
     0
102
RTVSPost2010PropOp49
 70
     1
102
RTVSPost2010Prop50
 90
       50
102
RTVSPost2010PropOp50
 70
     1
102
RTVSPost2010Prop51ColorIndex
 90
      256
102
RTVSPost2010Prop51ColorRGB
 90
-16777216
102
RTVSPost2010PropOp51
 70
     0
102
RTVSPost2010Prop52
140
1.0
102
RTVSPost2010PropOp52
 70
     0
102
RTVSPost2010Prop53
 90
        2
102
RTVSPost2010PropOp53
 70
     1
102
RTVSPost2010Prop54
  1
strokes_ogs.tif
102
RTVSPost2010PropOp54
 70
     1
102
RTVSPost2010Prop55
280
     0
102
RTVSPost2010PropOp55
 70
     1
102
RTVSPost2010Prop56
140
1.0
102
RTVSPost2010PropOp56
 70
     1
102
RTVSPost2010Prop57
140
1.0
102
RTVSPost2010PropOp57
 70
     1
  0
XRECORD
  5
34E
102
{ACAD_REACTORS
330
34D
102
}
330
34D
100
AcDbXrecord
280
     1
102
RTVSPropertyOp0
 70
     1
102
RTVSPropertyOp1
 70
     1
102
RTVSPropertyOp2
 70
     1
102
RTVSPropertyOp3
 70
     1
102
RTVSPropertyOp4
 70
     1
102
RTVSPropertyOp5
 70
     1
102
RTVSPropertyOp6
 70
     1
102
RTVSPropertyOp7
 70
     1
102
RTVSPropertyOp8
 70
     1
102
RTVSPropertyOp9
 70
     1
102
RTVSPropertyOp10
 70
     1
102
RTVSPropertyOp11
 70
     1
102
RTVSPropertyOp12
 70
     1
102
RTVSPropertyOp13
 70
     1
102
RTVSPropertyOp14
 70
     1
102
RTVSPropertyOp15
 70
     1
102
RTVSPropertyOp16
 70
     1
102
RTVSPropertyOp17
 70
     1
102
RTVSPropertyOp18
 70
     1
102
RTVSPropertyOp19
 70
     1
102
RTVSPropertyOp20
 70
     1
102
RTVSPropertyOp21
 70
     1
102
RTVSPropertyOp22
 70
     1
102
RTVSPropertyOp23
 70
     1
102
RTVSPropertyOp24
 70
     1
102
RTVSPropertyOp25
 70
     1
102
RTVSPropertyOp26
 70
     1
102
RTVSPropertyOp27
 70
     1
102
RTVSPropertyOp28
 70
     1
102
RTVSPropertyOp29
 70
     1
102
RTVSPropertyOp30
 70
     1
102
RTVSPropertyOp31
 70
     1
102
RTVSPropertyOp32
 70
     1
102
RTVSPropertyOp33
 70
     1
102
RTVSPropertyOp34
 70
     1
102
RTVSPropertyOp35
 70
     1
102
RTVSPropertyOp36
 70
     1
102
RTVSPropertyOp37
 70
     1
102
RTVSPropertyOp38
 70
     1
102
RTVSPropertyOp39
 70
     1
102
RTVSPropertyOp40
 70
     1
102
RTVSPropertyOp41
 70
     1
102
RTVSPropertyOp42
 70
     1
102
RTVSPropertyOp43
 70
     1
102
RTVSPropertyOp44
 70
     1
102
RTVSPropertyOp45
 70
     1
102
RTVSPropertyOp46
 70
     1
102
RTVSPropertyOp47
 70
     1
102
RTVSPropertyOp48
 70
     1
102
RTVSPropertyOp49
 70
     1
102
RTVSPropertyOp50
 70
     1
102
RTVSPropertyOp51
 70
     0
102
RTVSPropertyOp52
 70
     0
102
RTVSPropertyOp53
 70
     1
102
RTVSPropertyOp54
 70
     1
102
RTVSPropertyOp55
 70
     1
102
RTVSPropertyOp56
 70
     1
102
RTVSPropertyOp57
 70
     1
102
RTVSPost2010Prop28
280
     0
102
RTVSPost2010PropOp28
 70
     1
102
RTVSPost2010Prop29
280
     1
102
RTVSPost2010PropOp29
 70
     1
102
RTVSPost2010Prop30
280
     1
102
RTVSPost2010PropOp30
 70
     1
102
RTVSPost2010Prop31
280
     0
102
RTVSPost2010PropOp31
 70
     1
102
RTVSPost2010Prop32
280
     0
102
RTVSPost2010PropOp32
 70
     1
102
RTVSPost2010Prop33
280
     0
102
RTVSPost2010PropOp33
 70
     1
102
RTVSPost2010Prop34
280
     0
102
RTVSPost2010PropOp34
 70
     1
102
RTVSPost2010Prop35
280
     0
102
RTVSPost2010PropOp35
 70
     1
102
RTVSPost2010Prop36
280
     0
102
RTVSPost2010PropOp36
 70
     1
102
RTVSPost2010Prop37
 90
       50
102
RTVSPost2010PropOp37
 70
     1
102
RTVSPost2010Prop38
140
0.0
102
RTVSPost2010PropOp38
 70
     1
102
RTVSPost2010Prop39
140
1.0
102
RTVSPost2010PropOp39
 70
     1
102
RTVSPost2010Prop40
 90
        0
102
RTVSPost2010PropOp40
 70
     1
102
RTVSPost2010Prop41ColorIndex
 90
       18
102
RTVSPost2010Prop41ColorRGB
 90
        0
102
RTVSPost2010PropOp41
 70
     1
102
RTVSPost2010Prop42
 90
       50
102
RTVSPost2010PropOp42
 70
     1
102
RTVSPost2010Prop43
 90
        3
102
RTVSPost2010PropOp43
 70
     1
102
RTVSPost2010Prop44ColorIndex
 90
        5
102
RTVSPost2010Prop44ColorRGB
 90
      255
102
RTVSPost2010PropOp44
 70
     1
102
RTVSPost2010Prop45
280
     0
102
RTVSPost2010PropOp45
 70
     1
102
RTVSPost2010Prop46
 90
       50
102
RTVSPost2010PropOp46
 70
     1
102
RTVSPost2010Prop47
 90
       50
102
RTVSPost2010PropOp47
 70
     1
102
RTVSPost2010Prop48
 90
       50
102
RTVSPost2010PropOp48
 70
     1
102
RTVSPost2010Prop49
280
     0
102
RTVSPost2010PropOp49
 70
     1
102
RTVSPost2010Prop50
 90
       50
102
RTVSPost2010PropOp50
 70
     1
102
RTVSPost2010Prop51ColorIndex
 90
      256
102
RTVSPost2010Prop51ColorRGB
 90
-16777216
102
RTVSPost2010PropOp51
 70
     0
102
RTVSPost2010Prop52
140
1.0
102
RTVSPost2010PropOp52
 70
     0
102
RTVSPost2010Prop53
 90
        2
102
RTVSPost2010PropOp53
 70
     1
102
RTVSPost2010Prop54
  1
strokes_ogs.tif
102
RTVSPost2010PropOp54
 70
     1
102
RTVSPost2010Prop55
280
     0
102
RTVSPost2010PropOp55
 70
     1
102
RTVSPost2010Prop56
140
1.0
102
RTVSPost2010PropOp56
 70
     1
102
RTVSPost2010Prop57
140
1.0
102
RTVSPost2010PropOp57
 70
     1
  0
XRECORD
  5
354
102
{ACAD_REACTORS
330
353
102
}
330
353
100
AcDbXrecord
280
     1
102
RTVSPropertyOp0
 70
     1
102
RTVSPropertyOp1
 70
     1
102
RTVSPropertyOp2
 70
     1
102
RTVSPropertyOp3
 70
     1
102
RTVSPropertyOp4
 70
     1
102
RTVSPropertyOp5
 70
     1
102
RTVSPropertyOp6
 70
     1
102
RTVSPropertyOp7
 70
     1
102
RTVSPropertyOp8
 70
     1
102
RTVSPropertyOp9
 70
     1
102
RTVSPropertyOp10
 70
     1
102
RTVSPropertyOp11
 70
     1
102
RTVSPropertyOp12
 70
     1
102
RTVSPropertyOp13
 70
     1
102
RTVSPropertyOp14
 70
     1
102
RTVSPropertyOp15
 70
     1
102
RTVSPropertyOp16
 70
     1
102
RTVSPropertyOp17
 70
     1
102
RTVSPropertyOp18
 70
     1
102
RTVSPropertyOp19
 70
     1
102
RTVSPropertyOp20
 70
     1
102
RTVSPropertyOp21
 70
     1
102
RTVSPropertyOp22
 70
     1
102
RTVSPropertyOp23
 70
     1
102
RTVSPropertyOp24
 70
     1
102
RTVSPropertyOp25
 70
     1
102
RTVSPropertyOp26
 70
     1
102
RTVSPropertyOp27
 70
     1
102
RTVSPropertyOp28
 70
     1
102
RTVSPropertyOp29
 70
     1
102
RTVSPropertyOp30
 70
     1
102
RTVSPropertyOp31
 70
     1
102
RTVSPropertyOp32
 70
     1
102
RTVSPropertyOp33
 70
     1
102
RTVSPropertyOp34
 70
     1
102
RTVSPropertyOp35
 70
     1
102
RTVSPropertyOp36
 70
     1
102
RTVSPropertyOp37
 70
     1
102
RTVSPropertyOp38
 70
     1
102
RTVSPropertyOp39
 70
     1
102
RTVSPropertyOp40
 70
     1
102
RTVSPropertyOp41
 70
     1
102
RTVSPropertyOp42
 70
     1
102
RTVSPropertyOp43
 70
     1
102
RTVSPropertyOp44
 70
     1
102
RTVSPropertyOp45
 70
     1
102
RTVSPropertyOp46
 70
     1
102
RTVSPropertyOp47
 70
     1
102
RTVSPropertyOp48
 70
     1
102
RTVSPropertyOp49
 70
     1
102
RTVSPropertyOp50
 70
     1
102
RTVSPropertyOp51
 70
     0
102
RTVSPropertyOp52
 70
     0
102
RTVSPropertyOp53
 70
     1
102
RTVSPropertyOp54
 70
     1
102
RTVSPropertyOp55
 70
     1
102
RTVSPropertyOp56
 70
     1
102
RTVSPropertyOp57
 70
     1
102
RTVSPost2010Prop28
280
     0
102
RTVSPost2010PropOp28
 70
     1
102
RTVSPost2010Prop29
280
     1
102
RTVSPost2010PropOp29
 70
     1
102
RTVSPost2010Prop30
280
     1
102
RTVSPost2010PropOp30
 70
     1
102
RTVSPost2010Prop31
280
     0
102
RTVSPost2010PropOp31
 70
     1
102
RTVSPost2010Prop32
280
     0
102
RTVSPost2010PropOp32
 70
     1
102
RTVSPost2010Prop33
280
     0
102
RTVSPost2010PropOp33
 70
     1
102
RTVSPost2010Prop34
280
     0
102
RTVSPost2010PropOp34
 70
     1
102
RTVSPost2010Prop35
280
     0
102
RTVSPost2010PropOp35
 70
     1
102
RTVSPost2010Prop36
280
     0
102
RTVSPost2010PropOp36
 70
     1
102
RTVSPost2010Prop37
 90
       50
102
RTVSPost2010PropOp37
 70
     1
102
RTVSPost2010Prop38
140
0.0
102
RTVSPost2010PropOp38
 70
     1
102
RTVSPost2010Prop39
140
1.0
102
RTVSPost2010PropOp39
 70
     1
102
RTVSPost2010Prop40
 90
        0
102
RTVSPost2010PropOp40
 70
     1
102
RTVSPost2010Prop41ColorIndex
 90
       18
102
RTVSPost2010Prop41ColorRGB
 90
        0
102
RTVSPost2010PropOp41
 70
     1
102
RTVSPost2010Prop42
 90
       50
102
RTVSPost2010PropOp42
 70
     1
102
RTVSPost2010Prop43
 90
        3
102
RTVSPost2010PropOp43
 70
     1
102
RTVSPost2010Prop44ColorIndex
 90
        5
102
RTVSPost2010Prop44ColorRGB
 90
      255
102
RTVSPost2010PropOp44
 70
     1
102
RTVSPost2010Prop45
280
     0
102
RTVSPost2010PropOp45
 70
     1
102
RTVSPost2010Prop46
 90
       50
102
RTVSPost2010PropOp46
 70
     1
102
RTVSPost2010Prop47
 90
       50
102
RTVSPost2010PropOp47
 70
     1
102
RTVSPost2010Prop48
 90
       50
102
RTVSPost2010PropOp48
 70
     1
102
RTVSPost2010Prop49
280
     0
102
RTVSPost2010PropOp49
 70
     1
102
RTVSPost2010Prop50
 90
       50
102
RTVSPost2010PropOp50
 70
     1
102
RTVSPost2010Prop51ColorIndex
 90
      256
102
RTVSPost2010Prop51ColorRGB
 90
-16777216
102
RTVSPost2010PropOp51
 70
     0
102
RTVSPost2010Prop52
140
1.0
102
RTVSPost2010PropOp52
 70
     0
102
RTVSPost2010Prop53
 90
        2
102
RTVSPost2010PropOp53
 70
     1
102
RTVSPost2010Prop54
  1
strokes_ogs.tif
102
RTVSPost2010PropOp54
 70
     1
102
RTVSPost2010Prop55
280
     0
102
RTVSPost2010PropOp55
 70
     1
102
RTVSPost2010Prop56
140
1.0
102
RTVSPost2010PropOp56
 70
     1
102
RTVSPost2010Prop57
140
1.0
102
RTVSPost2010PropOp57
 70
     1
  0
XRECORD
  5
368
102
{ACAD_REACTORS
330
367
102
}
330
367
100
AcDbXrecord
280
     1
102
RTVSPropertyOp0
 70
     0
102
RTVSPropertyOp1
 70
     0
102
RTVSPropertyOp2
 70
     0
102
RTVSPropertyOp3
 70
     0
102
RTVSPropertyOp4
 70
     0
102
RTVSPropertyOp5
 70
     0
102
RTVSPropertyOp6
 70
     0
102
RTVSPropertyOp7
 70
     0
102
RTVSPropertyOp8
 70
     0
102
RTVSPropertyOp9
 70
     0
102
RTVSPropertyOp10
 70
     0
102
RTVSPropertyOp11
 70
     0
102
RTVSPropertyOp12
 70
     0
102
RTVSPropertyOp13
 70
     0
102
RTVSPropertyOp14
 70
     2
102
RTVSPropertyOp15
 70
     0
102
RTVSPropertyOp16
 70
     0
102
RTVSPropertyOp17
 70
     0
102
RTVSPropertyOp18
 70
     0
102
RTVSPropertyOp19
 70
     0
102
RTVSPropertyOp20
 70
     0
102
RTVSPropertyOp21
 70
     0
102
RTVSPropertyOp22
 70
     0
102
RTVSPropertyOp23
 70
     0
102
RTVSPropertyOp24
 70
     0
102
RTVSPropertyOp25
 70
     0
102
RTVSPropertyOp26
 70
     0
102
RTVSPropertyOp27
 70
     0
102
RTVSPropertyOp28
 70
     0
102
RTVSPropertyOp29
 70
     0
102
RTVSPropertyOp30
 70
     0
102
RTVSPropertyOp31
 70
     0
102
RTVSPropertyOp32
 70
     0
102
RTVSPropertyOp33
 70
     0
102
RTVSPropertyOp34
 70
     0
102
RTVSPropertyOp35
 70
     0
102
RTVSPropertyOp36
 70
     0
102
RTVSPropertyOp37
 70
     0
102
RTVSPropertyOp38
 70
     0
102
RTVSPropertyOp39
 70
     0
102
RTVSPropertyOp40
 70
     0
102
RTVSPropertyOp41
 70
     0
102
RTVSPropertyOp42
 70
     0
102
RTVSPropertyOp43
 70
     0
102
RTVSPropertyOp44
 70
     0
102
RTVSPropertyOp45
 70
     0
102
RTVSPropertyOp46
 70
     0
102
RTVSPropertyOp47
 70
     0
102
RTVSPropertyOp48
 70
     0
102
RTVSPropertyOp49
 70
     0
102
RTVSPropertyOp50
 70
     0
102
RTVSPropertyOp51
 70
     0
102
RTVSPropertyOp52
 70
     0
102
RTVSPropertyOp53
 70
     0
102
RTVSPropertyOp54
 70
     0
102
RTVSPropertyOp55
 70
     0
102
RTVSPropertyOp56
 70
     0
102
RTVSPropertyOp57
 70
     0
102
RTVSPost2010Prop28
280
     0
102
RTVSPost2010PropOp28
 70
     0
102
RTVSPost2010Prop29
280
     1
102
RTVSPost2010PropOp29
 70
     0
102
RTVSPost2010Prop30
280
     1
102
RTVSPost2010PropOp30
 70
     0
102
RTVSPost2010Prop31
280
     0
102
RTVSPost2010PropOp31
 70
     0
102
RTVSPost2010Prop32
280
     0
102
RTVSPost2010PropOp32
 70
     0
102
RTVSPost2010Prop33
280
     0
102
RTVSPost2010PropOp33
 70
     0
102
RTVSPost2010Prop34
280
     0
102
RTVSPost2010PropOp34
 70
     0
102
RTVSPost2010Prop35
280
     0
102
RTVSPost2010PropOp35
 70
     0
102
RTVSPost2010Prop36
280
     0
102
RTVSPost2010PropOp36
 70
     0
102
RTVSPost2010Prop37
 90
       50
102
RTVSPost2010PropOp37
 70
     0
102
RTVSPost2010Prop38
140
0.0
102
RTVSPost2010PropOp38
 70
     0
102
RTVSPost2010Prop39
140
1.0
102
RTVSPost2010PropOp39
 70
     0
102
RTVSPost2010Prop40
 90
        0
102
RTVSPost2010PropOp40
 70
     0
102
RTVSPost2010Prop41ColorIndex
 90
       18
102
RTVSPost2010Prop41ColorRGB
 90
        0
102
RTVSPost2010PropOp41
 70
     0
102
RTVSPost2010Prop42
 90
       50
102
RTVSPost2010PropOp42
 70
     0
102
RTVSPost2010Prop43
 90
        3
102
RTVSPost2010PropOp43
 70
     0
102
RTVSPost2010Prop44ColorIndex
 90
        5
102
RTVSPost2010Prop44ColorRGB
 90
      255
102
RTVSPost2010PropOp44
 70
     0
102
RTVSPost2010Prop45
280
     0
102
RTVSPost2010PropOp45
 70
     0
102
RTVSPost2010Prop46
 90
       50
102
RTVSPost2010PropOp46
 70
     0
102
RTVSPost2010Prop47
 90
       50
102
RTVSPost2010PropOp47
 70
     0
102
RTVSPost2010Prop48
 90
       50
102
RTVSPost2010PropOp48
 70
     0
102
RTVSPost2010Prop49
280
     0
102
RTVSPost2010PropOp49
 70
     0
102
RTVSPost2010Prop50
 90
       50
102
RTVSPost2010PropOp50
 70
     0
102
RTVSPost2010Prop51ColorIndex
 90
      256
102
RTVSPost2010Prop51ColorRGB
 90
-16777216
102
RTVSPost2010PropOp51
 70
     0
102
RTVSPost2010Prop52
140
1.0
102
RTVSPost2010PropOp52
 70
     0
102
RTVSPost2010Prop53
 90
        2
102
RTVSPost2010PropOp53
 70
     0
102
RTVSPost2010Prop54
  1
strokes_ogs.tif
102
RTVSPost2010PropOp54
 70
     0
102
RTVSPost2010Prop55
280
     0
102
RTVSPost2010PropOp55
 70
     0
102
RTVSPost2010Prop56
140
1.0
102
RTVSPost2010PropOp56
 70
     0
102
RTVSPost2010Prop57
140
1.0
102
RTVSPost2010PropOp57
 70
     0
  0
XRECORD
  5
362
102
{ACAD_REACTORS
330
361
102
}
330
361
100
AcDbXrecord
280
     1
102
RTVSPropertyOp0
 70
     1
102
RTVSPropertyOp1
 70
     1
102
RTVSPropertyOp2
 70
     1
102
RTVSPropertyOp3
 70
     1
102
RTVSPropertyOp4
 70
     1
102
RTVSPropertyOp5
 70
     1
102
RTVSPropertyOp6
 70
     1
102
RTVSPropertyOp7
 70
     1
102
RTVSPropertyOp8
 70
     1
102
RTVSPropertyOp9
 70
     1
102
RTVSPropertyOp10
 70
     1
102
RTVSPropertyOp11
 70
     1
102
RTVSPropertyOp12
 70
     1
102
RTVSPropertyOp13
 70
     1
102
RTVSPropertyOp14
 70
     1
102
RTVSPropertyOp15
 70
     1
102
RTVSPropertyOp16
 70
     1
102
RTVSPropertyOp17
 70
     1
102
RTVSPropertyOp18
 70
     1
102
RTVSPropertyOp19
 70
     1
102
RTVSPropertyOp20
 70
     1
102
RTVSPropertyOp21
 70
     1
102
RTVSPropertyOp22
 70
     1
102
RTVSPropertyOp23
 70
     1
102
RTVSPropertyOp24
 70
     1
102
RTVSPropertyOp25
 70
     1
102
RTVSPropertyOp26
 70
     1
102
RTVSPropertyOp27
 70
     1
102
RTVSPropertyOp28
 70
     1
102
RTVSPropertyOp29
 70
     1
102
RTVSPropertyOp30
 70
     1
102
RTVSPropertyOp31
 70
     1
102
RTVSPropertyOp32
 70
     1
102
RTVSPropertyOp33
 70
     1
102
RTVSPropertyOp34
 70
     1
102
RTVSPropertyOp35
 70
     1
102
RTVSPropertyOp36
 70
     1
102
RTVSPropertyOp37
 70
     1
102
RTVSPropertyOp38
 70
     1
102
RTVSPropertyOp39
 70
     1
102
RTVSPropertyOp40
 70
     1
102
RTVSPropertyOp41
 70
     1
102
RTVSPropertyOp42
 70
     1
102
RTVSPropertyOp43
 70
     1
102
RTVSPropertyOp44
 70
     1
102
RTVSPropertyOp45
 70
     1
102
RTVSPropertyOp46
 70
     1
102
RTVSPropertyOp47
 70
     1
102
RTVSPropertyOp48
 70
     1
102
RTVSPropertyOp49
 70
     1
102
RTVSPropertyOp50
 70
     1
102
RTVSPropertyOp51
 70
     0
102
RTVSPropertyOp52
 70
     0
102
RTVSPropertyOp53
 70
     1
102
RTVSPropertyOp54
 70
     1
102
RTVSPropertyOp55
 70
     1
102
RTVSPropertyOp56
 70
     1
102
RTVSPropertyOp57
 70
     1
102
RTVSPost2010Prop28
280
     0
102
RTVSPost2010PropOp28
 70
     1
102
RTVSPost2010Prop29
280
     1
102
RTVSPost2010PropOp29
 70
     1
102
RTVSPost2010Prop30
280
     1
102
RTVSPost2010PropOp30
 70
     1
102
RTVSPost2010Prop31
280
     0
102
RTVSPost2010PropOp31
 70
     1
102
RTVSPost2010Prop32
280
     0
102
RTVSPost2010PropOp32
 70
     1
102
RTVSPost2010Prop33
280
     0
102
RTVSPost2010PropOp33
 70
     1
102
RTVSPost2010Prop34
280
     0
102
RTVSPost2010PropOp34
 70
     1
102
RTVSPost2010Prop35
280
     0
102
RTVSPost2010PropOp35
 70
     1
102
RTVSPost2010Prop36
280
     0
102
RTVSPost2010PropOp36
 70
     1
102
RTVSPost2010Prop37
 90
       50
102
RTVSPost2010PropOp37
 70
     1
102
RTVSPost2010Prop38
140
0.0
102
RTVSPost2010PropOp38
 70
     1
102
RTVSPost2010Prop39
140
1.0
102
RTVSPost2010PropOp39
 70
     1
102
RTVSPost2010Prop40
 90
        0
102
RTVSPost2010PropOp40
 70
     1
102
RTVSPost2010Prop41ColorIndex
 90
       18
102
RTVSPost2010Prop41ColorRGB
 90
        0
102
RTVSPost2010PropOp41
 70
     1
102
RTVSPost2010Prop42
 90
       50
102
RTVSPost2010PropOp42
 70
     1
102
RTVSPost2010Prop43
 90
        3
102
RTVSPost2010PropOp43
 70
     1
102
RTVSPost2010Prop44ColorIndex
 90
        5
102
RTVSPost2010Prop44ColorRGB
 90
      255
102
RTVSPost2010PropOp44
 70
     1
102
RTVSPost2010Prop45
280
     0
102
RTVSPost2010PropOp45
 70
     1
102
RTVSPost2010Prop46
 90
       50
102
RTVSPost2010PropOp46
 70
     1
102
RTVSPost2010Prop47
 90
       50
102
RTVSPost2010PropOp47
 70
     1
102
RTVSPost2010Prop48
 90
       50
102
RTVSPost2010PropOp48
 70
     1
102
RTVSPost2010Prop49
280
     0
102
RTVSPost2010PropOp49
 70
     1
102
RTVSPost2010Prop50
 90
       50
102
RTVSPost2010PropOp50
 70
     1
102
RTVSPost2010Prop51ColorIndex
 90
      256
102
RTVSPost2010Prop51ColorRGB
 90
-16777216
102
RTVSPost2010PropOp51
 70
     0
102
RTVSPost2010Prop52
140
1.0
102
RTVSPost2010PropOp52
 70
     0
102
RTVSPost2010Prop53
 90
        2
102
RTVSPost2010PropOp53
 70
     1
102
RTVSPost2010Prop54
  1
strokes_ogs.tif
102
RTVSPost2010PropOp54
 70
     1
102
RTVSPost2010Prop55
280
     0
102
RTVSPost2010PropOp55
 70
     1
102
RTVSPost2010Prop56
140
1.0
102
RTVSPost2010PropOp56
 70
     1
102
RTVSPost2010Prop57
140
1.0
102
RTVSPost2010PropOp57
 70
     1
  0
XRECORD
  5
36A
102
{ACAD_REACTORS
330
369
102
}
330
369
100
AcDbXrecord
280
     1
102
RTVSPropertyOp0
 70
     0
102
RTVSPropertyOp1
 70
     0
102
RTVSPropertyOp2
 70
     0
102
RTVSPropertyOp3
 70
     0
102
RTVSPropertyOp4
 70
     0
102
RTVSPropertyOp5
 70
     0
102
RTVSPropertyOp6
 70
     0
102
RTVSPropertyOp7
 70
     0
102
RTVSPropertyOp8
 70
     0
102
RTVSPropertyOp9
 70
     0
102
RTVSPropertyOp10
 70
     0
102
RTVSPropertyOp11
 70
     0
102
RTVSPropertyOp12
 70
     0
102
RTVSPropertyOp13
 70
     0
102
RTVSPropertyOp14
 70
     2
102
RTVSPropertyOp15
 70
     0
102
RTVSPropertyOp16
 70
     0
102
RTVSPropertyOp17
 70
     0
102
RTVSPropertyOp18
 70
     0
102
RTVSPropertyOp19
 70
     0
102
RTVSPropertyOp20
 70
     0
102
RTVSPropertyOp21
 70
     0
102
RTVSPropertyOp22
 70
     0
102
RTVSPropertyOp23
 70
     0
102
RTVSPropertyOp24
 70
     0
102
RTVSPropertyOp25
 70
     0
102
RTVSPropertyOp26
 70
     0
102
RTVSPropertyOp27
 70
     0
102
RTVSPropertyOp28
 70
     0
102
RTVSPropertyOp29
 70
     0
102
RTVSPropertyOp30
 70
     0
102
RTVSPropertyOp31
 70
     0
102
RTVSPropertyOp32
 70
     0
102
RTVSPropertyOp33
 70
     0
102
RTVSPropertyOp34
 70
     0
102
RTVSPropertyOp35
 70
     0
102
RTVSPropertyOp36
 70
     0
102
RTVSPropertyOp37
 70
     0
102
RTVSPropertyOp38
 70
     0
102
RTVSPropertyOp39
 70
     0
102
RTVSPropertyOp40
 70
     0
102
RTVSPropertyOp41
 70
     0
102
RTVSPropertyOp42
 70
     0
102
RTVSPropertyOp43
 70
     0
102
RTVSPropertyOp44
 70
     0
102
RTVSPropertyOp45
 70
     0
102
RTVSPropertyOp46
 70
     0
102
RTVSPropertyOp47
 70
     0
102
RTVSPropertyOp48
 70
     0
102
RTVSPropertyOp49
 70
     0
102
RTVSPropertyOp50
 70
     0
102
RTVSPropertyOp51
 70
     0
102
RTVSPropertyOp52
 70
     0
102
RTVSPropertyOp53
 70
     0
102
RTVSPropertyOp54
 70
     0
102
RTVSPropertyOp55
 70
     0
102
RTVSPropertyOp56
 70
     0
102
RTVSPropertyOp57
 70
     0
102
RTVSPost2010Prop28
280
     0
102
RTVSPost2010PropOp28
 70
     0
102
RTVSPost2010Prop29
280
     1
102
RTVSPost2010PropOp29
 70
     0
102
RTVSPost2010Prop30
280
     1
102
RTVSPost2010PropOp30
 70
     0
102
RTVSPost2010Prop31
280
     0
102
RTVSPost2010PropOp31
 70
     0
102
RTVSPost2010Prop32
280
     0
102
RTVSPost2010PropOp32
 70
     0
102
RTVSPost2010Prop33
280
     0
102
RTVSPost2010PropOp33
 70
     0
102
RTVSPost2010Prop34
280
     0
102
RTVSPost2010PropOp34
 70
     0
102
RTVSPost2010Prop35
280
     0
102
RTVSPost2010PropOp35
 70
     0
102
RTVSPost2010Prop36
280
     0
102
RTVSPost2010PropOp36
 70
     0
102
RTVSPost2010Prop37
 90
       50
102
RTVSPost2010PropOp37
 70
     0
102
RTVSPost2010Prop38
140
0.0
102
RTVSPost2010PropOp38
 70
     0
102
RTVSPost2010Prop39
140
1.0
102
RTVSPost2010PropOp39
 70
     0
102
RTVSPost2010Prop40
 90
        0
102
RTVSPost2010PropOp40
 70
     0
102
RTVSPost2010Prop41ColorIndex
 90
       18
102
RTVSPost2010Prop41ColorRGB
 90
        0
102
RTVSPost2010PropOp41
 70
     0
102
RTVSPost2010Prop42
 90
       50
102
RTVSPost2010PropOp42
 70
     0
102
RTVSPost2010Prop43
 90
        3
102
RTVSPost2010PropOp43
 70
     0
102
RTVSPost2010Prop44ColorIndex
 90
        5
102
RTVSPost2010Prop44ColorRGB
 90
      255
102
RTVSPost2010PropOp44
 70
     0
102
RTVSPost2010Prop45
280
     0
102
RTVSPost2010PropOp45
 70
     0
102
RTVSPost2010Prop46
 90
       50
102
RTVSPost2010PropOp46
 70
     0
102
RTVSPost2010Prop47
 90
       50
102
RTVSPost2010PropOp47
 70
     0
102
RTVSPost2010Prop48
 90
       50
102
RTVSPost2010PropOp48
 70
     0
102
RTVSPost2010Prop49
280
     0
102
RTVSPost2010PropOp49
 70
     0
102
RTVSPost2010Prop50
 90
       50
102
RTVSPost2010PropOp50
 70
     0
102
RTVSPost2010Prop51ColorIndex
 90
      256
102
RTVSPost2010Prop51ColorRGB
 90
-16777216
102
RTVSPost2010PropOp51
 70
     0
102
RTVSPost2010Prop52
140
1.0
102
RTVSPost2010PropOp52
 70
     0
102
RTVSPost2010Prop53
 90
        2
102
RTVSPost2010PropOp53
 70
     0
102
RTVSPost2010Prop54
  1
strokes_ogs.tif
102
RTVSPost2010PropOp54
 70
     0
102
RTVSPost2010Prop55
280
     0
102
RTVSPost2010PropOp55
 70
     0
102
RTVSPost2010Prop56
140
1.0
102
RTVSPost2010PropOp56
 70
     0
102
RTVSPost2010Prop57
140
1.0
102
RTVSPost2010PropOp57
 70
     0
  0
XRECORD
  5
358
102
{ACAD_REACTORS
330
357
102
}
330
357
100
AcDbXrecord
280
     1
102
RTVSPropertyOp0
 70
     1
102
RTVSPropertyOp1
 70
     1
102
RTVSPropertyOp2
 70
     1
102
RTVSPropertyOp3
 70
     1
102
RTVSPropertyOp4
 70
     1
102
RTVSPropertyOp5
 70
     1
102
RTVSPropertyOp6
 70
     1
102
RTVSPropertyOp7
 70
     1
102
RTVSPropertyOp8
 70
     1
102
RTVSPropertyOp9
 70
     1
102
RTVSPropertyOp10
 70
     1
102
RTVSPropertyOp11
 70
     1
102
RTVSPropertyOp12
 70
     1
102
RTVSPropertyOp13
 70
     1
102
RTVSPropertyOp14
 70
     1
102
RTVSPropertyOp15
 70
     1
102
RTVSPropertyOp16
 70
     1
102
RTVSPropertyOp17
 70
     1
102
RTVSPropertyOp18
 70
     1
102
RTVSPropertyOp19
 70
     1
102
RTVSPropertyOp20
 70
     1
102
RTVSPropertyOp21
 70
     1
102
RTVSPropertyOp22
 70
     1
102
RTVSPropertyOp23
 70
     1
102
RTVSPropertyOp24
 70
     1
102
RTVSPropertyOp25
 70
     1
102
RTVSPropertyOp26
 70
     1
102
RTVSPropertyOp27
 70
     1
102
RTVSPropertyOp28
 70
     1
102
RTVSPropertyOp29
 70
     1
102
RTVSPropertyOp30
 70
     1
102
RTVSPropertyOp31
 70
     1
102
RTVSPropertyOp32
 70
     1
102
RTVSPropertyOp33
 70
     1
102
RTVSPropertyOp34
 70
     1
102
RTVSPropertyOp35
 70
     1
102
RTVSPropertyOp36
 70
     1
102
RTVSPropertyOp37
 70
     1
102
RTVSPropertyOp38
 70
     1
102
RTVSPropertyOp39
 70
     1
102
RTVSPropertyOp40
 70
     1
102
RTVSPropertyOp41
 70
     1
102
RTVSPropertyOp42
 70
     1
102
RTVSPropertyOp43
 70
     1
102
RTVSPropertyOp44
 70
     1
102
RTVSPropertyOp45
 70
     1
102
RTVSPropertyOp46
 70
     1
102
RTVSPropertyOp47
 70
     1
102
RTVSPropertyOp48
 70
     1
102
RTVSPropertyOp49
 70
     1
102
RTVSPropertyOp50
 70
     1
102
RTVSPropertyOp51
 70
     0
102
RTVSPropertyOp52
 70
     0
102
RTVSPropertyOp53
 70
     1
102
RTVSPropertyOp54
 70
     1
102
RTVSPropertyOp55
 70
     1
102
RTVSPropertyOp56
 70
     1
102
RTVSPropertyOp57
 70
     1
102
RTVSPost2010Prop28
280
     0
102
RTVSPost2010PropOp28
 70
     1
102
RTVSPost2010Prop29
280
     1
102
RTVSPost2010PropOp29
 70
     1
102
RTVSPost2010Prop30
280
     1
102
RTVSPost2010PropOp30
 70
     1
102
RTVSPost2010Prop31
280
     0
102
RTVSPost2010PropOp31
 70
     1
102
RTVSPost2010Prop32
280
     0
102
RTVSPost2010PropOp32
 70
     1
102
RTVSPost2010Prop33
280
     0
102
RTVSPost2010PropOp33
 70
     1
102
RTVSPost2010Prop34
280
     0
102
RTVSPost2010PropOp34
 70
     1
102
RTVSPost2010Prop35
280
     0
102
RTVSPost2010PropOp35
 70
     1
102
RTVSPost2010Prop36
280
     0
102
RTVSPost2010PropOp36
 70
     1
102
RTVSPost2010Prop37
 90
       50
102
RTVSPost2010PropOp37
 70
     1
102
RTVSPost2010Prop38
140
0.0
102
RTVSPost2010PropOp38
 70
     1
102
RTVSPost2010Prop39
140
1.0
102
RTVSPost2010PropOp39
 70
     1
102
RTVSPost2010Prop40
 90
        0
102
RTVSPost2010PropOp40
 70
     1
102
RTVSPost2010Prop41ColorIndex
 90
       18
102
RTVSPost2010Prop41ColorRGB
 90
        0
102
RTVSPost2010PropOp41
 70
     1
102
RTVSPost2010Prop42
 90
       50
102
RTVSPost2010PropOp42
 70
     1
102
RTVSPost2010Prop43
 90
        3
102
RTVSPost2010PropOp43
 70
     1
102
RTVSPost2010Prop44ColorIndex
 90
        5
102
RTVSPost2010Prop44ColorRGB
 90
      255
102
RTVSPost2010PropOp44
 70
     1
102
RTVSPost2010Prop45
280
     0
102
RTVSPost2010PropOp45
 70
     1
102
RTVSPost2010Prop46
 90
       50
102
RTVSPost2010PropOp46
 70
     1
102
RTVSPost2010Prop47
 90
       50
102
RTVSPost2010PropOp47
 70
     1
102
RTVSPost2010Prop48
 90
       50
102
RTVSPost2010PropOp48
 70
     1
102
RTVSPost2010Prop49
280
     0
102
RTVSPost2010PropOp49
 70
     1
102
RTVSPost2010Prop50
 90
       50
102
RTVSPost2010PropOp50
 70
     1
102
RTVSPost2010Prop51ColorIndex
 90
      256
102
RTVSPost2010Prop51ColorRGB
 90
-16777216
102
RTVSPost2010PropOp51
 70
     0
102
RTVSPost2010Prop52
140
1.0
102
RTVSPost2010PropOp52
 70
     0
102
RTVSPost2010Prop53
 90
        2
102
RTVSPost2010PropOp53
 70
     1
102
RTVSPost2010Prop54
  1
strokes_ogs.tif
102
RTVSPost2010PropOp54
 70
     1
102
RTVSPost2010Prop55
280
     0
102
RTVSPost2010PropOp55
 70
     1
102
RTVSPost2010Prop56
140
1.0
102
RTVSPost2010PropOp56
 70
     1
102
RTVSPost2010Prop57
140
1.0
102
RTVSPost2010PropOp57
 70
     1
  0
XRECORD
  5
376
102
{ACAD_REACTORS
330
375
102
}
330
375
100
AcDbXrecord
280
     1
102
RTVSPropertyOp0
 70
     1
102
RTVSPropertyOp1
 70
     1
102
RTVSPropertyOp2
 70
     1
102
RTVSPropertyOp3
 70
     1
102
RTVSPropertyOp4
 70
     1
102
RTVSPropertyOp5
 70
     1
102
RTVSPropertyOp6
 70
     1
102
RTVSPropertyOp7
 70
     1
102
RTVSPropertyOp8
 70
     1
102
RTVSPropertyOp9
 70
     1
102
RTVSPropertyOp10
 70
     1
102
RTVSPropertyOp11
 70
     1
102
RTVSPropertyOp12
 70
     1
102
RTVSPropertyOp13
 70
     1
102
RTVSPropertyOp14
 70
     1
102
RTVSPropertyOp15
 70
     1
102
RTVSPropertyOp16
 70
     1
102
RTVSPropertyOp17
 70
     1
102
RTVSPropertyOp18
 70
     1
102
RTVSPropertyOp19
 70
     1
102
RTVSPropertyOp20
 70
     1
102
RTVSPropertyOp21
 70
     1
102
RTVSPropertyOp22
 70
     1
102
RTVSPropertyOp23
 70
     1
102
RTVSPropertyOp24
 70
     1
102
RTVSPropertyOp25
 70
     1
102
RTVSPropertyOp26
 70
     1
102
RTVSPropertyOp27
 70
     1
102
RTVSPropertyOp28
 70
     1
102
RTVSPropertyOp29
 70
     1
102
RTVSPropertyOp30
 70
     1
102
RTVSPropertyOp31
 70
     1
102
RTVSPropertyOp32
 70
     1
102
RTVSPropertyOp33
 70
     1
102
RTVSPropertyOp34
 70
     1
102
RTVSPropertyOp35
 70
     1
102
RTVSPropertyOp36
 70
     1
102
RTVSPropertyOp37
 70
     1
102
RTVSPropertyOp38
 70
     1
102
RTVSPropertyOp39
 70
     1
102
RTVSPropertyOp40
 70
     1
102
RTVSPropertyOp41
 70
     1
102
RTVSPropertyOp42
 70
     1
102
RTVSPropertyOp43
 70
     1
102
RTVSPropertyOp44
 70
     1
102
RTVSPropertyOp45
 70
     1
102
RTVSPropertyOp46
 70
     1
102
RTVSPropertyOp47
 70
     1
102
RTVSPropertyOp48
 70
     1
102
RTVSPropertyOp49
 70
     1
102
RTVSPropertyOp50
 70
     1
102
RTVSPropertyOp51
 70
     0
102
RTVSPropertyOp52
 70
     0
102
RTVSPropertyOp53
 70
     1
102
RTVSPropertyOp54
 70
     1
102
RTVSPropertyOp55
 70
     1
102
RTVSPropertyOp56
 70
     1
102
RTVSPropertyOp57
 70
     1
102
RTVSPost2010Prop28
280
     0
102
RTVSPost2010PropOp28
 70
     1
102
RTVSPost2010Prop29
280
     1
102
RTVSPost2010PropOp29
 70
     1
102
RTVSPost2010Prop30
280
     1
102
RTVSPost2010PropOp30
 70
     1
102
RTVSPost2010Prop31
280
     0
102
RTVSPost2010PropOp31
 70
     1
102
RTVSPost2010Prop32
280
     0
102
RTVSPost2010PropOp32
 70
     1
102
RTVSPost2010Prop33
280
     0
102
RTVSPost2010PropOp33
 70
     1
102
RTVSPost2010Prop34
280
     0
102
RTVSPost2010PropOp34
 70
     1
102
RTVSPost2010Prop35
280
     0
102
RTVSPost2010PropOp35
 70
     1
102
RTVSPost2010Prop36
280
     0
102
RTVSPost2010PropOp36
 70
     1
102
RTVSPost2010Prop37
 90
       50
102
RTVSPost2010PropOp37
 70
     1
102
RTVSPost2010Prop38
140
0.0
102
RTVSPost2010PropOp38
 70
     1
102
RTVSPost2010Prop39
140
1.0
102
RTVSPost2010PropOp39
 70
     1
102
RTVSPost2010Prop40
 90
        0
102
RTVSPost2010PropOp40
 70
     1
102
RTVSPost2010Prop41ColorIndex
 90
       18
102
RTVSPost2010Prop41ColorRGB
 90
        0
102
RTVSPost2010PropOp41
 70
     1
102
RTVSPost2010Prop42
 90
       50
102
RTVSPost2010PropOp42
 70
     1
102
RTVSPost2010Prop43
 90
        3
102
RTVSPost2010PropOp43
 70
     1
102
RTVSPost2010Prop44ColorIndex
 90
        5
102
RTVSPost2010Prop44ColorRGB
 90
      255
102
RTVSPost2010PropOp44
 70
     1
102
RTVSPost2010Prop45
280
     0
102
RTVSPost2010PropOp45
 70
     1
102
RTVSPost2010Prop46
 90
       50
102
RTVSPost2010PropOp46
 70
     1
102
RTVSPost2010Prop47
 90
       50
102
RTVSPost2010PropOp47
 70
     1
102
RTVSPost2010Prop48
 90
       50
102
RTVSPost2010PropOp48
 70
     1
102
RTVSPost2010Prop49
280
     0
102
RTVSPost2010PropOp49
 70
     1
102
RTVSPost2010Prop50
 90
       50
102
RTVSPost2010PropOp50
 70
     1
102
RTVSPost2010Prop51ColorIndex
 90
      256
102
RTVSPost2010Prop51ColorRGB
 90
-16777216
102
RTVSPost2010PropOp51
 70
     0
102
RTVSPost2010Prop52
140
1.0
102
RTVSPost2010PropOp52
 70
     0
102
RTVSPost2010Prop53
 90
        2
102
RTVSPost2010PropOp53
 70
     1
102
RTVSPost2010Prop54
  1
strokes_ogs.tif
102
RTVSPost2010PropOp54
 70
     1
102
RTVSPost2010Prop55
280
     0
102
RTVSPost2010PropOp55
 70
     1
102
RTVSPost2010Prop56
140
1.0
102
RTVSPost2010PropOp56
 70
     1
102
RTVSPost2010Prop57
140
1.0
102
RTVSPost2010PropOp57
 70
     1
  0
XRECORD
  5
374
102
{ACAD_REACTORS
330
373
102
}
330
373
100
AcDbXrecord
280
     1
102
RTVSPropertyOp0
 70
     1
102
RTVSPropertyOp1
 70
     1
102
RTVSPropertyOp2
 70
     1
102
RTVSPropertyOp3
 70
     1
102
RTVSPropertyOp4
 70
     1
102
RTVSPropertyOp5
 70
     1
102
RTVSPropertyOp6
 70
     1
102
RTVSPropertyOp7
 70
     1
102
RTVSPropertyOp8
 70
     1
102
RTVSPropertyOp9
 70
     1
102
RTVSPropertyOp10
 70
     1
102
RTVSPropertyOp11
 70
     1
102
RTVSPropertyOp12
 70
     1
102
RTVSPropertyOp13
 70
     1
102
RTVSPropertyOp14
 70
     1
102
RTVSPropertyOp15
 70
     1
102
RTVSPropertyOp16
 70
     1
102
RTVSPropertyOp17
 70
     1
102
RTVSPropertyOp18
 70
     1
102
RTVSPropertyOp19
 70
     1
102
RTVSPropertyOp20
 70
     1
102
RTVSPropertyOp21
 70
     1
102
RTVSPropertyOp22
 70
     1
102
RTVSPropertyOp23
 70
     1
102
RTVSPropertyOp24
 70
     1
102
RTVSPropertyOp25
 70
     1
102
RTVSPropertyOp26
 70
     1
102
RTVSPropertyOp27
 70
     1
102
RTVSPropertyOp28
 70
     1
102
RTVSPropertyOp29
 70
     1
102
RTVSPropertyOp30
 70
     1
102
RTVSPropertyOp31
 70
     1
102
RTVSPropertyOp32
 70
     1
102
RTVSPropertyOp33
 70
     1
102
RTVSPropertyOp34
 70
     1
102
RTVSPropertyOp35
 70
     1
102
RTVSPropertyOp36
 70
     1
102
RTVSPropertyOp37
 70
     1
102
RTVSPropertyOp38
 70
     1
102
RTVSPropertyOp39
 70
     1
102
RTVSPropertyOp40
 70
     1
102
RTVSPropertyOp41
 70
     1
102
RTVSPropertyOp42
 70
     1
102
RTVSPropertyOp43
 70
     1
102
RTVSPropertyOp44
 70
     1
102
RTVSPropertyOp45
 70
     1
102
RTVSPropertyOp46
 70
     1
102
RTVSPropertyOp47
 70
     1
102
RTVSPropertyOp48
 70
     1
102
RTVSPropertyOp49
 70
     1
102
RTVSPropertyOp50
 70
     1
102
RTVSPropertyOp51
 70
     0
102
RTVSPropertyOp52
 70
     0
102
RTVSPropertyOp53
 70
     1
102
RTVSPropertyOp54
 70
     1
102
RTVSPropertyOp55
 70
     1
102
RTVSPropertyOp56
 70
     1
102
RTVSPropertyOp57
 70
     1
102
RTVSPost2010Prop28
280
     0
102
RTVSPost2010PropOp28
 70
     1
102
RTVSPost2010Prop29
280
     1
102
RTVSPost2010PropOp29
 70
     1
102
RTVSPost2010Prop30
280
     1
102
RTVSPost2010PropOp30
 70
     1
102
RTVSPost2010Prop31
280
     0
102
RTVSPost2010PropOp31
 70
     1
102
RTVSPost2010Prop32
280
     0
102
RTVSPost2010PropOp32
 70
     1
102
RTVSPost2010Prop33
280
     0
102
RTVSPost2010PropOp33
 70
     1
102
RTVSPost2010Prop34
280
     0
102
RTVSPost2010PropOp34
 70
     1
102
RTVSPost2010Prop35
280
     0
102
RTVSPost2010PropOp35
 70
     1
102
RTVSPost2010Prop36
280
     0
102
RTVSPost2010PropOp36
 70
     1
102
RTVSPost2010Prop37
 90
       50
102
RTVSPost2010PropOp37
 70
     1
102
RTVSPost2010Prop38
140
0.0
102
RTVSPost2010PropOp38
 70
     1
102
RTVSPost2010Prop39
140
1.0
102
RTVSPost2010PropOp39
 70
     1
102
RTVSPost2010Prop40
 90
        0
102
RTVSPost2010PropOp40
 70
     1
102
RTVSPost2010Prop41ColorIndex
 90
       18
102
RTVSPost2010Prop41ColorRGB
 90
        0
102
RTVSPost2010PropOp41
 70
     1
102
RTVSPost2010Prop42
 90
       50
102
RTVSPost2010PropOp42
 70
     1
102
RTVSPost2010Prop43
 90
        3
102
RTVSPost2010PropOp43
 70
     1
102
RTVSPost2010Prop44ColorIndex
 90
        5
102
RTVSPost2010Prop44ColorRGB
 90
      255
102
RTVSPost2010PropOp44
 70
     1
102
RTVSPost2010Prop45
280
     0
102
RTVSPost2010PropOp45
 70
     1
102
RTVSPost2010Prop46
 90
       50
102
RTVSPost2010PropOp46
 70
     1
102
RTVSPost2010Prop47
 90
       50
102
RTVSPost2010PropOp47
 70
     1
102
RTVSPost2010Prop48
 90
       50
102
RTVSPost2010PropOp48
 70
     1
102
RTVSPost2010Prop49
280
     0
102
RTVSPost2010PropOp49
 70
     1
102
RTVSPost2010Prop50
 90
       50
102
RTVSPost2010PropOp50
 70
     1
102
RTVSPost2010Prop51ColorIndex
 90
      256
102
RTVSPost2010Prop51ColorRGB
 90
-16777216
102
RTVSPost2010PropOp51
 70
     0
102
RTVSPost2010Prop52
140
1.0
102
RTVSPost2010PropOp52
 70
     0
102
RTVSPost2010Prop53
 90
        2
102
RTVSPost2010PropOp53
 70
     1
102
RTVSPost2010Prop54
  1
strokes_ogs.tif
102
RTVSPost2010PropOp54
 70
     1
102
RTVSPost2010Prop55
280
     0
102
RTVSPost2010PropOp55
 70
     1
102
RTVSPost2010Prop56
140
1.0
102
RTVSPost2010PropOp56
 70
     1
102
RTVSPost2010Prop57
140
1.0
102
RTVSPost2010PropOp57
 70
     1
  0
XRECORD
  5
36E
102
{ACAD_REACTORS
330
36D
102
}
330
36D
100
AcDbXrecord
280
     1
102
RTVSPropertyOp0
 70
     1
102
RTVSPropertyOp1
 70
     1
102
RTVSPropertyOp2
 70
     1
102
RTVSPropertyOp3
 70
     1
102
RTVSPropertyOp4
 70
     1
102
RTVSPropertyOp5
 70
     1
102
RTVSPropertyOp6
 70
     1
102
RTVSPropertyOp7
 70
     1
102
RTVSPropertyOp8
 70
     1
102
RTVSPropertyOp9
 70
     1
102
RTVSPropertyOp10
 70
     1
102
RTVSPropertyOp11
 70
     1
102
RTVSPropertyOp12
 70
     1
102
RTVSPropertyOp13
 70
     1
102
RTVSPropertyOp14
 70
     1
102
RTVSPropertyOp15
 70
     1
102
RTVSPropertyOp16
 70
     1
102
RTVSPropertyOp17
 70
     1
102
RTVSPropertyOp18
 70
     1
102
RTVSPropertyOp19
 70
     1
102
RTVSPropertyOp20
 70
     1
102
RTVSPropertyOp21
 70
     1
102
RTVSPropertyOp22
 70
     1
102
RTVSPropertyOp23
 70
     1
102
RTVSPropertyOp24
 70
     1
102
RTVSPropertyOp25
 70
     1
102
RTVSPropertyOp26
 70
     1
102
RTVSPropertyOp27
 70
     1
102
RTVSPropertyOp28
 70
     1
102
RTVSPropertyOp29
 70
     1
102
RTVSPropertyOp30
 70
     1
102
RTVSPropertyOp31
 70
     1
102
RTVSPropertyOp32
 70
     1
102
RTVSPropertyOp33
 70
     1
102
RTVSPropertyOp34
 70
     1
102
RTVSPropertyOp35
 70
     1
102
RTVSPropertyOp36
 70
     1
102
RTVSPropertyOp37
 70
     1
102
RTVSPropertyOp38
 70
     1
102
RTVSPropertyOp39
 70
     1
102
RTVSPropertyOp40
 70
     1
102
RTVSPropertyOp41
 70
     1
102
RTVSPropertyOp42
 70
     1
102
RTVSPropertyOp43
 70
     1
102
RTVSPropertyOp44
 70
     1
102
RTVSPropertyOp45
 70
     1
102
RTVSPropertyOp46
 70
     1
102
RTVSPropertyOp47
 70
     1
102
RTVSPropertyOp48
 70
     1
102
RTVSPropertyOp49
 70
     1
102
RTVSPropertyOp50
 70
     1
102
RTVSPropertyOp51
 70
     0
102
RTVSPropertyOp52
 70
     0
102
RTVSPropertyOp53
 70
     1
102
RTVSPropertyOp54
 70
     1
102
RTVSPropertyOp55
 70
     1
102
RTVSPropertyOp56
 70
     1
102
RTVSPropertyOp57
 70
     1
102
RTVSPost2010Prop28
280
     0
102
RTVSPost2010PropOp28
 70
     1
102
RTVSPost2010Prop29
280
     1
102
RTVSPost2010PropOp29
 70
     1
102
RTVSPost2010Prop30
280
     1
102
RTVSPost2010PropOp30
 70
     1
102
RTVSPost2010Prop31
280
     0
102
RTVSPost2010PropOp31
 70
     1
102
RTVSPost2010Prop32
280
     0
102
RTVSPost2010PropOp32
 70
     1
102
RTVSPost2010Prop33
280
     0
102
RTVSPost2010PropOp33
 70
     1
102
RTVSPost2010Prop34
280
     0
102
RTVSPost2010PropOp34
 70
     1
102
RTVSPost2010Prop35
280
     0
102
RTVSPost2010PropOp35
 70
     1
102
RTVSPost2010Prop36
280
     0
102
RTVSPost2010PropOp36
 70
     1
102
RTVSPost2010Prop37
 90
       50
102
RTVSPost2010PropOp37
 70
     1
102
RTVSPost2010Prop38
140
0.0
102
RTVSPost2010PropOp38
 70
     1
102
RTVSPost2010Prop39
140
1.0
102
RTVSPost2010PropOp39
 70
     1
102
RTVSPost2010Prop40
 90
        0
102
RTVSPost2010PropOp40
 70
     1
102
RTVSPost2010Prop41ColorIndex
 90
       18
102
RTVSPost2010Prop41ColorRGB
 90
        0
102
RTVSPost2010PropOp41
 70
     1
102
RTVSPost2010Prop42
 90
       50
102
RTVSPost2010PropOp42
 70
     1
102
RTVSPost2010Prop43
 90
        3
102
RTVSPost2010PropOp43
 70
     1
102
RTVSPost2010Prop44ColorIndex
 90
        5
102
RTVSPost2010Prop44ColorRGB
 90
      255
102
RTVSPost2010PropOp44
 70
     1
102
RTVSPost2010Prop45
280
     0
102
RTVSPost2010PropOp45
 70
     1
102
RTVSPost2010Prop46
 90
       50
102
RTVSPost2010PropOp46
 70
     1
102
RTVSPost2010Prop47
 90
       50
102
RTVSPost2010PropOp47
 70
     1
102
RTVSPost2010Prop48
 90
       50
102
RTVSPost2010PropOp48
 70
     1
102
RTVSPost2010Prop49
280
     0
102
RTVSPost2010PropOp49
 70
     1
102
RTVSPost2010Prop50
 90
       50
102
RTVSPost2010PropOp50
 70
     1
102
RTVSPost2010Prop51ColorIndex
 90
      256
102
RTVSPost2010Prop51ColorRGB
 90
-16777216
102
RTVSPost2010PropOp51
 70
     0
102
RTVSPost2010Prop52
140
1.0
102
RTVSPost2010PropOp52
 70
     0
102
RTVSPost2010Prop53
 90
        2
102
RTVSPost2010PropOp53
 70
     1
102
RTVSPost2010Prop54
  1
strokes_ogs.tif
102
RTVSPost2010PropOp54
 70
     1
102
RTVSPost2010Prop55
280
     0
102
RTVSPost2010PropOp55
 70
     1
102
RTVSPost2010Prop56
140
1.0
102
RTVSPost2010PropOp56
 70
     1
102
RTVSPost2010Prop57
140
1.0
102
RTVSPost2010PropOp57
 70
     1
  0
XRECORD
  5
370
102
{ACAD_REACTORS
330
36F
102
}
330
36F
100
AcDbXrecord
280
     1
102
RTVSPropertyOp0
 70
     1
102
RTVSPropertyOp1
 70
     1
102
RTVSPropertyOp2
 70
     1
102
RTVSPropertyOp3
 70
     1
102
RTVSPropertyOp4
 70
     1
102
RTVSPropertyOp5
 70
     1
102
RTVSPropertyOp6
 70
     1
102
RTVSPropertyOp7
 70
     1
102
RTVSPropertyOp8
 70
     1
102
RTVSPropertyOp9
 70
     1
102
RTVSPropertyOp10
 70
     1
102
RTVSPropertyOp11
 70
     1
102
RTVSPropertyOp12
 70
     1
102
RTVSPropertyOp13
 70
     1
102
RTVSPropertyOp14
 70
     1
102
RTVSPropertyOp15
 70
     1
102
RTVSPropertyOp16
 70
     1
102
RTVSPropertyOp17
 70
     1
102
RTVSPropertyOp18
 70
     1
102
RTVSPropertyOp19
 70
     1
102
RTVSPropertyOp20
 70
     1
102
RTVSPropertyOp21
 70
     1
102
RTVSPropertyOp22
 70
     1
102
RTVSPropertyOp23
 70
     1
102
RTVSPropertyOp24
 70
     1
102
RTVSPropertyOp25
 70
     1
102
RTVSPropertyOp26
 70
     1
102
RTVSPropertyOp27
 70
     1
102
RTVSPropertyOp28
 70
     1
102
RTVSPropertyOp29
 70
     1
102
RTVSPropertyOp30
 70
     1
102
RTVSPropertyOp31
 70
     1
102
RTVSPropertyOp32
 70
     1
102
RTVSPropertyOp33
 70
     1
102
RTVSPropertyOp34
 70
     1
102
RTVSPropertyOp35
 70
     1
102
RTVSPropertyOp36
 70
     1
102
RTVSPropertyOp37
 70
     1
102
RTVSPropertyOp38
 70
     1
102
RTVSPropertyOp39
 70
     1
102
RTVSPropertyOp40
 70
     1
102
RTVSPropertyOp41
 70
     1
102
RTVSPropertyOp42
 70
     1
102
RTVSPropertyOp43
 70
     1
102
RTVSPropertyOp44
 70
     1
102
RTVSPropertyOp45
 70
     1
102
RTVSPropertyOp46
 70
     1
102
RTVSPropertyOp47
 70
     1
102
RTVSPropertyOp48
 70
     1
102
RTVSPropertyOp49
 70
     1
102
RTVSPropertyOp50
 70
     1
102
RTVSPropertyOp51
 70
     0
102
RTVSPropertyOp52
 70
     0
102
RTVSPropertyOp53
 70
     1
102
RTVSPropertyOp54
 70
     1
102
RTVSPropertyOp55
 70
     1
102
RTVSPropertyOp56
 70
     1
102
RTVSPropertyOp57
 70
     1
102
RTVSPost2010Prop28
280
     0
102
RTVSPost2010PropOp28
 70
     1
102
RTVSPost2010Prop29
280
     1
102
RTVSPost2010PropOp29
 70
     1
102
RTVSPost2010Prop30
280
     1
102
RTVSPost2010PropOp30
 70
     1
102
RTVSPost2010Prop31
280
     0
102
RTVSPost2010PropOp31
 70
     1
102
RTVSPost2010Prop32
280
     0
102
RTVSPost2010PropOp32
 70
     1
102
RTVSPost2010Prop33
280
     0
102
RTVSPost2010PropOp33
 70
     1
102
RTVSPost2010Prop34
280
     0
102
RTVSPost2010PropOp34
 70
     1
102
RTVSPost2010Prop35
280
     0
102
RTVSPost2010PropOp35
 70
     1
102
RTVSPost2010Prop36
280
     0
102
RTVSPost2010PropOp36
 70
     1
102
RTVSPost2010Prop37
 90
       50
102
RTVSPost2010PropOp37
 70
     1
102
RTVSPost2010Prop38
140
0.0
102
RTVSPost2010PropOp38
 70
     1
102
RTVSPost2010Prop39
140
1.0
102
RTVSPost2010PropOp39
 70
     1
102
RTVSPost2010Prop40
 90
        0
102
RTVSPost2010PropOp40
 70
     1
102
RTVSPost2010Prop41ColorIndex
 90
       18
102
RTVSPost2010Prop41ColorRGB
 90
        0
102
RTVSPost2010PropOp41
 70
     1
102
RTVSPost2010Prop42
 90
       50
102
RTVSPost2010PropOp42
 70
     1
102
RTVSPost2010Prop43
 90
        3
102
RTVSPost2010PropOp43
 70
     1
102
RTVSPost2010Prop44ColorIndex
 90
        5
102
RTVSPost2010Prop44ColorRGB
 90
      255
102
RTVSPost2010PropOp44
 70
     1
102
RTVSPost2010Prop45
280
     0
102
RTVSPost2010PropOp45
 70
     1
102
RTVSPost2010Prop46
 90
       50
102
RTVSPost2010PropOp46
 70
     1
102
RTVSPost2010Prop47
 90
       50
102
RTVSPost2010PropOp47
 70
     1
102
RTVSPost2010Prop48
 90
       50
102
RTVSPost2010PropOp48
 70
     1
102
RTVSPost2010Prop49
280
     0
102
RTVSPost2010PropOp49
 70
     1
102
RTVSPost2010Prop50
 90
       50
102
RTVSPost2010PropOp50
 70
     1
102
RTVSPost2010Prop51ColorIndex
 90
      256
102
RTVSPost2010Prop51ColorRGB
 90
-16777216
102
RTVSPost2010PropOp51
 70
     0
102
RTVSPost2010Prop52
140
1.0
102
RTVSPost2010PropOp52
 70
     0
102
RTVSPost2010Prop53
 90
        2
102
RTVSPost2010PropOp53
 70
     1
102
RTVSPost2010Prop54
  1
strokes_ogs.tif
102
RTVSPost2010PropOp54
 70
     1
102
RTVSPost2010Prop55
280
     0
102
RTVSPost2010PropOp55
 70
     1
102
RTVSPost2010Prop56
140
1.0
102
RTVSPost2010PropOp56
 70
     1
102
RTVSPost2010Prop57
140
1.0
102
RTVSPost2010PropOp57
 70
     1
  0
XRECORD
  5
360
102
{ACAD_REACTORS
330
35F
102
}
330
35F
100
AcDbXrecord
280
     1
102
RTVSPropertyOp0
 70
     1
102
RTVSPropertyOp1
 70
     1
102
RTVSPropertyOp2
 70
     1
102
RTVSPropertyOp3
 70
     1
102
RTVSPropertyOp4
 70
     1
102
RTVSPropertyOp5
 70
     1
102
RTVSPropertyOp6
 70
     1
102
RTVSPropertyOp7
 70
     1
102
RTVSPropertyOp8
 70
     1
102
RTVSPropertyOp9
 70
     1
102
RTVSPropertyOp10
 70
     1
102
RTVSPropertyOp11
 70
     1
102
RTVSPropertyOp12
 70
     1
102
RTVSPropertyOp13
 70
     1
102
RTVSPropertyOp14
 70
     1
102
RTVSPropertyOp15
 70
     1
102
RTVSPropertyOp16
 70
     1
102
RTVSPropertyOp17
 70
     1
102
RTVSPropertyOp18
 70
     1
102
RTVSPropertyOp19
 70
     1
102
RTVSPropertyOp20
 70
     1
102
RTVSPropertyOp21
 70
     1
102
RTVSPropertyOp22
 70
     1
102
RTVSPropertyOp23
 70
     1
102
RTVSPropertyOp24
 70
     1
102
RTVSPropertyOp25
 70
     1
102
RTVSPropertyOp26
 70
     1
102
RTVSPropertyOp27
 70
     1
102
RTVSPropertyOp28
 70
     1
102
RTVSPropertyOp29
 70
     1
102
RTVSPropertyOp30
 70
     1
102
RTVSPropertyOp31
 70
     1
102
RTVSPropertyOp32
 70
     1
102
RTVSPropertyOp33
 70
     1
102
RTVSPropertyOp34
 70
     1
102
RTVSPropertyOp35
 70
     1
102
RTVSPropertyOp36
 70
     1
102
RTVSPropertyOp37
 70
     1
102
RTVSPropertyOp38
 70
     1
102
RTVSPropertyOp39
 70
     1
102
RTVSPropertyOp40
 70
     1
102
RTVSPropertyOp41
 70
     1
102
RTVSPropertyOp42
 70
     1
102
RTVSPropertyOp43
 70
     1
102
RTVSPropertyOp44
 70
     1
102
RTVSPropertyOp45
 70
     1
102
RTVSPropertyOp46
 70
     1
102
RTVSPropertyOp47
 70
     1
102
RTVSPropertyOp48
 70
     1
102
RTVSPropertyOp49
 70
     1
102
RTVSPropertyOp50
 70
     1
102
RTVSPropertyOp51
 70
     0
102
RTVSPropertyOp52
 70
     0
102
RTVSPropertyOp53
 70
     1
102
RTVSPropertyOp54
 70
     1
102
RTVSPropertyOp55
 70
     1
102
RTVSPropertyOp56
 70
     1
102
RTVSPropertyOp57
 70
     1
102
RTVSPost2010Prop28
280
     0
102
RTVSPost2010PropOp28
 70
     1
102
RTVSPost2010Prop29
280
     1
102
RTVSPost2010PropOp29
 70
     1
102
RTVSPost2010Prop30
280
     1
102
RTVSPost2010PropOp30
 70
     1
102
RTVSPost2010Prop31
280
     0
102
RTVSPost2010PropOp31
 70
     1
102
RTVSPost2010Prop32
280
     0
102
RTVSPost2010PropOp32
 70
     1
102
RTVSPost2010Prop33
280
     0
102
RTVSPost2010PropOp33
 70
     1
102
RTVSPost2010Prop34
280
     0
102
RTVSPost2010PropOp34
 70
     1
102
RTVSPost2010Prop35
280
     0
102
RTVSPost2010PropOp35
 70
     1
102
RTVSPost2010Prop36
280
     0
102
RTVSPost2010PropOp36
 70
     1
102
RTVSPost2010Prop37
 90
       50
102
RTVSPost2010PropOp37
 70
     1
102
RTVSPost2010Prop38
140
0.0
102
RTVSPost2010PropOp38
 70
     1
102
RTVSPost2010Prop39
140
1.0
102
RTVSPost2010PropOp39
 70
     1
102
RTVSPost2010Prop40
 90
        0
102
RTVSPost2010PropOp40
 70
     1
102
RTVSPost2010Prop41ColorIndex
 90
       18
102
RTVSPost2010Prop41ColorRGB
 90
        0
102
RTVSPost2010PropOp41
 70
     1
102
RTVSPost2010Prop42
 90
       50
102
RTVSPost2010PropOp42
 70
     1
102
RTVSPost2010Prop43
 90
        3
102
RTVSPost2010PropOp43
 70
     1
102
RTVSPost2010Prop44ColorIndex
 90
        5
102
RTVSPost2010Prop44ColorRGB
 90
      255
102
RTVSPost2010PropOp44
 70
     1
102
RTVSPost2010Prop45
280
     0
102
RTVSPost2010PropOp45
 70
     1
102
RTVSPost2010Prop46
 90
       50
102
RTVSPost2010PropOp46
 70
     1
102
RTVSPost2010Prop47
 90
       50
102
RTVSPost2010PropOp47
 70
     1
102
RTVSPost2010Prop48
 90
       50
102
RTVSPost2010PropOp48
 70
     1
102
RTVSPost2010Prop49
280
     0
102
RTVSPost2010PropOp49
 70
     1
102
RTVSPost2010Prop50
 90
       50
102
RTVSPost2010PropOp50
 70
     1
102
RTVSPost2010Prop51ColorIndex
 90
      256
102
RTVSPost2010Prop51ColorRGB
 90
-16777216
102
RTVSPost2010PropOp51
 70
     0
102
RTVSPost2010Prop52
140
1.0
102
RTVSPost2010PropOp52
 70
     0
102
RTVSPost2010Prop53
 90
        2
102
RTVSPost2010PropOp53
 70
     1
102
RTVSPost2010Prop54
  1
strokes_ogs.tif
102
RTVSPost2010PropOp54
 70
     1
102
RTVSPost2010Prop55
280
     0
102
RTVSPost2010PropOp55
 70
     1
102
RTVSPost2010Prop56
140
1.0
102
RTVSPost2010PropOp56
 70
     1
102
RTVSPost2010Prop57
140
1.0
102
RTVSPost2010PropOp57
 70
     1
  0
XRECORD
  5
352
102
{ACAD_REACTORS
330
351
102
}
330
351
100
AcDbXrecord
280
     1
102
RTVSPropertyOp0
 70
     1
102
RTVSPropertyOp1
 70
     1
102
RTVSPropertyOp2
 70
     1
102
RTVSPropertyOp3
 70
     1
102
RTVSPropertyOp4
 70
     1
102
RTVSPropertyOp5
 70
     1
102
RTVSPropertyOp6
 70
     1
102
RTVSPropertyOp7
 70
     1
102
RTVSPropertyOp8
 70
     1
102
RTVSPropertyOp9
 70
     1
102
RTVSPropertyOp10
 70
     1
102
RTVSPropertyOp11
 70
     1
102
RTVSPropertyOp12
 70
     1
102
RTVSPropertyOp13
 70
     1
102
RTVSPropertyOp14
 70
     1
102
RTVSPropertyOp15
 70
     1
102
RTVSPropertyOp16
 70
     1
102
RTVSPropertyOp17
 70
     1
102
RTVSPropertyOp18
 70
     1
102
RTVSPropertyOp19
 70
     1
102
RTVSPropertyOp20
 70
     1
102
RTVSPropertyOp21
 70
     1
102
RTVSPropertyOp22
 70
     1
102
RTVSPropertyOp23
 70
     1
102
RTVSPropertyOp24
 70
     1
102
RTVSPropertyOp25
 70
     1
102
RTVSPropertyOp26
 70
     1
102
RTVSPropertyOp27
 70
     1
102
RTVSPropertyOp28
 70
     1
102
RTVSPropertyOp29
 70
     1
102
RTVSPropertyOp30
 70
     1
102
RTVSPropertyOp31
 70
     1
102
RTVSPropertyOp32
 70
     1
102
RTVSPropertyOp33
 70
     1
102
RTVSPropertyOp34
 70
     1
102
RTVSPropertyOp35
 70
     1
102
RTVSPropertyOp36
 70
     1
102
RTVSPropertyOp37
 70
     1
102
RTVSPropertyOp38
 70
     1
102
RTVSPropertyOp39
 70
     1
102
RTVSPropertyOp40
 70
     1
102
RTVSPropertyOp41
 70
     1
102
RTVSPropertyOp42
 70
     1
102
RTVSPropertyOp43
 70
     1
102
RTVSPropertyOp44
 70
     1
102
RTVSPropertyOp45
 70
     1
102
RTVSPropertyOp46
 70
     1
102
RTVSPropertyOp47
 70
     1
102
RTVSPropertyOp48
 70
     1
102
RTVSPropertyOp49
 70
     1
102
RTVSPropertyOp50
 70
     1
102
RTVSPropertyOp51
 70
     0
102
RTVSPropertyOp52
 70
     0
102
RTVSPropertyOp53
 70
     1
102
RTVSPropertyOp54
 70
     1
102
RTVSPropertyOp55
 70
     1
102
RTVSPropertyOp56
 70
     1
102
RTVSPropertyOp57
 70
     1
102
RTVSPost2010Prop28
280
     0
102
RTVSPost2010PropOp28
 70
     1
102
RTVSPost2010Prop29
280
     1
102
RTVSPost2010PropOp29
 70
     1
102
RTVSPost2010Prop30
280
     1
102
RTVSPost2010PropOp30
 70
     1
102
RTVSPost2010Prop31
280
     0
102
RTVSPost2010PropOp31
 70
     1
102
RTVSPost2010Prop32
280
     0
102
RTVSPost2010PropOp32
 70
     1
102
RTVSPost2010Prop33
280
     0
102
RTVSPost2010PropOp33
 70
     1
102
RTVSPost2010Prop34
280
     0
102
RTVSPost2010PropOp34
 70
     1
102
RTVSPost2010Prop35
280
     0
102
RTVSPost2010PropOp35
 70
     1
102
RTVSPost2010Prop36
280
     0
102
RTVSPost2010PropOp36
 70
     1
102
RTVSPost2010Prop37
 90
       50
102
RTVSPost2010PropOp37
 70
     1
102
RTVSPost2010Prop38
140
0.0
102
RTVSPost2010PropOp38
 70
     1
102
RTVSPost2010Prop39
140
1.0
102
RTVSPost2010PropOp39
 70
     1
102
RTVSPost2010Prop40
 90
        0
102
RTVSPost2010PropOp40
 70
     1
102
RTVSPost2010Prop41ColorIndex
 90
       18
102
RTVSPost2010Prop41ColorRGB
 90
        0
102
RTVSPost2010PropOp41
 70
     1
102
RTVSPost2010Prop42
 90
       50
102
RTVSPost2010PropOp42
 70
     1
102
RTVSPost2010Prop43
 90
        3
102
RTVSPost2010PropOp43
 70
     1
102
RTVSPost2010Prop44ColorIndex
 90
        5
102
RTVSPost2010Prop44ColorRGB
 90
      255
102
RTVSPost2010PropOp44
 70
     1
102
RTVSPost2010Prop45
280
     0
102
RTVSPost2010PropOp45
 70
     1
102
RTVSPost2010Prop46
 90
       50
102
RTVSPost2010PropOp46
 70
     1
102
RTVSPost2010Prop47
 90
       50
102
RTVSPost2010PropOp47
 70
     1
102
RTVSPost2010Prop48
 90
       50
102
RTVSPost2010PropOp48
 70
     1
102
RTVSPost2010Prop49
280
     0
102
RTVSPost2010PropOp49
 70
     1
102
RTVSPost2010Prop50
 90
       50
102
RTVSPost2010PropOp50
 70
     1
102
RTVSPost2010Prop51ColorIndex
 90
      256
102
RTVSPost2010Prop51ColorRGB
 90
-16777216
102
RTVSPost2010PropOp51
 70
     0
102
RTVSPost2010Prop52
140
1.0
102
RTVSPost2010PropOp52
 70
     0
102
RTVSPost2010Prop53
 90
        2
102
RTVSPost2010PropOp53
 70
     1
102
RTVSPost2010Prop54
  1
strokes_ogs.tif
102
RTVSPost2010PropOp54
 70
     1
102
RTVSPost2010Prop55
280
     0
102
RTVSPost2010PropOp55
 70
     1
102
RTVSPost2010Prop56
140
1.0
102
RTVSPost2010PropOp56
 70
     1
102
RTVSPost2010Prop57
140
1.0
102
RTVSPost2010PropOp57
 70
     1
  0
XRECORD
  5
372
102
{ACAD_REACTORS
330
371
102
}
330
371
100
AcDbXrecord
280
     1
102
RTVSPropertyOp0
 70
     1
102
RTVSPropertyOp1
 70
     1
102
RTVSPropertyOp2
 70
     1
102
RTVSPropertyOp3
 70
     1
102
RTVSPropertyOp4
 70
     1
102
RTVSPropertyOp5
 70
     1
102
RTVSPropertyOp6
 70
     1
102
RTVSPropertyOp7
 70
     1
102
RTVSPropertyOp8
 70
     1
102
RTVSPropertyOp9
 70
     1
102
RTVSPropertyOp10
 70
     1
102
RTVSPropertyOp11
 70
     1
102
RTVSPropertyOp12
 70
     1
102
RTVSPropertyOp13
 70
     1
102
RTVSPropertyOp14
 70
     1
102
RTVSPropertyOp15
 70
     1
102
RTVSPropertyOp16
 70
     1
102
RTVSPropertyOp17
 70
     1
102
RTVSPropertyOp18
 70
     1
102
RTVSPropertyOp19
 70
     1
102
RTVSPropertyOp20
 70
     1
102
RTVSPropertyOp21
 70
     1
102
RTVSPropertyOp22
 70
     1
102
RTVSPropertyOp23
 70
     1
102
RTVSPropertyOp24
 70
     1
102
RTVSPropertyOp25
 70
     1
102
RTVSPropertyOp26
 70
     1
102
RTVSPropertyOp27
 70
     1
102
RTVSPropertyOp28
 70
     1
102
RTVSPropertyOp29
 70
     1
102
RTVSPropertyOp30
 70
     1
102
RTVSPropertyOp31
 70
     1
102
RTVSPropertyOp32
 70
     1
102
RTVSPropertyOp33
 70
     1
102
RTVSPropertyOp34
 70
     1
102
RTVSPropertyOp35
 70
     1
102
RTVSPropertyOp36
 70
     1
102
RTVSPropertyOp37
 70
     1
102
RTVSPropertyOp38
 70
     1
102
RTVSPropertyOp39
 70
     1
102
RTVSPropertyOp40
 70
     1
102
RTVSPropertyOp41
 70
     1
102
RTVSPropertyOp42
 70
     1
102
RTVSPropertyOp43
 70
     1
102
RTVSPropertyOp44
 70
     1
102
RTVSPropertyOp45
 70
     1
102
RTVSPropertyOp46
 70
     1
102
RTVSPropertyOp47
 70
     1
102
RTVSPropertyOp48
 70
     1
102
RTVSPropertyOp49
 70
     1
102
RTVSPropertyOp50
 70
     1
102
RTVSPropertyOp51
 70
     0
102
RTVSPropertyOp52
 70
     0
102
RTVSPropertyOp53
 70
     1
102
RTVSPropertyOp54
 70
     1
102
RTVSPropertyOp55
 70
     1
102
RTVSPropertyOp56
 70
     1
102
RTVSPropertyOp57
 70
     1
102
RTVSPost2010Prop28
280
     0
102
RTVSPost2010PropOp28
 70
     1
102
RTVSPost2010Prop29
280
     1
102
RTVSPost2010PropOp29
 70
     1
102
RTVSPost2010Prop30
280
     1
102
RTVSPost2010PropOp30
 70
     1
102
RTVSPost2010Prop31
280
     0
102
RTVSPost2010PropOp31
 70
     1
102
RTVSPost2010Prop32
280
     0
102
RTVSPost2010PropOp32
 70
     1
102
RTVSPost2010Prop33
280
     0
102
RTVSPost2010PropOp33
 70
     1
102
RTVSPost2010Prop34
280
     0
102
RTVSPost2010PropOp34
 70
     1
102
RTVSPost2010Prop35
280
     0
102
RTVSPost2010PropOp35
 70
     1
102
RTVSPost2010Prop36
280
     0
102
RTVSPost2010PropOp36
 70
     1
102
RTVSPost2010Prop37
 90
       50
102
RTVSPost2010PropOp37
 70
     1
102
RTVSPost2010Prop38
140
0.0
102
RTVSPost2010PropOp38
 70
     1
102
RTVSPost2010Prop39
140
1.0
102
RTVSPost2010PropOp39
 70
     1
102
RTVSPost2010Prop40
 90
        0
102
RTVSPost2010PropOp40
 70
     1
102
RTVSPost2010Prop41ColorIndex
 90
       18
102
RTVSPost2010Prop41ColorRGB
 90
        0
102
RTVSPost2010PropOp41
 70
     1
102
RTVSPost2010Prop42
 90
       50
102
RTVSPost2010PropOp42
 70
     1
102
RTVSPost2010Prop43
 90
        3
102
RTVSPost2010PropOp43
 70
     1
102
RTVSPost2010Prop44ColorIndex
 90
        5
102
RTVSPost2010Prop44ColorRGB
 90
      255
102
RTVSPost2010PropOp44
 70
     1
102
RTVSPost2010Prop45
280
     0
102
RTVSPost2010PropOp45
 70
     1
102
RTVSPost2010Prop46
 90
       50
102
RTVSPost2010PropOp46
 70
     1
102
RTVSPost2010Prop47
 90
       50
102
RTVSPost2010PropOp47
 70
     1
102
RTVSPost2010Prop48
 90
       50
102
RTVSPost2010PropOp48
 70
     1
102
RTVSPost2010Prop49
280
     0
102
RTVSPost2010PropOp49
 70
     1
102
RTVSPost2010Prop50
 90
       50
102
RTVSPost2010PropOp50
 70
     1
102
RTVSPost2010Prop51ColorIndex
 90
      256
102
RTVSPost2010Prop51ColorRGB
 90
-16777216
102
RTVSPost2010PropOp51
 70
     0
102
RTVSPost2010Prop52
140
1.0
102
RTVSPost2010PropOp52
 70
     0
102
RTVSPost2010Prop53
 90
        2
102
RTVSPost2010PropOp53
 70
     1
102
RTVSPost2010Prop54
  1
strokes_ogs.tif
102
RTVSPost2010PropOp54
 70
     1
102
RTVSPost2010Prop55
280
     0
102
RTVSPost2010PropOp55
 70
     1
102
RTVSPost2010Prop56
140
1.0
102
RTVSPost2010PropOp56
 70
     1
102
RTVSPost2010Prop57
140
1.0
102
RTVSPost2010PropOp57
 70
     1
  0
ENDSEC
  0
EOF
