  0
SECTION
  2
HEADER
  9
$ACADVER
  1
AC1021
  9
$ACADMAINTVER
 70
    25
  9
$DWGCODEPAGE
  3
ANSI_1252
  9
$INSBASE
 10
0.0
 20
0.0
 30
0.0
  9
$EXTMIN
 10
0.0
 20
0.0
 30
0.0
  9
$EXTMAX
 10
215.9
 20
279.4
 30
0.0
  9
$LIMMIN
 10
0.0
 20
0.0
  9
$LIMMAX
 10
215.9
 20
279.4
  9
$ORTHOMODE
 70
     0
  9
$REGENMODE
 70
     1
  9
$FILLMODE
 70
     1
  9
$QTEXTMODE
 70
     0
  9
$MIRRTEXT
 70
     1
  9
$LTSCALE
 40
1.0
  9
$ATTMODE
 70
     1
  9
$TEXTSIZE
 40
2.5
  9
$TRACEWID
 40
1.0
  9
$TEXTSTYLE
  7
Standard
  9
$CLAYER
  8
0
  9
$CELTYPE
  6
ByLayer
  9
$CECOLOR
 62
   256
  9
$CELTSCALE
 40
1.0
  9
$DISPSILH
 70
     0
  9
$DIMSCALE
 40
1.0
  9
$DIMASZ
 40
2.5
  9
$DIMEXO
 40
0.625
  9
$DIMDLI
 40
3.75
  9
$DIMRND
 40
0.0
  9
$DIMDLE
 40
0.0
  9
$DIMEXE
 40
1.25
  9
$DIMTP
 40
0.0
  9
$DIMTM
 40
0.0
  9
$DIMTXT
 40
2.5
  9
$DIMCEN
 40
2.5
  9
$DIMTSZ
 40
0.0
  9
$DIMTOL
 70
     0
  9
$DIMLIM
 70
     0
  9
$DIMTIH
 70
     0
  9
$DIMTOH
 70
     0
  9
$DIMSE1
 70
     0
  9
$DIMSE2
 70
     0
  9
$DIMTAD
 70
     1
  9
$DIMZIN
 70
     8
  9
$DIMBLK
  1

  9
$DIMASO
 70
     1
  9
$DIMSHO
 70
     1
  9
$DIMPOST
  1

  9
$DIMAPOST
  1

  9
$DIMALT
 70
     0
  9
$DIMALTD
 70
     3
  9
$DIMALTF
 40
0.0393700787
  9
$DIMLFAC
 40
1.0
  9
$DIMTOFL
 70
     1
  9
$DIMTVP
 40
0.0
  9
$DIMTIX
 70
     0
  9
$DIMSOXD
 70
     0
  9
$DIMSAH
 70
     0
  9
$DIMBLK1
  1

  9
$DIMBLK2
  1

  9
$DIMSTYLE
  2
ISO-25
  9
$DIMCLRD
 70
     0
  9
$DIMCLRE
 70
     0
  9
$DIMCLRT
 70
     0
  9
$DIMTFAC
 40
1.0
  9
$DIMGAP
 40
0.625
  9
$DIMJUST
 70
     0
  9
$DIMSD1
 70
     0
  9
$DIMSD2
 70
     0
  9
$DIMTOLJ
 70
     0
  9
$DIMTZIN
 70
     8
  9
$DIMALTZ
 70
     0
  9
$DIMALTTZ
 70
     0
  9
$DIMUPT
 70
     0
  9
$DIMDEC
 70
     2
  9
$DIMTDEC
 70
     2
  9
$DIMALTU
 70
     2
  9
$DIMALTTD
 70
     3
  9
$DIMTXSTY
  7
Standard
  9
$DIMAUNIT
 70
     0
  9
$DIMADEC
 70
     0
  9
$DIMALTRND
 40
0.0
  9
$DIMAZIN
 70
     0
  9
$DIMDSEP
 70
    44
  9
$DIMATFIT
 70
     3
  9
$DIMFRAC
 70
     0
  9
$DIMLDRBLK
  1

  9
$DIMLUNIT
 70
     2
  9
$DIMLWD
 70
    -2
  9
$DIMLWE
 70
    -2
  9
$DIMTMOVE
 70
     0
  9
$DIMFXL
 40
1.0
  9
$DIMFXLON
 70
     0
  9
$DIMJOGANG
 40
0.7853981634
  9
$DIMTFILL
 70
     0
  9
$DIMTFILLCLR
 70
     0
  9
$DIMARCSYM
 70
     0
  9
$DIMLTYPE
  6

  9
$DIMLTEX1
  6

  9
$DIMLTEX2
  6

  9
$LUNITS
 70
     2
  9
$LUPREC
 70
     4
  9
$SKETCHINC
 40
1.0
  9
$FILLETRAD
 40
10.0
  9
$AUNITS
 70
     0
  9
$AUPREC
 70
     0
  9
$MENU
  1
.
  9
$ELEVATION
 40
0.0
  9
$PELEVATION
 40
0.0
  9
$THICKNESS
 40
0.0
  9
$LIMCHECK
 70
     0
  9
$CHAMFERA
 40
0.0
  9
$CHAMFERB
 40
0.0
  9
$CHAMFERC
 40
0.0
  9
$CHAMFERD
 40
0.0
  9
$SKPOLY
 70
     0
  9
$TDCREATE
 40
2457246.610295417
  9
$TDUCREATE
 40
2457246.526962083
  9
$TDUPDATE
 40
2457246.610297245
  9
$TDUUPDATE
 40
2457246.526963912
  9
$TDINDWG
 40
0.0000000116
  9
$TDUSRTIMER
 40
0.0000000116
  9
$USRTIMER
 70
     1
  9
$ANGBASE
 50
0.0
  9
$ANGDIR
 70
     0
  9
$PDMODE
 70
     0
  9
$PDSIZE
 40
0.0
  9
$PLINEWID
 40
0.0
  9
$SPLFRAME
 70
     0
  9
$SPLINETYPE
 70
     6
  9
$SPLINESEGS
 70
     8
  9
$HANDSEED
  5
248
  9
$SURFTAB1
 70
     6
  9
$SURFTAB2
 70
     6
  9
$SURFTYPE
 70
     6
  9
$SURFU
 70
     6
  9
$SURFV
 70
     6
  9
$UCSBASE
  2

  9
$UCSNAME
  2

  9
$UCSORG
 10
0.0
 20
0.0
 30
0.0
  9
$UCSXDIR
 10
1.0
 20
0.0
 30
0.0
  9
$UCSYDIR
 10
0.0
 20
1.0
 30
0.0
  9
$UCSORTHOREF
  2

  9
$UCSORTHOVIEW
 70
     0
  9
$UCSORGTOP
 10
0.0
 20
0.0
 30
0.0
  9
$UCSORGBOTTOM
 10
0.0
 20
0.0
 30
0.0
  9
$UCSORGLEFT
 10
0.0
 20
0.0
 30
0.0
  9
$UCSORGRIGHT
 10
0.0
 20
0.0
 30
0.0
  9
$UCSORGFRONT
 10
0.0
 20
0.0
 30
0.0
  9
$UCSORGBACK
 10
0.0
 20
0.0
 30
0.0
  9
$PUCSBASE
  2

  9
$PUCSNAME
  2

  9
$PUCSORG
 10
0.0
 20
0.0
 30
0.0
  9
$PUCSXDIR
 10
1.0
 20
0.0
 30
0.0
  9
$PUCSYDIR
 10
0.0
 20
1.0
 30
0.0
  9
$PUCSORTHOREF
  2

  9
$PUCSORTHOVIEW
 70
     0
  9
$PUCSORGTOP
 10
0.0
 20
0.0
 30
0.0
  9
$PUCSORGBOTTOM
 10
0.0
 20
0.0
 30
0.0
  9
$PUCSORGLEFT
 10
0.0
 20
0.0
 30
0.0
  9
$PUCSORGRIGHT
 10
0.0
 20
0.0
 30
0.0
  9
$PUCSORGFRONT
 10
0.0
 20
0.0
 30
0.0
  9
$PUCSORGBACK
 10
0.0
 20
0.0
 30
0.0
  9
$USERI1
 70
     0
  9
$USERI2
 70
     0
  9
$USERI3
 70
     0
  9
$USERI4
 70
     0
  9
$USERI5
 70
     0
  9
$USERR1
 40
0.0
  9
$USERR2
 40
0.0
  9
$USERR3
 40
0.0
  9
$USERR4
 40
0.0
  9
$USERR5
 40
0.0
  9
$WORLDVIEW
 70
     1
  9
$SHADEDGE
 70
     3
  9
$SHADEDIF
 70
    70
  9
$TILEMODE
 70
     1
  9
$MAXACTVP
 70
    64
  9
$PINSBASE
 10
0.0
 20
0.0
 30
0.0
  9
$PLIMCHECK
 70
     0
  9
$PEXTMIN
 10
0.0
 20
0.0
 30
0.0
  9
$PEXTMAX
 10
215.9
 20
279.4
 30
0.0
  9
$PLIMMIN
 10
0.0
 20
0.0
  9
$PLIMMAX
 10
215.9
 20
279.4
  9
$UNITMODE
 70
     0
  9
$VISRETAIN
 70
     1
  9
$PLINEGEN
 70
     0
  9
$PSLTSCALE
 70
     1
  9
$TREEDEPTH
 70
  3020
  9
$CMLSTYLE
  2
Standard
  9
$CMLJUST
 70
     0
  9
$CMLSCALE
 40
20.0
  9
$PROXYGRAPHICS
 70
     1
  9
$MEASUREMENT
 70
     1
  9
$CELWEIGHT
370
    -1
  9
$ENDCAPS
280
     0
  9
$JOINSTYLE
280
     0
  9
$LWDISPLAY
290
     0
  9
$INSUNITS
 70
     4
  9
$HYPERLINKBASE
  1

  9
$STYLESHEET
  1

  9
$XEDIT
290
     1
  9
$CEPSNTYPE
380
     0
  9
$PSTYLEMODE
290
     1
  9
$FINGERPRINTGUID
  2
{6EA186D5-2058-4B8C-AAC5-2EE3B0257BDB}
  9
$VERSIONGUID
  2
{FAEB1C32-E019-11D5-929B-00C0DF256EC4}
  9
$EXTNAMES
290
     1
  9
$PSVPSCALE
 40
0.0
  9
$OLESTARTUP
290
     0
  9
$SORTENTS
280
   127
  9
$INDEXCTL
280
     0
  9
$HIDETEXT
280
     1
  9
$XCLIPFRAME
290
     0
  9
$HALOGAP
280
     0
  9
$OBSCOLOR
 70
   257
  9
$OBSLTYPE
280
     0
  9
$INTERSECTIONDISPLAY
280
     0
  9
$INTERSECTIONCOLOR
 70
   257
  9
$DIMASSOC
280
     2
  9
$PROJECTNAME
  1

  9
$CAMERADISPLAY
290
     0
  9
$LENSLENGTH
 40
50.0
  9
$CAMERAHEIGHT
 40
0.0
  9
$STEPSPERSEC
 40
2.0
  9
$STEPSIZE
 40
6.0
  9
$3DDWFPREC
 40
2.0
  9
$PSOLWIDTH
 40
5.0
  9
$PSOLHEIGHT
 40
80.0
  9
$LOFTANG1
 40
1.5707963268
  9
$LOFTANG2
 40
1.5707963268
  9
$LOFTMAG1
 40
0.0
  9
$LOFTMAG2
 40
0.0
  9
$LOFTPARAM
 70
     7
  9
$LOFTNORMALS
280
     1
  9
$LATITUDE
 40
37.795
  9
$LONGITUDE
 40
-122.394
  9
$NORTHDIRECTION
 40
0.0
  9
$TIMEZONE
 70
 -8000
  9
$LIGHTGLYPHDISPLAY
280
     1
  9
$TILEMODELIGHTSYNCH
280
     1
  9
$CMATERIAL
347
44
  9
$SOLIDHIST
280
     0
  9
$SHOWHIST
280
     1
  9
$DWFFRAME
280
     2
  9
$DGNFRAME
280
     2
  9
$REALWORLDSCALE
290
     1
  9
$INTERFERECOLOR
 62
   256
  9
$CSHADOW
280
     0
  9
$SHADOWPLANELOCATION
 40
0.0
  0
ENDSEC
  0
SECTION
  2
CLASSES
  0
CLASS
  1
ACDBDICTIONARYWDFLT
  2
AcDbDictionaryWithDefault
  3
ObjectDBX Classes
 90
        0
 91
        4
280
     0
281
     0
  0
CLASS
  1
VISUALSTYLE
  2
AcDbVisualStyle
  3
ObjectDBX Classes
 90
     4095
 91
        4
280
     0
281
     0
  0
CLASS
  1
MATERIAL
  2
AcDbMaterial
  3
ObjectDBX Classes
 90
     1153
 91
        4
280
     0
281
     0
  0
CLASS
  1
SCALE
  2
AcDbScale
  3
ObjectDBX Classes
 90
     1153
 91
        4
280
     0
281
     0
  0
CLASS
  1
TABLESTYLE
  2
AcDbTableStyle
  3
ObjectDBX Classes
 90
     4095
 91
        4
280
     0
281
     0
  0
CLASS
  1
MLEADERSTYLE
  2
AcDbMLeaderStyle
  3
ACDB_MLEADERSTYLE_CLASS
 90
     4095
 91
        4
280
     0
281
     0
  0
CLASS
  1
SUN
  2
AcDbSun
  3
SCENEOE
 90
     1153
 91
        4
280
     0
281
     0
  0
CLASS
  1
DICTIONARYVAR
  2
AcDbDictionaryVar
  3
ObjectDBX Classes
 90
        0
 91
        4
280
     0
281
     0
  0
CLASS
  1
CELLSTYLEMAP
  2
AcDbCellStyleMap
  3
ObjectDBX Classes
 90
     1152
 91
        4
280
     0
281
     0
  0
ENDSEC
  0
SECTION
  2
TABLES
  0
TABLE
  2
VPORT
  5
8
330
0
100
AcDbSymbolTable
 70
     1
  0
VPORT
  5
29
330
8
100
AcDbSymbolTableRecord
100
AcDbViewportTableRecord
  2
*Active
 70
     0
 10
0.0
 20
0.0
 11
1.0
 21
1.0
 12
344.1869158879
 22
148.5
 13
0.0
 23
0.0
 14
10.0
 24
10.0
 15
10.0
 25
10.0
 16
0.0
 26
0.0
 36
1.0
 17
0.0
 27
0.0
 37
0.0
 40
297.0
 41
1.9729729729
 42
50.0
 43
0.0
 44
0.0
 50
0.0
 51
0.0
 71
     0
 72
   100
 73
     1
 74
     3
 75
     0
 76
     0
 77
     0
 78
     0
281
     0
 65
     1
110
0.0
120
0.0
130
0.0
111
1.0
121
0.0
131
0.0
112
0.0
122
1.0
132
0.0
 79
     0
146
0.0
 60
     3
 61
     5
292
     1
282
     1
141
0.0
142
0.0
 63
   250
361
6D
  0
ENDTAB
  0
TABLE
  2
LTYPE
  5
5
330
0
100
AcDbSymbolTable
 70
     1
  0
LTYPE
  5
14
330
5
100
AcDbSymbolTableRecord
100
AcDbLinetypeTableRecord
  2
ByBlock
 70
     0
  3

 72
    65
 73
     0
 40
0.0
  0
LTYPE
  5
15
330
5
100
AcDbSymbolTableRecord
100
AcDbLinetypeTableRecord
  2
ByLayer
 70
     0
  3

 72
    65
 73
     0
 40
0.0
  0
LTYPE
  5
16
330
5
100
AcDbSymbolTableRecord
100
AcDbLinetypeTableRecord
  2
Continuous
 70
     0
  3
Solid line
 72
    65
 73
     0
 40
0.0
  0
ENDTAB
  0
TABLE
  2
LAYER
  5
2
330
0
100
AcDbSymbolTable
 70
     7
  0
LAYER
  5
10
330
2
100
AcDbSymbolTableRecord
100
AcDbLayerTableRecord
  2
0
 70
     0
 62
     7
  6
Continuous
370
    -3
390
F
347
46
  0
LAYER
  5
6E
330
2
100
AcDbSymbolTableRecord
100
AcDbLayerTableRecord
  2
Standard
 70
     0
 62
     7
  6
Continuous
370
    -3
390
F
347
46
  0
LAYER
  5
71
330
2
100
AcDbSymbolTableRecord
100
AcDbLayerTableRecord
  2
AP_391
 70
     0
 62
     7
  6
Continuous
370
    -3
390
F
347
46
  0
LAYER
  5
A7
330
2
100
AcDbSymbolTableRecord
100
AcDbLayerTableRecord
  2
AP_398
 70
     0
 62
     7
  6
Continuous
370
    -3
390
F
347
46
  0
LAYER
  5
DC
330
2
100
AcDbSymbolTableRecord
100
AcDbLayerTableRecord
  2
AP_392
 70
     0
 62
     7
  6
Continuous
370
    -3
390
F
347
46
  0
LAYER
  5
109
330
2
100
AcDbSymbolTableRecord
100
AcDbLayerTableRecord
  2
GLAS_FÜR_8MM
 70
     0
 62
     7
  6
Continuous
370
    -3
390
F
347
46
  0
LAYER
  5
10D
330
2
100
AcDbSymbolTableRecord
100
AcDbLayerTableRecord
  2
AJ_149
 70
     0
 62
     7
  6
Continuous
370
    -3
390
F
347
46
  0
ENDTAB
  0
TABLE
  2
STYLE
  5
3
330
0
100
AcDbSymbolTable
 70
     2
  0
STYLE
  5
11
330
3
100
AcDbSymbolTableRecord
100
AcDbTextStyleTableRecord
  2
Standard
 70
     0
 40
0.0
 41
1.0
 50
0.0
 71
     0
 42
2.5
  3
txt
  4

  0
STYLE
  5
134
330
3
100
AcDbSymbolTableRecord
100
AcDbTextStyleTableRecord
  2
SEACAD_Arial
 70
     0
 40
0.0
 41
1.0
 50
0.0
 71
     0
 42
2.5
  3
arial.ttf
  4

1001
ACAD
1000
Arial
1071
        0
  0
ENDTAB
  0
TABLE
  2
VIEW
  5
6
330
0
100
AcDbSymbolTable
 70
     0
  0
ENDTAB
  0
TABLE
  2
UCS
  5
7
330
0
100
AcDbSymbolTable
 70
     0
  0
ENDTAB
  0
TABLE
  2
APPID
  5
9
330
0
100
AcDbSymbolTable
 70
     2
  0
APPID
  5
12
330
9
100
AcDbSymbolTableRecord
100
AcDbRegAppTableRecord
  2
ACAD
 70
     0
  0
APPID
  5
240
330
9
100
AcDbSymbolTableRecord
100
AcDbRegAppTableRecord
  2
ACAD_MLEADERVER
 70
     0
  0
ENDTAB
  0
TABLE
  2
DIMSTYLE
  5
A
330
0
100
AcDbSymbolTable
 70
     3
100
AcDbDimStyleTable
  0
DIMSTYLE
105
27
330
A
100
AcDbSymbolTableRecord
100
AcDbDimStyleTableRecord
  2
ISO-25
 70
     0
 41
2.5
 42
0.625
 43
3.75
 44
1.25
 73
     0
 74
     0
 77
     1
 78
     8
140
2.5
141
2.5
143
0.0393700787
147
0.625
171
     3
172
     1
178
     0
271
     2
272
     2
274
     3
278
    44
283
     0
284
     8
340
11
  0
DIMSTYLE
105
121
330
A
100
AcDbSymbolTableRecord
100
AcDbDimStyleTableRecord
  2
Standard
 70
     0
178
     0
340
11
  0
DIMSTYLE
105
135
102
{ACAD_REACTORS
330
136
330
13E
330
148
330
152
102
}
330
A
100
AcDbSymbolTableRecord
100
AcDbDimStyleTableRecord
  2
E-Katalog
 70
     0
 41
3.75
 42
0.75
 44
1.25
 73
     0
 74
     0
 77
     1
 78
     8
140
2.5
141
1.25
147
1.25
172
     1
173
     1
178
     0
271
     0
272
     0
278
    44
284
     8
340
134
343
12E
344
12E
  0
ENDTAB
  0
TABLE
  2
BLOCK_RECORD
  5
1
330
0
100
AcDbSymbolTable
 70
    10
  0
BLOCK_RECORD
  5
1F
330
1
100
AcDbSymbolTableRecord
100
AcDbBlockTableRecord
  2
*Model_Space
340
22
 70
     0
280
     1
281
     0
  0
BLOCK_RECORD
  5
1B
330
1
100
AcDbSymbolTableRecord
100
AcDbBlockTableRecord
  2
*Paper_Space
340
1E
 70
     0
280
     1
281
     0
  0
BLOCK_RECORD
  5
6F
330
1
100
AcDbSymbolTableRecord
100
AcDbBlockTableRecord
  2
SE
340
0
102
{BLKREFS
331
70
102
}
 70
     0
280
     1
281
     0
  0
BLOCK_RECORD
  5
122
330
1
100
AcDbSymbolTableRecord
100
AcDbBlockTableRecord
  2
_OBLIQUE
340
0
 70
     0
280
     1
281
     0
  0
BLOCK_RECORD
  5
126
330
1
100
AcDbSymbolTableRecord
100
AcDbBlockTableRecord
  2
_DOT
340
0
 70
     0
280
     1
281
     0
  0
BLOCK_RECORD
  5
12E
330
1
100
AcDbSymbolTableRecord
100
AcDbBlockTableRecord
  2
_SE_OPEN
340
0
 70
     0
280
     1
281
     0
  0
BLOCK_RECORD
  5
137
330
1
100
AcDbSymbolTableRecord
100
AcDbBlockTableRecord
  2
DMBLK271
340
0
 70
     0
280
     1
281
     0
  0
BLOCK_RECORD
  5
13F
330
1
100
AcDbSymbolTableRecord
100
AcDbBlockTableRecord
  2
DMBLK272
340
0
 70
     0
280
     1
281
     0
  0
BLOCK_RECORD
  5
149
330
1
100
AcDbSymbolTableRecord
100
AcDbBlockTableRecord
  2
DMBLK273
340
0
 70
     0
280
     1
281
     0
  0
BLOCK_RECORD
  5
153
330
1
100
AcDbSymbolTableRecord
100
AcDbBlockTableRecord
  2
DMBLK274
340
0
 70
     0
280
     1
281
     0
  0
BLOCK_RECORD
  5
15C
330
1
100
AcDbSymbolTableRecord
100
AcDbBlockTableRecord
  2
SE1
340
0
102
{BLKREFS
331
15D
102
}
 70
     0
280
     1
281
     0
  0
ENDTAB
  0
ENDSEC
  0
SECTION
  2
BLOCKS
  0
BLOCK
  5
20
330
1F
100
AcDbEntity
  8
0
100
AcDbBlockBegin
  2
*Model_Space
 70
     0
 10
0.0
 20
0.0
 30
0.0
  3
*Model_Space
  1
*Model_Space
  0
ENDBLK
  5
21
330
1F
100
AcDbEntity
  8
0
100
AcDbBlockEnd
  0
BLOCK
  5
1C
330
1B
100
AcDbEntity
 67
     1
  8
0
100
AcDbBlockBegin
  2
*Paper_Space
 70
     0
 10
0.0
 20
0.0
 30
0.0
  3
*Paper_Space
  1
*Paper_Space
  0
ENDBLK
  5
1D
330
1B
100
AcDbEntity
 67
     1
  8
0
100
AcDbBlockEnd
  0
BLOCK
  5
11F
330
6F
100
AcDbEntity
  8
0
100
AcDbBlockBegin
  2
SE
 70
     0
 10
0.0
 20
0.0
 30
0.0
  3
SE
  1
SE
  0
LINE
  5
72
330
6F
100
AcDbEntity
  8
AP_391
  6
Continuous
 62
     7
100
AcDbLine
 10
48.3473664841
 20
209.0466906894
 30
0.0
 11
48.3473664841
 21
206.9405813461
 31
0.0
  0
LINE
  5
73
330
6F
100
AcDbEntity
  8
AP_391
  6
Continuous
 62
     7
100
AcDbLine
 10
48.3473664841
 20
206.9405813461
 30
0.0
 11
48.5770937326
 21
206.7108540977
 31
0.0
  0
LINE
  5
74
330
6F
100
AcDbEntity
  8
AP_391
  6
Continuous
 62
     7
100
AcDbLine
 10
49.1472430555
 20
206.1407047748
 30
0.0
 11
49.3969707542
 21
205.8909770761
 31
0.0
  0
LINE
  5
75
330
6F
100
AcDbEntity
  8
AP_391
  6
Continuous
 62
     7
100
AcDbLine
 10
49.3969707542
 20
205.8909770761
 30
0.0
 11
49.4108192211
 21
205.8909770761
 31
0.0
  0
ARC
  5
76
330
6F
100
AcDbEntity
  8
AP_391
  6
Continuous
 62
     7
100
AcDbCircle
 10
50.1459451279
 20
205.1861760204
 30
0.0
 40
0.9999978695709412
100
AcDbArc
 50
130.7563386117
 51
132.7350510603
  0
ARC
  5
77
330
6F
100
AcDbEntity
  8
AP_391
  6
Continuous
 62
     7
100
AcDbCircle
 10
50.1459451279
 20
205.1861760204
 30
0.0
 40
0.9999978695709412
100
AcDbArc
 50
250.71150351
 51
109.28849649
  0
ARC
  5
78
330
6F
100
AcDbEntity
  8
AP_391
  6
Continuous
 62
     7
100
AcDbCircle
 10
50.1459451279
 20
205.1861760204
 30
0.0
 40
0.9999978695709412
100
AcDbArc
 50
227.2649489396
 51
229.2436613883
  0
LINE
  5
79
330
6F
100
AcDbEntity
  8
AP_391
  6
Continuous
 62
     7
100
AcDbLine
 10
49.406307887
 20
204.4828282518
 30
0.0
 11
49.3972430555
 21
204.4828282518
 31
0.0
  0
ARC
  5
7A
330
6F
100
AcDbEntity
  8
AP_391
  6
Continuous
 62
     7
100
AcDbCircle
 10
50.1459451279
 20
205.1861760204
 30
0.0
 40
1.999999999999984
100
AcDbArc
 50
240.0429258204
 51
252.5816887241
  0
LINE
  5
7B
330
6F
100
AcDbEntity
  8
AP_391
  6
Continuous
 62
     7
100
AcDbLine
 10
49.5472536387
 20
203.2778866029
 30
0.0
 11
49.5472536387
 21
194.6836283227
 31
0.0
  0
ARC
  5
7C
330
6F
100
AcDbEntity
  8
AP_391
  6
Continuous
 62
     7
100
AcDbCircle
 10
50.0471092651
 20
194.6956430123
 30
0.0
 40
0.5000000000000264
100
AcDbArc
 50
181.3769145337
 51
358.6230854662
  0
LINE
  5
7D
330
6F
100
AcDbEntity
  8
AP_391
  6
Continuous
 62
     7
100
AcDbLine
 10
50.5469648915
 20
194.6836283227
 30
0.0
 11
50.5469648915
 21
203.2267926609
 31
0.0
  0
ARC
  5
7E
330
6F
100
AcDbEntity
  8
AP_391
  6
Continuous
 62
     7
100
AcDbCircle
 10
50.1459451279
 20
205.1861760204
 30
0.0
 40
1.999999999999985
100
AcDbArc
 50
281.5667771078
 51
345.5224878141
  0
LINE
  5
7F
330
6F
100
AcDbEntity
  8
AP_391
  6
Continuous
 62
     7
100
AcDbLine
 10
52.082436801
 20
204.6861760204
 30
0.0
 11
53.4122961673
 21
204.6861760204
 31
0.0
  0
ARC
  5
80
330
6F
100
AcDbEntity
  8
AP_391
  6
Continuous
 62
     7
100
AcDbCircle
 10
55.3487878404
 20
205.1861760204
 30
0.0
 40
1.999999999999984
100
AcDbArc
 50
194.4775121859
 51
258.4332228922
  0
LINE
  5
81
330
6F
100
AcDbEntity
  8
AP_391
  6
Continuous
 62
     7
100
AcDbLine
 10
54.9477680768
 20
203.2267926609
 30
0.0
 11
54.9477680768
 21
194.6836283227
 31
0.0
  0
ARC
  5
82
330
6F
100
AcDbEntity
  8
AP_391
  6
Continuous
 62
     7
100
AcDbCircle
 10
55.4476237032
 20
194.6956430123
 30
0.0
 40
0.5000000000000264
100
AcDbArc
 50
181.3769145337
 51
358.6230854661
  0
LINE
  5
83
330
6F
100
AcDbEntity
  8
AP_391
  6
Continuous
 62
     7
100
AcDbLine
 10
55.9474793296
 20
194.6836283227
 30
0.0
 11
55.9474793296
 21
203.2778866029
 31
0.0
  0
ARC
  5
84
330
6F
100
AcDbEntity
  8
AP_391
  6
Continuous
 62
     7
100
AcDbCircle
 10
55.3487878404
 20
205.1861760204
 30
0.0
 40
1.999999999999985
100
AcDbArc
 50
287.4183112759
 51
299.9570741796
  0
LINE
  5
85
330
6F
100
AcDbEntity
  8
AP_391
  6
Continuous
 62
     7
100
AcDbLine
 10
56.3474899127
 20
203.4533765021
 30
0.0
 11
56.3474899127
 21
204.2328282518
 31
0.0
  0
ARC
  5
86
330
6F
100
AcDbEntity
  8
AP_391
  6
Continuous
 62
     7
100
AcDbCircle
 10
55.3487878404
 20
205.1861760204
 30
0.0
 40
0.9999978695709362
100
AcDbArc
 50
70.5118303766
 51
289.4881696234
  0
LINE
  5
87
330
6F
100
AcDbEntity
  8
AP_391
  6
Continuous
 62
     7
100
AcDbLine
 10
56.091557137
 20
205.8909770761
 30
0.0
 11
56.0977622141
 21
205.8909770761
 31
0.0
  0
LINE
  5
88
330
6F
100
AcDbEntity
  8
AP_391
  6
Continuous
 62
     7
100
AcDbLine
 10
56.0977622141
 20
205.8909770761
 30
0.0
 11
56.3551333026
 21
206.1483481646
 31
0.0
  0
LINE
  5
89
330
6F
100
AcDbEntity
  8
AP_391
  6
Continuous
 62
     7
100
AcDbLine
 10
56.9204369105
 20
206.7136517725
 30
0.0
 11
57.1473664841
 21
206.9405813461
 31
0.0
  0
LINE
  5
8A
330
6F
100
AcDbEntity
  8
AP_391
  6
Continuous
 62
     7
100
AcDbLine
 10
57.1473664841
 20
206.9405813461
 30
0.0
 11
57.1473664841
 21
209.0466906894
 31
0.0
  0
LINE
  5
8B
330
6F
100
AcDbEntity
  8
AP_391
  6
Continuous
 62
     7
100
AcDbLine
 10
57.1473664841
 20
209.0466906894
 30
0.0
 11
56.0861555619
 21
209.659381101
 31
0.0
  0
ARC
  5
8C
330
6F
100
AcDbEntity
  8
AP_391
  6
Continuous
 62
     7
100
AcDbCircle
 10
55.9861555619
 20
209.4861760203
 30
0.0
 40
0.2000000000000016
100
AcDbArc
 50
60.0
 51
90.0
  0
LINE
  5
8D
330
6F
100
AcDbEntity
  8
AP_391
  6
Continuous
 62
     7
100
AcDbLine
 10
55.9861555619
 20
209.6861760203
 30
0.0
 11
55.3473664841
 21
209.6861760203
 31
0.0
  0
ARC
  5
8E
330
6F
100
AcDbEntity
  8
AP_391
  6
Continuous
 62
     7
100
AcDbCircle
 10
55.3473664841
 20
209.4861760203
 30
0.0
 40
0.1999999999999988
100
AcDbArc
 50
90.0
 51
180.0
  0
LINE
  5
8F
330
6F
100
AcDbEntity
  8
AP_391
  6
Continuous
 62
     7
100
AcDbLine
 10
55.1473664841
 20
209.4861760203
 30
0.0
 11
55.1473664841
 21
208.8861760204
 31
0.0
  0
ARC
  5
90
330
6F
100
AcDbEntity
  8
AP_391
  6
Continuous
 62
     7
100
AcDbCircle
 10
55.3473664841
 20
208.8861760204
 30
0.0
 40
0.1999999999999988
100
AcDbArc
 50
180.0
 51
270.0
  0
LINE
  5
91
330
6F
100
AcDbEntity
  8
AP_391
  6
Continuous
 62
     7
100
AcDbLine
 10
55.3473664841
 20
208.6861760204
 30
0.0
 11
55.9473664841
 21
208.6861760204
 31
0.0
  0
ARC
  5
92
330
6F
100
AcDbEntity
  8
AP_391
  6
Continuous
 62
     7
100
AcDbCircle
 10
55.9473664841
 20
208.4861760204
 30
0.0
 40
0.1999999999911448
100
AcDbArc
 50
0.0
 51
90.0
  0
LINE
  5
93
330
6F
100
AcDbEntity
  8
AP_391
  6
Continuous
 62
     7
100
AcDbLine
 10
56.1473664841
 20
208.4861760204
 30
0.0
 11
56.1473664841
 21
207.3861760204
 31
0.0
  0
ARC
  5
94
330
6F
100
AcDbEntity
  8
AP_391
  6
Continuous
 62
     7
100
AcDbCircle
 10
55.9473664841
 20
207.3861760204
 30
0.0
 40
0.1999999999999988
100
AcDbArc
 50
270.0
 51
0.0
  0
LINE
  5
95
330
6F
100
AcDbEntity
  8
AP_391
  6
Continuous
 62
     7
100
AcDbLine
 10
55.9473664841
 20
207.1861760204
 30
0.0
 11
54.0112087405
 21
207.1861760204
 31
0.0
  0
LINE
  5
96
330
6F
100
AcDbEntity
  8
AP_391
  6
Continuous
 62
     7
100
AcDbLine
 10
54.0112087405
 20
207.1861760204
 30
0.0
 11
53.1451833368
 21
205.6861760204
 31
0.0
  0
LINE
  5
97
330
6F
100
AcDbEntity
  8
AP_391
  6
Continuous
 62
     7
100
AcDbLine
 10
53.1451833368
 20
205.6861760204
 30
0.0
 11
52.3495496315
 21
205.6861760204
 31
0.0
  0
LINE
  5
98
330
6F
100
AcDbEntity
  8
AP_391
  6
Continuous
 62
     7
100
AcDbLine
 10
52.3495496315
 20
205.6861760204
 30
0.0
 11
51.4835242277
 21
207.1861760204
 31
0.0
  0
LINE
  5
99
330
6F
100
AcDbEntity
  8
AP_391
  6
Continuous
 62
     7
100
AcDbLine
 10
51.4835242277
 20
207.1861760204
 30
0.0
 11
49.5473664841
 21
207.1861760204
 31
0.0
  0
ARC
  5
9A
330
6F
100
AcDbEntity
  8
AP_391
  6
Continuous
 62
     7
100
AcDbCircle
 10
49.5473664841
 20
207.3861760204
 30
0.0
 40
0.1999999999999988
100
AcDbArc
 50
180.0
 51
270.0
  0
LINE
  5
9B
330
6F
100
AcDbEntity
  8
AP_391
  6
Continuous
 62
     7
100
AcDbLine
 10
49.3473664841
 20
207.3861760204
 30
0.0
 11
49.3473664841
 21
208.4861760204
 31
0.0
  0
ARC
  5
9C
330
6F
100
AcDbEntity
  8
AP_391
  6
Continuous
 62
     7
100
AcDbCircle
 10
49.5473664841
 20
208.4861760204
 30
0.0
 40
0.1999999999911439
100
AcDbArc
 50
90.0
 51
180.0
  0
LINE
  5
9D
330
6F
100
AcDbEntity
  8
AP_391
  6
Continuous
 62
     7
100
AcDbLine
 10
49.5473664841
 20
208.6861760204
 30
0.0
 11
50.1473664841
 21
208.6861760204
 31
0.0
  0
ARC
  5
9E
330
6F
100
AcDbEntity
  8
AP_391
  6
Continuous
 62
     7
100
AcDbCircle
 10
50.1473664841
 20
208.8861760204
 30
0.0
 40
0.199999999993497
100
AcDbArc
 50
269.9999999981
 51
0.0
  0
LINE
  5
9F
330
6F
100
AcDbEntity
  8
AP_391
  6
Continuous
 62
     7
100
AcDbLine
 10
50.3473664841
 20
208.8861760204
 30
0.0
 11
50.3473664841
 21
209.4861760203
 31
0.0
  0
ARC
  5
A0
330
6F
100
AcDbEntity
  8
AP_391
  6
Continuous
 62
     7
100
AcDbCircle
 10
50.1473664841
 20
209.4861760203
 30
0.0
 40
0.200000000006504
100
AcDbArc
 50
0.0
 51
89.999999999
  0
LINE
  5
A1
330
6F
100
AcDbEntity
  8
AP_391
  6
Continuous
 62
     7
100
AcDbLine
 10
50.1473664841
 20
209.6861760203
 30
0.0
 11
49.5085774064
 21
209.6861760203
 31
0.0
  0
ARC
  5
A2
330
6F
100
AcDbEntity
  8
AP_391
  6
Continuous
 62
     7
100
AcDbCircle
 10
49.5085774064
 20
209.4861760203
 30
0.0
 40
0.2000000000000023
100
AcDbArc
 50
90.0000000008
 51
120.0
  0
LINE
  5
A3
330
6F
100
AcDbEntity
  8
AP_391
  6
Continuous
 62
     7
100
AcDbLine
 10
49.4085774064
 20
209.659381101
 30
0.0
 11
48.3473664841
 21
209.0466906894
 31
0.0
  0
LINE
  5
A4
330
6F
100
AcDbEntity
  8
AP_391
  6
Continuous
 62
     7
100
AcDbLine
 10
56.0974899127
 20
204.4828282518
 30
0.0
 11
56.096068471
 21
204.4828282518
 31
0.0
  0
LINE
  5
A5
330
6F
100
AcDbEntity
  8
AP_391
  6
Continuous
 62
     7
100
AcDbLine
 10
49.3972430555
 20
204.4828282518
 30
0.0
 11
49.1472430555
 21
204.2328282518
 31
0.0
  0
LINE
  5
A6
330
6F
100
AcDbEntity
  8
AP_391
  6
Continuous
 62
     7
100
AcDbLine
 10
56.3474899127
 20
204.2328282518
 30
0.0
 11
56.0974899127
 21
204.4828282518
 31
0.0
  0
LINE
  5
A8
330
6F
100
AcDbEntity
  8
AP_398
  6
Continuous
 62
     7
100
AcDbLine
 10
48.597513985
 20
229.4861760203
 30
0.0
 11
48.297513985
 21
229.1861760203
 31
0.0
  0
LINE
  5
A9
330
6F
100
AcDbEntity
  8
AP_398
  6
Continuous
 62
     7
100
AcDbLine
 10
48.297513985
 20
229.1861760203
 30
0.0
 11
48.297513985
 21
224.1861760203
 31
0.0
  0
LINE
  5
AA
330
6F
100
AcDbEntity
  8
AP_398
  6
Continuous
 62
     7
100
AcDbLine
 10
48.297513985
 20
224.1861760203
 30
0.0
 11
48.5973211744
 21
223.8863688309
 31
0.0
  0
LINE
  5
AB
330
6F
100
AcDbEntity
  8
AP_398
  6
Continuous
 62
     7
100
AcDbLine
 10
48.5973211744
 20
223.8863688309
 30
0.0
 11
48.5992477951
 21
221.8859833954
 31
0.0
  0
LINE
  5
AC
330
6F
100
AcDbEntity
  8
AP_398
  6
Continuous
 62
     7
100
AcDbLine
 10
56.8984117939
 20
224.1844110744
 30
0.0
 11
57.1982189832
 21
224.4842182638
 31
0.0
  0
LINE
  5
AD
330
6F
100
AcDbEntity
  8
AP_398
  6
Continuous
 62
     7
100
AcDbLine
 10
57.1982189832
 20
224.4842182638
 30
0.0
 11
57.1982189832
 21
229.4842182638
 31
0.0
  0
LINE
  5
AE
330
6F
100
AcDbEntity
  8
AP_398
  6
Continuous
 62
     7
100
AcDbLine
 10
57.1982189832
 20
229.4842182638
 30
0.0
 11
56.8982189832
 21
229.7842182638
 31
0.0
  0
LINE
  5
AF
330
6F
100
AcDbEntity
  8
AP_398
  6
Continuous
 62
     7
100
AcDbLine
 10
56.8982189832
 20
229.7842182638
 30
0.0
 11
56.8982189832
 21
236.4861760203
 31
0.0
  0
ARC
  5
B0
330
6F
100
AcDbEntity
  8
AP_398
  6
Continuous
 62
     7
100
AcDbCircle
 10
58.5473664841
 20
190.1861760203
 30
0.0
 40
0.4999999999999996
100
AcDbArc
 50
270.0
 51
0.0
  0
LINE
  5
B1
330
6F
100
AcDbEntity
  8
AP_398
  6
Continuous
 62
     7
100
AcDbLine
 10
58.5473664841
 20
189.6861760203
 30
0.0
 11
57.9473664841
 21
189.6861760203
 31
0.0
  0
ARC
  5
B2
330
6F
100
AcDbEntity
  8
AP_398
  6
Continuous
 62
     7
100
AcDbCircle
 10
55.9473664841
 20
210.4861760203
 30
0.0
 40
0.2000000000000003
100
AcDbArc
 50
90.0
 51
240.0
  0
LINE
  5
B3
330
6F
100
AcDbEntity
  8
AP_398
  6
Continuous
 62
     7
100
AcDbLine
 10
55.9473664841
 20
210.6861760203
 30
0.0
 11
57.4473664841
 21
210.6861760203
 31
0.0
  0
ARC
  5
B4
330
6F
100
AcDbEntity
  8
AP_398
  6
Continuous
 62
     7
100
AcDbCircle
 10
49.5473664841
 20
210.4861760203
 30
0.0
 40
0.2000000000000005
100
AcDbArc
 50
300.0
 51
90.0
  0
LINE
  5
B5
330
6F
100
AcDbEntity
  8
AP_398
  6
Continuous
 62
     7
100
AcDbLine
 10
49.6473664841
 20
210.3129709395
 30
0.0
 11
48.6081359996
 21
209.7129709395
 31
0.0
  0
ARC
  5
B6
330
6F
100
AcDbEntity
  8
AP_398
  6
Continuous
 62
     7
100
AcDbCircle
 10
46.9473664841
 20
190.1861760203
 30
0.0
 40
0.5000000000000004
100
AcDbArc
 50
180.0
 51
270.0
  0
LINE
  5
B7
330
6F
100
AcDbEntity
  8
AP_398
  6
Continuous
 62
     7
100
AcDbLine
 10
46.4473664841
 20
190.1861760203
 30
0.0
 11
46.4473664841
 21
220.1678713057
 31
0.0
  0
LINE
  5
B8
330
6F
100
AcDbEntity
  8
AP_398
  6
Continuous
 62
     7
100
AcDbLine
 10
48.3315972866
 20
236.6861760203
 30
0.0
 11
48.397513985
 21
236.6861760203
 31
0.0
  0
ARC
  5
B9
330
6F
100
AcDbEntity
  8
AP_398
  6
Continuous
 62
     7
100
AcDbCircle
 10
48.3315972866
 20
236.1861760203
 30
0.0
 40
0.5000000000000004
100
AcDbArc
 50
90.0
 51
175.0
  0
LINE
  5
BA
330
6F
100
AcDbEntity
  8
AP_398
  6
Continuous
 62
     7
100
AcDbLine
 10
57.6612330307
 20
236.2297538916
 30
0.0
 11
59.0283399746
 21
220.6036500195
 31
0.0
  0
ARC
  5
BB
330
6F
100
AcDbEntity
  8
AP_398
  6
Continuous
 62
     7
100
AcDbCircle
 10
57.1631356816
 20
236.1861760203
 30
0.0
 40
0.4999999999999993
100
AcDbArc
 50
5.0
 51
90.0
  0
LINE
  5
BC
330
6F
100
AcDbEntity
  8
AP_398
  6
Continuous
 62
     7
100
AcDbLine
 10
57.0982189832
 20
236.6861760203
 30
0.0
 11
57.1631356816
 21
236.6861760203
 31
0.0
  0
ARC
  5
BD
330
6F
100
AcDbEntity
  8
AP_398
  6
Continuous
 62
     7
100
AcDbCircle
 10
57.0982189832
 20
236.4861760203
 30
0.0
 40
0.1999999999999988
100
AcDbArc
 50
90.0
 51
180.0
  0
LINE
  5
BE
330
6F
100
AcDbEntity
  8
AP_398
  6
Continuous
 62
     7
100
AcDbLine
 10
48.597513985
 20
236.4861760203
 30
0.0
 11
48.597513985
 21
229.4861760203
 31
0.0
  0
ARC
  5
BF
330
6F
100
AcDbEntity
  8
AP_398
  6
Continuous
 62
     7
100
AcDbCircle
 10
48.397513985
 20
236.4861760203
 30
0.0
 40
0.1999999999999997
100
AcDbArc
 50
0.0
 51
90.0
  0
LINE
  5
C0
330
6F
100
AcDbEntity
  8
AP_398
  6
Continuous
 62
     7
100
AcDbLine
 10
56.8961981212
 20
221.8859833954
 30
0.0
 11
56.8984117939
 21
224.1844110744
 31
0.0
  0
ARC
  5
C1
330
6F
100
AcDbEntity
  8
AP_398
  6
Continuous
 62
     7
100
AcDbCircle
 10
56.696198214
 20
221.8861760203
 30
0.0
 40
0.1999999999999998
100
AcDbArc
 50
270.0
 51
359.9448170321
  0
LINE
  5
C2
330
6F
100
AcDbEntity
  8
AP_398
  6
Continuous
 62
     7
100
AcDbLine
 10
47.8473664841
 20
220.1861760203
 30
0.0
 11
47.8473664841
 21
210.8861760203
 31
0.0
  0
ARC
  5
C3
330
6F
100
AcDbEntity
  8
AP_398
  6
Continuous
 62
     7
100
AcDbCircle
 10
48.0473664841
 20
220.1861760203
 30
0.0
 40
0.2000000000000005
100
AcDbArc
 50
90.0
 51
180.0
  0
LINE
  5
C4
330
6F
100
AcDbEntity
  8
AP_398
  6
Continuous
 62
     7
100
AcDbLine
 10
57.4473664841
 20
220.3861760203
 30
0.0
 11
48.0473664841
 21
220.3861760203
 31
0.0
  0
ARC
  5
C5
330
6F
100
AcDbEntity
  8
AP_398
  6
Continuous
 62
     7
100
AcDbCircle
 10
57.4473664841
 20
220.1861760203
 30
0.0
 40
0.1999999999999988
100
AcDbArc
 50
0.0
 51
90.0
  0
LINE
  5
C6
330
6F
100
AcDbEntity
  8
AP_398
  6
Continuous
 62
     7
100
AcDbLine
 10
57.6473664841
 20
210.8861760203
 30
0.0
 11
57.6473664841
 21
220.1861760203
 31
0.0
  0
ARC
  5
C7
330
6F
100
AcDbEntity
  8
AP_398
  6
Continuous
 62
     7
100
AcDbCircle
 10
57.4473664841
 20
210.8861760203
 30
0.0
 40
0.1999999999999997
100
AcDbArc
 50
270.0
 51
0.0
  0
LINE
  5
C8
330
6F
100
AcDbEntity
  8
AP_398
  6
Continuous
 62
     7
100
AcDbLine
 10
48.0473664841
 20
210.6861760203
 30
0.0
 11
49.5473664841
 21
210.6861760203
 31
0.0
  0
ARC
  5
C9
330
6F
100
AcDbEntity
  8
AP_398
  6
Continuous
 62
     7
100
AcDbCircle
 10
48.0473664841
 20
210.8861760203
 30
0.0
 40
0.2000000000000005
100
AcDbArc
 50
180.0
 51
270.0
  0
LINE
  5
CA
330
6F
100
AcDbEntity
  8
AP_398
  6
Continuous
 62
     7
100
AcDbLine
 10
47.7473664841
 20
209.4861760203
 30
0.0
 11
47.7473664841
 21
189.8861760203
 31
0.0
  0
ARC
  5
CB
330
6F
100
AcDbEntity
  8
AP_398
  6
Continuous
 62
     7
100
AcDbCircle
 10
47.9473664841
 20
209.4861760203
 30
0.0
 40
0.1999999999999997
100
AcDbArc
 50
90.0
 51
180.0
  0
LINE
  5
CC
330
6F
100
AcDbEntity
  8
AP_398
  6
Continuous
 62
     7
100
AcDbLine
 10
48.5081359996
 20
209.6861760203
 30
0.0
 11
47.9473664841
 21
209.6861760203
 31
0.0
  0
ARC
  5
CD
330
6F
100
AcDbEntity
  8
AP_398
  6
Continuous
 62
     7
100
AcDbCircle
 10
48.5081359996
 20
209.8861760203
 30
0.0
 40
0.1999999999999997
100
AcDbArc
 50
270.0
 51
300.0
  0
LINE
  5
CE
330
6F
100
AcDbEntity
  8
AP_398
  6
Continuous
 62
     7
100
AcDbLine
 10
56.8865969687
 20
209.7129709395
 30
0.0
 11
55.8473664841
 21
210.3129709395
 31
0.0
  0
ARC
  5
CF
330
6F
100
AcDbEntity
  8
AP_398
  6
Continuous
 62
     7
100
AcDbCircle
 10
56.9865969687
 20
209.8861760203
 30
0.0
 40
0.2000000000000001
100
AcDbArc
 50
240.0
 51
270.0
  0
LINE
  5
D0
330
6F
100
AcDbEntity
  8
AP_398
  6
Continuous
 62
     7
100
AcDbLine
 10
57.5473664841
 20
209.6861760203
 30
0.0
 11
56.9865969687
 21
209.6861760203
 31
0.0
  0
ARC
  5
D1
330
6F
100
AcDbEntity
  8
AP_398
  6
Continuous
 62
     7
100
AcDbCircle
 10
57.5473664841
 20
209.4861760203
 30
0.0
 40
0.1999999999999997
100
AcDbArc
 50
0.0
 51
90.0
  0
LINE
  5
D2
330
6F
100
AcDbEntity
  8
AP_398
  6
Continuous
 62
     7
100
AcDbLine
 10
47.5473664841
 20
189.6861760203
 30
0.0
 11
46.9473664841
 21
189.6861760203
 31
0.0
  0
ARC
  5
D3
330
6F
100
AcDbEntity
  8
AP_398
  6
Continuous
 62
     7
100
AcDbCircle
 10
47.5473664841
 20
189.8861760203
 30
0.0
 40
0.1999999999999988
100
AcDbArc
 50
270.0
 51
0.0
  0
LINE
  5
D4
330
6F
100
AcDbEntity
  8
AP_398
  6
Continuous
 62
     7
100
AcDbLine
 10
57.7473664841
 20
189.8861760203
 30
0.0
 11
57.7473664841
 21
209.4861760203
 31
0.0
  0
ARC
  5
D5
330
6F
100
AcDbEntity
  8
AP_398
  6
Continuous
 62
     7
100
AcDbCircle
 10
57.9473664841
 20
189.8861760203
 30
0.0
 40
0.1999999999999997
100
AcDbArc
 50
180.0
 51
270.0
  0
LINE
  5
D6
330
6F
100
AcDbEntity
  8
AP_398
  6
Continuous
 62
     7
100
AcDbLine
 10
48.7992477024
 20
221.6861760203
 30
0.0
 11
56.696198214
 21
221.6861760203
 31
0.0
  0
ARC
  5
D7
330
6F
100
AcDbEntity
  8
AP_398
  6
Continuous
 62
     7
100
AcDbCircle
 10
48.7992477024
 20
221.8861760203
 30
0.0
 40
0.1999999999999988
100
AcDbArc
 50
180.0551829679
 51
270.0
  0
LINE
  5
D8
330
6F
100
AcDbEntity
  8
AP_398
  6
Continuous
 62
     7
100
AcDbLine
 10
46.4663929937
 20
220.6036500195
 30
0.0
 11
47.8334999376
 21
236.2297538916
 31
0.0
  0
ARC
  5
D9
330
6F
100
AcDbEntity
  8
AP_398
  6
Continuous
 62
     7
100
AcDbCircle
 10
51.4473664841
 20
220.1678713057
 30
0.0
 40
4.999999999999999
100
AcDbArc
 50
175.0
 51
180.0
  0
LINE
  5
DA
330
6F
100
AcDbEntity
  8
AP_398
  6
Continuous
 62
     7
100
AcDbLine
 10
59.0473664841
 20
220.1678713057
 30
0.0
 11
59.0473664841
 21
190.1861760203
 31
0.0
  0
ARC
  5
DB
330
6F
100
AcDbEntity
  8
AP_398
  6
Continuous
 62
     7
100
AcDbCircle
 10
54.0473664841
 20
220.1678713057
 30
0.0
 40
5.0
100
AcDbArc
 50
0.0
 51
5.0
  0
ARC
  5
DD
330
6F
100
AcDbEntity
  8
AP_392
  6
Continuous
 62
     7
100
AcDbCircle
 10
56.4578941236
 20
199.5932218266
 30
0.0
 40
0.4000000000000002
100
AcDbArc
 50
97.1885560161
 51
180.0
  0
ARC
  5
DE
330
6F
100
AcDbEntity
  8
AP_392
  6
Continuous
 62
     7
100
AcDbCircle
 10
56.3581133283
 20
200.3869747379
 30
0.0
 40
0.3999999999998731
100
AcDbArc
 50
277.141310347
 51
90.4268611865
  0
LINE
  5
DF
330
6F
100
AcDbEntity
  8
AP_392
  6
Continuous
 62
     7
100
AcDbLine
 10
56.3551333026
 20
200.786963637
 30
0.0
 11
56.3551333026
 21
204.2917488294
 31
0.0
  0
ARC
  5
E0
330
6F
100
AcDbEntity
  8
AP_392
  6
Continuous
 62
     7
100
AcDbCircle
 10
56.1551333026
 20
204.2917488294
 30
0.0
 40
0.2000000000000062
100
AcDbArc
 50
0.0
 51
135.3304740561
  0
LINE
  5
E1
330
6F
100
AcDbEntity
  8
AP_392
  6
Continuous
 62
     7
100
AcDbLine
 10
56.0128986046
 20
204.4323521391
 30
0.0
 11
55.8859311323
 21
204.303911492
 31
0.0
  0
ARC
  5
E2
330
6F
100
AcDbEntity
  8
AP_392
  6
Continuous
 62
     7
100
AcDbCircle
 10
55.7359108185
 20
204.4361760204
 30
0.0
 40
0.1999999999999991
100
AcDbArc
 50
237.5
 51
318.5991768658
  0
LINE
  5
E3
330
6F
100
AcDbEntity
  8
AP_392
  6
Continuous
 62
     7
100
AcDbLine
 10
55.6284508968
 20
204.2674977312
 30
0.0
 11
54.451186714
 21
205.0174977312
 31
0.0
  0
ARC
  5
E4
330
6F
100
AcDbEntity
  8
AP_392
  6
Continuous
 62
     7
100
AcDbCircle
 10
54.5586466357
 20
205.1861760204
 30
0.0
 40
0.2000000000000024
100
AcDbArc
 50
122.5
 51
237.5
  0
LINE
  5
E5
330
6F
100
AcDbEntity
  8
AP_392
  6
Continuous
 62
     7
100
AcDbLine
 10
54.451186714
 20
205.3548543095
 30
0.0
 11
55.6284508968
 21
206.1048543095
 31
0.0
  0
ARC
  5
E6
330
6F
100
AcDbEntity
  8
AP_392
  6
Continuous
 62
     7
100
AcDbCircle
 10
55.7359108185
 20
205.9361760204
 30
0.0
 40
0.2000000000000002
100
AcDbArc
 50
41.4008231342
 51
122.5
  0
LINE
  5
E7
330
6F
100
AcDbEntity
  8
AP_392
  6
Continuous
 62
     7
100
AcDbLine
 10
55.8859311323
 20
206.0684405487
 30
0.0
 11
56.0128986046
 21
205.9399999016
 31
0.0
  0
ARC
  5
E8
330
6F
100
AcDbEntity
  8
AP_392
  6
Continuous
 62
     7
100
AcDbCircle
 10
56.1551333026
 20
206.0806032113
 30
0.0
 40
0.2000000000000026
100
AcDbArc
 50
224.6695259439
 51
0.0
  0
LINE
  5
E9
330
6F
100
AcDbEntity
  8
AP_392
  6
Continuous
 62
     7
100
AcDbLine
 10
56.3551333026
 20
206.0806032113
 30
0.0
 11
56.3551333026
 21
206.1483481646
 31
0.0
  0
LINE
  5
EA
330
6F
100
AcDbEntity
  8
AP_392
  6
Continuous
 62
     7
100
AcDbLine
 10
56.3551333026
 20
206.1483481646
 30
0.0
 11
56.9204369105
 21
206.7136517725
 31
0.0
  0
LINE
  5
EB
330
6F
100
AcDbEntity
  8
AP_392
  6
Continuous
 62
     7
100
AcDbLine
 10
56.9204369105
 20
206.7136517725
 30
0.0
 11
57.3549201948
 21
206.4628027314
 31
0.0
  0
LINE
  5
EC
330
6F
100
AcDbEntity
  8
AP_392
  6
Continuous
 62
     7
100
AcDbLine
 10
57.3549201948
 20
206.4628027314
 30
0.0
 11
57.3549201948
 21
203.7864743062
 31
0.0
  0
ARC
  5
ED
330
6F
100
AcDbEntity
  8
AP_392
  6
Continuous
 62
     7
100
AcDbCircle
 10
57.3549201948
 20
203.386772592
 30
0.0
 40
0.3997017142065812
100
AcDbArc
 50
90.0000000003
 51
270.0
  0
LINE
  5
EE
330
6F
100
AcDbEntity
  8
AP_392
  6
Continuous
 62
     7
100
AcDbLine
 10
57.3549201948
 20
202.9870708778
 30
0.0
 11
57.3549201948
 21
190.5932401714
 31
0.0
  0
ARC
  5
EF
330
6F
100
AcDbEntity
  8
AP_392
  6
Continuous
 62
     7
100
AcDbCircle
 10
48.1474561633
 20
203.386772592
 30
0.0
 40
0.3997017142065803
100
AcDbArc
 50
270.0
 51
89.9999999997
  0
LINE
  5
F0
330
6F
100
AcDbEntity
  8
AP_392
  6
Continuous
 62
     7
100
AcDbLine
 10
48.1474561633
 20
203.7864743062
 30
0.0
 11
48.1474561633
 21
206.4628027314
 31
0.0
  0
LINE
  5
F1
330
6F
100
AcDbEntity
  8
AP_392
  6
Continuous
 62
     7
100
AcDbLine
 10
48.1474561633
 20
206.4628027314
 30
0.0
 11
48.5770937326
 21
206.7108540977
 31
0.0
  0
LINE
  5
F2
330
6F
100
AcDbEntity
  8
AP_392
  6
Continuous
 62
     7
100
AcDbLine
 10
48.5770937326
 20
206.7108540977
 30
0.0
 11
49.1472430555
 21
206.1407047748
 31
0.0
  0
LINE
  5
F3
330
6F
100
AcDbEntity
  8
AP_392
  6
Continuous
 62
     7
100
AcDbLine
 10
49.1472430555
 20
206.1407047748
 30
0.0
 11
49.1472430555
 21
206.0806032113
 31
0.0
  0
ARC
  5
F4
330
6F
100
AcDbEntity
  8
AP_392
  6
Continuous
 62
     7
100
AcDbCircle
 10
49.3472430555
 20
206.0806032113
 30
0.0
 40
0.2000000000000023
100
AcDbArc
 50
180.0
 51
315.3304740561
  0
LINE
  5
F5
330
6F
100
AcDbEntity
  8
AP_392
  6
Continuous
 62
     7
100
AcDbLine
 10
49.4894777534
 20
205.9399999016
 30
0.0
 11
49.6164452258
 21
206.0684405487
 31
0.0
  0
ARC
  5
F6
330
6F
100
AcDbEntity
  8
AP_392
  6
Continuous
 62
     7
100
AcDbCircle
 10
49.7664655396
 20
205.9361760204
 30
0.0
 40
0.1999999999999991
100
AcDbArc
 50
57.5
 51
138.5991768658
  0
LINE
  5
F7
330
6F
100
AcDbEntity
  8
AP_392
  6
Continuous
 62
     7
100
AcDbLine
 10
49.8739254613
 20
206.1048543095
 30
0.0
 11
51.0511896441
 21
205.3548543095
 31
0.0
  0
ARC
  5
F8
330
6F
100
AcDbEntity
  8
AP_392
  6
Continuous
 62
     7
100
AcDbCircle
 10
50.9437297224
 20
205.1861760204
 30
0.0
 40
0.2000000000000002
100
AcDbArc
 50
302.5
 51
57.5
  0
LINE
  5
F9
330
6F
100
AcDbEntity
  8
AP_392
  6
Continuous
 62
     7
100
AcDbLine
 10
51.0511896441
 20
205.0174977312
 30
0.0
 11
49.8739254613
 21
204.2674977312
 31
0.0
  0
ARC
  5
FA
330
6F
100
AcDbEntity
  8
AP_392
  6
Continuous
 62
     7
100
AcDbCircle
 10
49.7664655396
 20
204.4361760204
 30
0.0
 40
0.1999999999999995
100
AcDbArc
 50
221.4008231342
 51
302.5
  0
LINE
  5
FB
330
6F
100
AcDbEntity
  8
AP_392
  6
Continuous
 62
     7
100
AcDbLine
 10
49.6164452258
 20
204.303911492
 30
0.0
 11
49.4894777534
 21
204.4323521391
 31
0.0
  0
ARC
  5
FC
330
6F
100
AcDbEntity
  8
AP_392
  6
Continuous
 62
     7
100
AcDbCircle
 10
49.3472430555
 20
204.2917488294
 30
0.0
 40
0.2000000000000023
100
AcDbArc
 50
44.6695259439
 51
180.0
  0
LINE
  5
FD
330
6F
100
AcDbEntity
  8
AP_392
  6
Continuous
 62
     7
100
AcDbLine
 10
49.1472430555
 20
204.2917488294
 30
0.0
 11
49.1472430555
 21
200.786963637
 31
0.0
  0
ARC
  5
FE
330
6F
100
AcDbEntity
  8
AP_392
  6
Continuous
 62
     7
100
AcDbCircle
 10
49.1442630298
 20
200.3869747379
 30
0.0
 40
0.4000000000000005
100
AcDbArc
 50
89.5731388134
 51
262.8586896531
  0
ARC
  5
FF
330
6F
100
AcDbEntity
  8
AP_392
  6
Continuous
 62
     7
100
AcDbCircle
 10
49.0444822345
 20
199.5932218266
 30
0.0
 40
0.4
100
AcDbArc
 50
0.0
 51
82.811443984
  0
LINE
  5
100
330
6F
100
AcDbEntity
  8
AP_392
  6
Continuous
 62
     7
100
AcDbLine
 10
49.4444822345
 20
199.5932218266
 30
0.0
 11
49.4444822345
 21
190.3502744722
 31
0.0
  0
LINE
  5
101
330
6F
100
AcDbEntity
  8
AP_392
  6
Continuous
 62
     7
100
AcDbLine
 10
56.0578941236
 20
190.3502744722
 30
0.0
 11
56.0578941236
 21
199.5932218266
 31
0.0
  0
ARC
  5
102
330
6F
100
AcDbEntity
  8
AP_392
  6
Continuous
 62
     7
100
AcDbCircle
 10
55.5578941236
 20
190.3502744722
 30
0.0
 40
0.5
100
AcDbArc
 50
284.7827749082
 51
0.0
  0
ARC
  5
103
330
6F
100
AcDbEntity
  8
AP_392
  6
Continuous
 62
     7
100
AcDbCircle
 10
52.751188179
 20
200.9861760203
 30
0.0
 40
11.49999999999735
100
AcDbArc
 50
255.2172250918
 51
284.7827749082
  0
ARC
  5
104
330
6F
100
AcDbEntity
  8
AP_392
  6
Continuous
 62
     7
100
AcDbCircle
 10
49.9444822345
 20
190.3502744722
 30
0.0
 40
0.4999999999999997
100
AcDbArc
 50
180.0
 51
255.2172250918
  0
ARC
  5
105
330
6F
100
AcDbEntity
  8
AP_392
  6
Continuous
 62
     7
100
AcDbCircle
 10
52.751188179
 20
200.9861760203
 30
0.0
 40
12.0
100
AcDbArc
 50
250.876102371
 51
289.123897629
  0
ARC
  5
106
330
6F
100
AcDbEntity
  8
AP_392
  6
Continuous
 62
     7
100
AcDbCircle
 10
56.3549201948
 20
190.5932401714
 30
0.0
 40
1.0
100
AcDbArc
 50
289.123897629
 51
0.0
  0
LINE
  5
107
330
6F
100
AcDbEntity
  8
AP_392
  6
Continuous
 62
     7
100
AcDbLine
 10
48.1474561633
 20
190.5932401714
 30
0.0
 11
48.1474561633
 21
202.9870708778
 31
0.0
  0
ARC
  5
108
330
6F
100
AcDbEntity
  8
AP_392
  6
Continuous
 62
     7
100
AcDbCircle
 10
49.1474561633
 20
190.5932401714
 30
0.0
 40
1.0
100
AcDbArc
 50
180.0
 51
250.876102371
  0
LINE
  5
10A
330
6F
100
AcDbEntity
  8
GLAS_FÜR_8MM
  6
Continuous
 62
     7
100
AcDbLine
 10
48.8482189832
 20
221.6861760203
 30
0.0
 11
56.6482189832
 21
221.6861760203
 31
0.0
  0
LINE
  5
10B
330
6F
100
AcDbEntity
  8
GLAS_FÜR_8MM
  6
Continuous
 62
     7
100
AcDbLine
 10
56.6482189832
 20
249.3548153464
 30
0.0
 11
56.6482189832
 21
221.6861760203
 31
0.0
  0
LINE
  5
10C
330
6F
100
AcDbEntity
  8
GLAS_FÜR_8MM
  6
Continuous
 62
     7
100
AcDbLine
 10
48.8482189832
 20
249.3548153464
 30
0.0
 11
48.8482189832
 21
221.6861760203
 31
0.0
  0
CIRCLE
  5
10E
330
6F
100
AcDbEntity
  8
AJ_149
  6
Continuous
 62
     7
100
AcDbCircle
 10
52.7973664841
 20
215.5361760203
 30
0.0
 40
4.6
  0
ARC
  5
10F
330
6F
100
AcDbEntity
  8
AJ_149
  6
Continuous
 62
     7
100
AcDbCircle
 10
52.7973664841
 20
215.5361760203
 30
0.0
 40
3.0
100
AcDbArc
 50
170.4059317731
 51
189.5940682269
  0
ARC
  5
110
330
6F
100
AcDbEntity
  8
AJ_149
  6
Continuous
 62
     7
100
AcDbCircle
 10
52.7973664841
 20
215.5361760203
 30
0.0
 40
3.000000000000001
100
AcDbArc
 50
260.4059317731
 51
279.5940682269
  0
ARC
  5
111
330
6F
100
AcDbEntity
  8
AJ_149
  6
Continuous
 62
     7
100
AcDbCircle
 10
52.7973664841
 20
215.5361760203
 30
0.0
 40
3.0
100
AcDbArc
 50
350.4059317731
 51
9.5940682269
  0
ARC
  5
112
330
6F
100
AcDbEntity
  8
AJ_149
  6
Continuous
 62
     7
100
AcDbCircle
 10
52.7973664841
 20
215.5361760203
 30
0.0
 40
3.0
100
AcDbArc
 50
80.4059317731
 51
99.5940682269
  0
LINE
  5
113
330
6F
100
AcDbEntity
  8
AJ_149
  6
Continuous
 62
     7
100
AcDbLine
 10
53.2973664841
 20
218.4942159118
 30
0.0
 11
53.2973664841
 21
217.0361760203
 31
0.0
  0
LINE
  5
114
330
6F
100
AcDbEntity
  8
AJ_149
  6
Continuous
 62
     7
100
AcDbLine
 10
55.7554063757
 20
215.0361760203
 30
0.0
 11
54.2973664841
 21
215.0361760203
 31
0.0
  0
LINE
  5
115
330
6F
100
AcDbEntity
  8
AJ_149
  6
Continuous
 62
     7
100
AcDbLine
 10
52.2973664841
 20
212.5781361287
 30
0.0
 11
52.2973664841
 21
214.0361760203
 31
0.0
  0
LINE
  5
116
330
6F
100
AcDbEntity
  8
AJ_149
  6
Continuous
 62
     7
100
AcDbLine
 10
49.8393265926
 20
216.0361760203
 30
0.0
 11
51.2973664841
 21
216.0361760203
 31
0.0
  0
LINE
  5
117
330
6F
100
AcDbEntity
  8
AJ_149
  6
Continuous
 62
     7
100
AcDbLine
 10
52.2973664841
 20
217.0361760203
 30
0.0
 11
52.2973664841
 21
218.4942159118
 31
0.0
  0
ARC
  5
118
330
6F
100
AcDbEntity
  8
AJ_149
  6
Continuous
 62
     7
100
AcDbCircle
 10
51.2973664841
 20
217.0361760203
 30
0.0
 40
0.9999999999999991
100
AcDbArc
 50
270.0
 51
0.0
  0
LINE
  5
119
330
6F
100
AcDbEntity
  8
AJ_149
  6
Continuous
 62
     7
100
AcDbLine
 10
51.2973664841
 20
215.0361760203
 30
0.0
 11
49.839326601
 21
215.0361760203
 31
0.0
  0
ARC
  5
11A
330
6F
100
AcDbEntity
  8
AJ_149
  6
Continuous
 62
     7
100
AcDbCircle
 10
51.2973664841
 20
214.0361760203
 30
0.0
 40
0.9999999999999991
100
AcDbArc
 50
0.0
 51
90.0
  0
LINE
  5
11B
330
6F
100
AcDbEntity
  8
AJ_149
  6
Continuous
 62
     7
100
AcDbLine
 10
53.2973664841
 20
214.0361760203
 30
0.0
 11
53.2973664841
 21
212.5781361786
 31
0.0
  0
ARC
  5
11C
330
6F
100
AcDbEntity
  8
AJ_149
  6
Continuous
 62
     7
100
AcDbCircle
 10
54.2973664841
 20
214.0361760203
 30
0.0
 40
0.9999999999999996
100
AcDbArc
 50
90.0
 51
180.0
  0
LINE
  5
11D
330
6F
100
AcDbEntity
  8
AJ_149
  6
Continuous
 62
     7
100
AcDbLine
 10
54.2973664841
 20
216.0361760203
 30
0.0
 11
55.7554063841
 21
216.0361760203
 31
0.0
  0
ARC
  5
11E
330
6F
100
AcDbEntity
  8
AJ_149
  6
Continuous
 62
     7
100
AcDbCircle
 10
54.2973664841
 20
217.0361760203
 30
0.0
 40
0.9999999999999991
100
AcDbArc
 50
180.0
 51
270.0
  0
ENDBLK
  5
120
330
6F
100
AcDbEntity
  8
0
100
AcDbBlockEnd
  0
BLOCK
  5
123
330
122
100
AcDbEntity
  8
0
100
AcDbBlockBegin
  2
_OBLIQUE
 70
     0
 10
0.0
 20
0.0
 30
0.0
  3
_OBLIQUE
  1
_OBLIQUE
  0
LINE
  5
125
330
122
100
AcDbEntity
  8
0
  6
ByBlock
 62
     0
370
    -2
100
AcDbLine
 10
-0.5
 20
-0.5
 30
0.0
 11
0.5
 21
0.5
 31
0.0
  0
ENDBLK
  5
124
330
122
100
AcDbEntity
  8
0
100
AcDbBlockEnd
  0
BLOCK
  5
127
330
126
100
AcDbEntity
  8
0
100
AcDbBlockBegin
  2
_DOT
 70
     0
 10
0.0
 20
0.0
 30
0.0
  3
_DOT
  1
_DOT
  0
POLYLINE
  5
129
330
126
100
AcDbEntity
  8
0
  6
ByBlock
 62
     0
100
AcDb2dPolyline
 66
     1
 10
0.0
 20
0.0
 30
0.0
 70
     1
 40
0.5
 41
0.5
  0
VERTEX
  5
12B
330
129
100
AcDbEntity
  8
0
  6
ByBlock
 62
     0
100
AcDbVertex
100
AcDb2dVertex
 10
-0.25
 20
0.0
 30
0.0
 42
1.0
  0
VERTEX
  5
12C
330
129
100
AcDbEntity
  8
0
  6
ByBlock
 62
     0
100
AcDbVertex
100
AcDb2dVertex
 10
0.25
 20
0.0
 30
0.0
 42
1.0
  0
SEQEND
  5
12D
330
129
100
AcDbEntity
  8
0
  6
ByBlock
 62
     0
  0
LINE
  5
12A
330
126
100
AcDbEntity
  8
0
  6
ByBlock
 62
     0
370
    -2
100
AcDbLine
 10
-0.5
 20
0.0
 30
0.0
 11
-1.0
 21
0.0
 31
0.0
  0
ENDBLK
  5
128
330
126
100
AcDbEntity
  8
0
100
AcDbBlockEnd
  0
BLOCK
  5
132
330
12E
100
AcDbEntity
  8
0
100
AcDbBlockBegin
  2
_SE_OPEN
 70
     0
 10
0.0
 20
0.0
 30
0.0
  3
_SE_OPEN
  1
_SE_OPEN
  0
LINE
  5
12F
330
12E
100
AcDbEntity
  8
0
 62
     0
100
AcDbLine
 10
0.0
 20
0.0
 30
0.0
 11
-1.0
 21
-0.1665
 31
0.0
  0
LINE
  5
130
330
12E
100
AcDbEntity
  8
0
 62
     0
100
AcDbLine
 10
-1.0
 20
0.1665
 30
0.0
 11
0.0
 21
0.0
 31
0.0
  0
LINE
  5
131
330
12E
100
AcDbEntity
  8
0
 62
     0
100
AcDbLine
 10
0.0
 20
0.0
 30
0.0
 11
-1.0
 21
0.0
 31
0.0
  0
ENDBLK
  5
133
330
12E
100
AcDbEntity
  8
0
100
AcDbBlockEnd
  0
BLOCK
  5
13C
330
137
100
AcDbEntity
  8
0
100
AcDbBlockBegin
  2
DMBLK271
 70
     0
 10
0.0
 20
0.0
 30
0.0
  3
DMBLK271
  1
DMBLK271
  0
LWPOLYLINE
  5
138
330
137
100
AcDbEntity
  8
Standard
  6
Continuous
 62
     7
100
AcDbPolyline
 90
        3
 70
     0
 43
0.0
 10
45.0982190671
 20
244.2458685213
 10
48.8482189832
 20
244.8708685074
 10
45.0982190671
 20
245.4958684934
  0
LWPOLYLINE
  5
139
330
137
100
AcDbEntity
  8
Standard
  6
Continuous
 62
     7
100
AcDbPolyline
 90
        3
 70
     0
 43
0.0
 10
60.3982188994
 20
244.2458685213
 10
56.6482189832
 20
244.8708685074
 10
60.3982188994
 20
245.4958684934
  0
LINE
  5
13A
330
137
100
AcDbEntity
  8
Standard
  6
Continuous
 62
     7
100
AcDbLine
 10
41.3482191509
 20
244.8708685074
 30
0.0
 11
63.6439060329
 21
244.8708685074
 31
0.0
  0
TEXT
  5
13B
330
137
100
AcDbEntity
  8
Standard
  6
Continuous
 62
     7
100
AcDbText
 10
60.8123846783
 20
245.4958685074
 30
0.0
 40
2.5
  1
8
  7
SEACAD_Arial
 11
60.8123846783
 21
247.9958685074
 31
0.0
100
AcDbText
 73
     3
  0
ENDBLK
  5
13D
330
137
100
AcDbEntity
  8
0
100
AcDbBlockEnd
  0
BLOCK
  5
146
330
13F
100
AcDbEntity
  8
0
100
AcDbBlockBegin
  2
DMBLK272
 70
     0
 10
0.0
 20
0.0
 30
0.0
  3
DMBLK272
  1
DMBLK272
  0
LWPOLYLINE
  5
140
330
13F
100
AcDbEntity
  8
Standard
  6
Continuous
 62
     7
100
AcDbPolyline
 90
        3
 70
     0
 43
0.0
 10
64.7118072467
 20
232.9361761041
 10
65.3368072327
 20
236.6861760203
 10
65.9618072187
 20
232.9361761041
  0
LWPOLYLINE
  5
141
330
13F
100
AcDbEntity
  8
Standard
  6
Continuous
 62
     7
100
AcDbPolyline
 90
        3
 70
     0
 43
0.0
 10
64.7118072467
 20
225.4361762717
 10
65.3368072327
 20
221.6861763555
 10
65.9618072187
 20
225.4361762717
  0
LINE
  5
142
330
13F
100
AcDbEntity
  8
Standard
  6
Continuous
 62
     7
100
AcDbLine
 10
57.9131356882
 20
236.6861760203
 30
0.0
 11
66.5868072048
 21
236.6861760203
 31
0.0
  0
LINE
  5
143
330
13F
100
AcDbEntity
  8
Standard
  6
Continuous
 62
     7
100
AcDbLine
 10
57.3982189898
 20
221.6861760203
 30
0.0
 11
66.5868072048
 21
221.6861760203
 31
0.0
  0
LINE
  5
144
330
13F
100
AcDbEntity
  8
Standard
  6
Continuous
 62
     7
100
AcDbLine
 10
65.3368072327
 20
236.6861760203
 30
0.0
 11
65.3368072327
 21
221.6861763555
 31
0.0
  0
TEXT
  5
145
330
13F
100
AcDbEntity
  8
Standard
  6
Continuous
 62
     7
100
AcDbText
 10
64.7118072327
 20
227.2296544488
 30
0.0
 40
2.5
  1
15
 50
90.0
  7
SEACAD_Arial
 11
62.2118072327
 21
227.2296544488
 31
0.0
100
AcDbText
 73
     3
  0
ENDBLK
  5
147
330
13F
100
AcDbEntity
  8
0
100
AcDbBlockEnd
  0
BLOCK
  5
150
330
149
100
AcDbEntity
  8
0
100
AcDbBlockBegin
  2
DMBLK273
 70
     0
 10
0.0
 20
0.0
 30
0.0
  3
DMBLK273
  1
DMBLK273
  0
LWPOLYLINE
  5
14A
330
149
100
AcDbEntity
  8
Standard
  6
Continuous
 62
     7
100
AcDbPolyline
 90
        3
 70
     0
 43
0.0
 10
64.7118066926
 20
217.9361761041
 10
65.3368066786
 20
221.6861760203
 10
65.9618066646
 20
217.9361761041
  0
LWPOLYLINE
  5
14B
330
149
100
AcDbEntity
  8
Standard
  6
Continuous
 62
     7
100
AcDbPolyline
 90
        3
 70
     0
 43
0.0
 10
64.7118066926
 20
193.4361744165
 10
65.3368066786
 20
189.6861745003
 10
65.9618066646
 20
193.4361744165
  0
LINE
  5
14C
330
149
100
AcDbEntity
  8
Standard
  6
Continuous
 62
     7
100
AcDbLine
 10
57.3982189898
 20
221.6861760203
 30
0.0
 11
66.5868066507
 21
221.6861760203
 31
0.0
  0
LINE
  5
14D
330
149
100
AcDbEntity
  8
Standard
  6
Continuous
 62
     7
100
AcDbLine
 10
59.2973665191
 20
189.6861760203
 30
0.0
 11
66.5868066507
 21
189.6861760203
 31
0.0
  0
LINE
  5
14E
330
149
100
AcDbEntity
  8
Standard
  6
Continuous
 62
     7
100
AcDbLine
 10
65.3368066786
 20
221.6861760203
 30
0.0
 11
65.3368066786
 21
189.6861745003
 31
0.0
  0
TEXT
  5
14F
330
149
100
AcDbEntity
  8
Standard
  6
Continuous
 62
     7
100
AcDbText
 10
64.7118066786
 20
203.7296535212
 30
0.0
 40
2.5
  1
32
 50
90.0
  7
SEACAD_Arial
 11
62.2118066786
 21
203.7296535212
 31
0.0
100
AcDbText
 73
     3
  0
ENDBLK
  5
151
330
149
100
AcDbEntity
  8
0
100
AcDbBlockEnd
  0
BLOCK
  5
15A
330
153
100
AcDbEntity
  8
0
100
AcDbBlockBegin
  2
DMBLK274
 70
     0
 10
0.0
 20
0.0
 30
0.0
  3
DMBLK274
  1
DMBLK274
  0
LWPOLYLINE
  5
154
330
153
100
AcDbEntity
  8
Standard
  6
Continuous
 62
     7
100
AcDbPolyline
 90
        3
 70
     0
 43
0.0
 10
50.1973664003
 20
182.8241424305
 10
46.4473664841
 20
182.1991424445
 10
50.1973664003
 20
181.5741424585
  0
LWPOLYLINE
  5
155
330
153
100
AcDbEntity
  8
Standard
  6
Continuous
 62
     7
100
AcDbPolyline
 90
        3
 70
     0
 43
0.0
 10
55.2973665843
 20
182.8241424305
 10
59.0473665005
 20
182.1991424445
 10
55.2973665843
 20
181.5741424585
  0
LINE
  5
156
330
153
100
AcDbEntity
  8
Standard
  6
Continuous
 62
     7
100
AcDbLine
 10
46.4473664841
 20
189.4361760137
 30
0.0
 11
46.4473664841
 21
180.9491424724
 31
0.0
  0
LINE
  5
157
330
153
100
AcDbEntity
  8
Standard
  6
Continuous
 62
     7
100
AcDbLine
 10
59.0473664841
 20
189.4361760137
 30
0.0
 11
59.0473664841
 21
180.9491424724
 31
0.0
  0
LINE
  5
158
330
153
100
AcDbEntity
  8
Standard
  6
Continuous
 62
     7
100
AcDbLine
 10
46.4473664841
 20
182.1991424445
 30
0.0
 11
59.0473665005
 21
182.1991424445
 31
0.0
  0
TEXT
  5
159
330
153
100
AcDbEntity
  8
Standard
  6
Continuous
 62
     7
100
AcDbText
 10
49.3234534488
 20
182.8241424445
 30
0.0
 40
2.5
  1
12,6
  7
SEACAD_Arial
 11
49.3234534488
 21
185.3241424445
 31
0.0
100
AcDbText
 73
     3
  0
ENDBLK
  5
15B
330
153
100
AcDbEntity
  8
0
100
AcDbBlockEnd
  0
BLOCK
  5
207
330
15C
100
AcDbEntity
  8
0
100
AcDbBlockBegin
  2
SE1
 70
     0
 10
0.0
 20
0.0
 30
0.0
  3
SE1
  1
SE1
  0
LINE
  5
15E
330
15C
100
AcDbEntity
  8
AP_391
  6
Continuous
 62
     7
100
AcDbLine
 10
155.3349731675
 20
209.1158634399
 30
0.0
 11
155.3349731675
 21
207.0097540967
 31
0.0
  0
LINE
  5
15F
330
15C
100
AcDbEntity
  8
AP_391
  6
Continuous
 62
     7
100
AcDbLine
 10
155.3349731675
 20
207.0097540967
 30
0.0
 11
155.5647004159
 21
206.7800268482
 31
0.0
  0
LINE
  5
160
330
15C
100
AcDbEntity
  8
AP_391
  6
Continuous
 62
     7
100
AcDbLine
 10
156.1348497388
 20
206.2098775253
 30
0.0
 11
156.3845774375
 21
205.9601498266
 31
0.0
  0
LINE
  5
161
330
15C
100
AcDbEntity
  8
AP_391
  6
Continuous
 62
     7
100
AcDbLine
 10
156.3845774375
 20
205.9601498266
 30
0.0
 11
156.3984259044
 21
205.9601498266
 31
0.0
  0
ARC
  5
162
330
15C
100
AcDbEntity
  8
AP_391
  6
Continuous
 62
     7
100
AcDbCircle
 10
157.1335518112
 20
205.2553487709
 30
0.0
 40
0.9999978695709412
100
AcDbArc
 50
130.7563386117
 51
132.7350510603
  0
ARC
  5
163
330
15C
100
AcDbEntity
  8
AP_391
  6
Continuous
 62
     7
100
AcDbCircle
 10
157.1335518112
 20
205.2553487709
 30
0.0
 40
0.9999978695709412
100
AcDbArc
 50
250.71150351
 51
109.28849649
  0
ARC
  5
164
330
15C
100
AcDbEntity
  8
AP_391
  6
Continuous
 62
     7
100
AcDbCircle
 10
157.1335518112
 20
205.2553487709
 30
0.0
 40
0.9999978695709412
100
AcDbArc
 50
227.2649489396
 51
229.2436613883
  0
LINE
  5
165
330
15C
100
AcDbEntity
  8
AP_391
  6
Continuous
 62
     7
100
AcDbLine
 10
156.3939145704
 20
204.5520010023
 30
0.0
 11
156.3848497388
 21
204.5520010023
 31
0.0
  0
ARC
  5
166
330
15C
100
AcDbEntity
  8
AP_391
  6
Continuous
 62
     7
100
AcDbCircle
 10
157.1335518112
 20
205.2553487709
 30
0.0
 40
1.999999999999984
100
AcDbArc
 50
240.0429258204
 51
252.5816887241
  0
LINE
  5
167
330
15C
100
AcDbEntity
  8
AP_391
  6
Continuous
 62
     7
100
AcDbLine
 10
156.534860322
 20
203.3470593534
 30
0.0
 11
156.534860322
 21
194.7528010733
 31
0.0
  0
ARC
  5
168
330
15C
100
AcDbEntity
  8
AP_391
  6
Continuous
 62
     7
100
AcDbCircle
 10
157.0347159484
 20
194.7648157628
 30
0.0
 40
0.5000000000000264
100
AcDbArc
 50
181.3769145337
 51
358.6230854662
  0
LINE
  5
169
330
15C
100
AcDbEntity
  8
AP_391
  6
Continuous
 62
     7
100
AcDbLine
 10
157.5345715748
 20
194.7528010733
 30
0.0
 11
157.5345715748
 21
203.2959654114
 31
0.0
  0
ARC
  5
16A
330
15C
100
AcDbEntity
  8
AP_391
  6
Continuous
 62
     7
100
AcDbCircle
 10
157.1335518112
 20
205.2553487709
 30
0.0
 40
1.999999999999985
100
AcDbArc
 50
281.5667771078
 51
345.5224878141
  0
LINE
  5
16B
330
15C
100
AcDbEntity
  8
AP_391
  6
Continuous
 62
     7
100
AcDbLine
 10
159.0700434843
 20
204.7553487709
 30
0.0
 11
160.3999028506
 21
204.7553487709
 31
0.0
  0
ARC
  5
16C
330
15C
100
AcDbEntity
  8
AP_391
  6
Continuous
 62
     7
100
AcDbCircle
 10
162.3363945237
 20
205.2553487709
 30
0.0
 40
1.999999999999984
100
AcDbArc
 50
194.4775121859
 51
258.4332228922
  0
LINE
  5
16D
330
15C
100
AcDbEntity
  8
AP_391
  6
Continuous
 62
     7
100
AcDbLine
 10
161.9353747601
 20
203.2959654114
 30
0.0
 11
161.9353747601
 21
194.7528010733
 31
0.0
  0
ARC
  5
16E
330
15C
100
AcDbEntity
  8
AP_391
  6
Continuous
 62
     7
100
AcDbCircle
 10
162.4352303865
 20
194.7648157628
 30
0.0
 40
0.5000000000000264
100
AcDbArc
 50
181.3769145338
 51
358.6230854661
  0
LINE
  5
16F
330
15C
100
AcDbEntity
  8
AP_391
  6
Continuous
 62
     7
100
AcDbLine
 10
162.9350860129
 20
194.7528010733
 30
0.0
 11
162.9350860129
 21
203.3470593534
 31
0.0
  0
ARC
  5
170
330
15C
100
AcDbEntity
  8
AP_391
  6
Continuous
 62
     7
100
AcDbCircle
 10
162.3363945237
 20
205.2553487709
 30
0.0
 40
1.999999999999985
100
AcDbArc
 50
287.4183112759
 51
299.9570741796
  0
LINE
  5
171
330
15C
100
AcDbEntity
  8
AP_391
  6
Continuous
 62
     7
100
AcDbLine
 10
163.3350965961
 20
203.5225492526
 30
0.0
 11
163.3350965961
 21
204.3020010023
 31
0.0
  0
ARC
  5
172
330
15C
100
AcDbEntity
  8
AP_391
  6
Continuous
 62
     7
100
AcDbCircle
 10
162.3363945237
 20
205.2553487709
 30
0.0
 40
0.9999978695709362
100
AcDbArc
 50
70.5118303766
 51
289.4881696234
  0
LINE
  5
173
330
15C
100
AcDbEntity
  8
AP_391
  6
Continuous
 62
     7
100
AcDbLine
 10
163.0791638203
 20
205.9601498266
 30
0.0
 11
163.0853688974
 21
205.9601498266
 31
0.0
  0
LINE
  5
174
330
15C
100
AcDbEntity
  8
AP_391
  6
Continuous
 62
     7
100
AcDbLine
 10
163.0853688974
 20
205.9601498266
 30
0.0
 11
163.3427399859
 21
206.2175209151
 31
0.0
  0
LINE
  5
175
330
15C
100
AcDbEntity
  8
AP_391
  6
Continuous
 62
     7
100
AcDbLine
 10
163.9080435938
 20
206.782824523
 30
0.0
 11
164.1349731675
 21
207.0097540967
 31
0.0
  0
LINE
  5
176
330
15C
100
AcDbEntity
  8
AP_391
  6
Continuous
 62
     7
100
AcDbLine
 10
164.1349731675
 20
207.0097540967
 30
0.0
 11
164.1349731675
 21
209.1158634399
 31
0.0
  0
LINE
  5
177
330
15C
100
AcDbEntity
  8
AP_391
  6
Continuous
 62
     7
100
AcDbLine
 10
164.1349731675
 20
209.1158634399
 30
0.0
 11
163.0737622452
 21
209.7285538515
 31
0.0
  0
ARC
  5
178
330
15C
100
AcDbEntity
  8
AP_391
  6
Continuous
 62
     7
100
AcDbCircle
 10
162.9737622452
 20
209.5553487708
 30
0.0
 40
0.2000000000000016
100
AcDbArc
 50
60.0
 51
90.0
  0
LINE
  5
179
330
15C
100
AcDbEntity
  8
AP_391
  6
Continuous
 62
     7
100
AcDbLine
 10
162.9737622452
 20
209.7553487708
 30
0.0
 11
162.3349731675
 21
209.7553487708
 31
0.0
  0
ARC
  5
17A
330
15C
100
AcDbEntity
  8
AP_391
  6
Continuous
 62
     7
100
AcDbCircle
 10
162.3349731675
 20
209.5553487708
 30
0.0
 40
0.1999999999999988
100
AcDbArc
 50
90.0
 51
180.0
  0
LINE
  5
17B
330
15C
100
AcDbEntity
  8
AP_391
  6
Continuous
 62
     7
100
AcDbLine
 10
162.1349731675
 20
209.5553487708
 30
0.0
 11
162.1349731675
 21
208.9553487709
 31
0.0
  0
ARC
  5
17C
330
15C
100
AcDbEntity
  8
AP_391
  6
Continuous
 62
     7
100
AcDbCircle
 10
162.3349731675
 20
208.9553487709
 30
0.0
 40
0.1999999999999988
100
AcDbArc
 50
180.0
 51
270.0
  0
LINE
  5
17D
330
15C
100
AcDbEntity
  8
AP_391
  6
Continuous
 62
     7
100
AcDbLine
 10
162.3349731675
 20
208.7553487709
 30
0.0
 11
162.9349731675
 21
208.7553487709
 31
0.0
  0
ARC
  5
17E
330
15C
100
AcDbEntity
  8
AP_391
  6
Continuous
 62
     7
100
AcDbCircle
 10
162.9349731675
 20
208.5553487709
 30
0.0
 40
0.1999999999911448
100
AcDbArc
 50
0.0
 51
90.0
  0
LINE
  5
17F
330
15C
100
AcDbEntity
  8
AP_391
  6
Continuous
 62
     7
100
AcDbLine
 10
163.1349731675
 20
208.5553487709
 30
0.0
 11
163.1349731675
 21
207.4553487709
 31
0.0
  0
ARC
  5
180
330
15C
100
AcDbEntity
  8
AP_391
  6
Continuous
 62
     7
100
AcDbCircle
 10
162.9349731675
 20
207.4553487709
 30
0.0
 40
0.1999999999999988
100
AcDbArc
 50
270.0
 51
0.0
  0
LINE
  5
181
330
15C
100
AcDbEntity
  8
AP_391
  6
Continuous
 62
     7
100
AcDbLine
 10
162.9349731675
 20
207.2553487709
 30
0.0
 11
160.9988154239
 21
207.2553487709
 31
0.0
  0
LINE
  5
182
330
15C
100
AcDbEntity
  8
AP_391
  6
Continuous
 62
     7
100
AcDbLine
 10
160.9988154239
 20
207.2553487709
 30
0.0
 11
160.1327900201
 21
205.7553487709
 31
0.0
  0
LINE
  5
183
330
15C
100
AcDbEntity
  8
AP_391
  6
Continuous
 62
     7
100
AcDbLine
 10
160.1327900201
 20
205.7553487709
 30
0.0
 11
159.3371563148
 21
205.7553487709
 31
0.0
  0
LINE
  5
184
330
15C
100
AcDbEntity
  8
AP_391
  6
Continuous
 62
     7
100
AcDbLine
 10
159.3371563148
 20
205.7553487709
 30
0.0
 11
158.471130911
 21
207.2553487709
 31
0.0
  0
LINE
  5
185
330
15C
100
AcDbEntity
  8
AP_391
  6
Continuous
 62
     7
100
AcDbLine
 10
158.471130911
 20
207.2553487709
 30
0.0
 11
156.5349731675
 21
207.2553487709
 31
0.0
  0
ARC
  5
186
330
15C
100
AcDbEntity
  8
AP_391
  6
Continuous
 62
     7
100
AcDbCircle
 10
156.5349731675
 20
207.4553487709
 30
0.0
 40
0.1999999999999988
100
AcDbArc
 50
180.0
 51
270.0
  0
LINE
  5
187
330
15C
100
AcDbEntity
  8
AP_391
  6
Continuous
 62
     7
100
AcDbLine
 10
156.3349731675
 20
207.4553487709
 30
0.0
 11
156.3349731675
 21
208.5553487709
 31
0.0
  0
ARC
  5
188
330
15C
100
AcDbEntity
  8
AP_391
  6
Continuous
 62
     7
100
AcDbCircle
 10
156.5349731674
 20
208.5553487709
 30
0.0
 40
0.1999999999911439
100
AcDbArc
 50
90.0
 51
180.0
  0
LINE
  5
189
330
15C
100
AcDbEntity
  8
AP_391
  6
Continuous
 62
     7
100
AcDbLine
 10
156.5349731674
 20
208.7553487709
 30
0.0
 11
157.1349731674
 21
208.7553487709
 31
0.0
  0
ARC
  5
18A
330
15C
100
AcDbEntity
  8
AP_391
  6
Continuous
 62
     7
100
AcDbCircle
 10
157.1349731674
 20
208.9553487709
 30
0.0
 40
0.199999999993497
100
AcDbArc
 50
269.9999999981
 51
0.0
  0
LINE
  5
18B
330
15C
100
AcDbEntity
  8
AP_391
  6
Continuous
 62
     7
100
AcDbLine
 10
157.3349731674
 20
208.9553487709
 30
0.0
 11
157.3349731674
 21
209.5553487708
 31
0.0
  0
ARC
  5
18C
330
15C
100
AcDbEntity
  8
AP_391
  6
Continuous
 62
     7
100
AcDbCircle
 10
157.1349731674
 20
209.5553487708
 30
0.0
 40
0.200000000006504
100
AcDbArc
 50
0.0
 51
89.999999999
  0
LINE
  5
18D
330
15C
100
AcDbEntity
  8
AP_391
  6
Continuous
 62
     7
100
AcDbLine
 10
157.1349731674
 20
209.7553487708
 30
0.0
 11
156.4961840897
 21
209.7553487708
 31
0.0
  0
ARC
  5
18E
330
15C
100
AcDbEntity
  8
AP_391
  6
Continuous
 62
     7
100
AcDbCircle
 10
156.4961840897
 20
209.5553487708
 30
0.0
 40
0.2000000000000023
100
AcDbArc
 50
90.0000000008
 51
119.9999999999
  0
LINE
  5
18F
330
15C
100
AcDbEntity
  8
AP_391
  6
Continuous
 62
     7
100
AcDbLine
 10
156.3961840897
 20
209.7285538515
 30
0.0
 11
155.3349731675
 21
209.1158634399
 31
0.0
  0
LINE
  5
190
330
15C
100
AcDbEntity
  8
AP_391
  6
Continuous
 62
     7
100
AcDbLine
 10
163.0850965961
 20
204.5520010023
 30
0.0
 11
163.0836751544
 21
204.5520010023
 31
0.0
  0
LINE
  5
191
330
15C
100
AcDbEntity
  8
AP_391
  6
Continuous
 62
     7
100
AcDbLine
 10
156.3848497388
 20
204.5520010023
 30
0.0
 11
156.1348497388
 21
204.3020010023
 31
0.0
  0
LINE
  5
192
330
15C
100
AcDbEntity
  8
AP_391
  6
Continuous
 62
     7
100
AcDbLine
 10
163.3350965961
 20
204.3020010023
 30
0.0
 11
163.0850965961
 21
204.5520010023
 31
0.0
  0
LINE
  5
193
330
15C
100
AcDbEntity
  8
AP_398
  6
Continuous
 62
     7
100
AcDbLine
 10
155.5851206683
 20
229.5553487708
 30
0.0
 11
155.2851206683
 21
229.2553487708
 31
0.0
  0
LINE
  5
194
330
15C
100
AcDbEntity
  8
AP_398
  6
Continuous
 62
     7
100
AcDbLine
 10
155.2851206683
 20
229.2553487708
 30
0.0
 11
155.2851206683
 21
224.2553487708
 31
0.0
  0
LINE
  5
195
330
15C
100
AcDbEntity
  8
AP_398
  6
Continuous
 62
     7
100
AcDbLine
 10
155.2851206683
 20
224.2553487708
 30
0.0
 11
155.5849278577
 21
223.9555415814
 31
0.0
  0
LINE
  5
196
330
15C
100
AcDbEntity
  8
AP_398
  6
Continuous
 62
     7
100
AcDbLine
 10
155.5849278577
 20
223.9555415814
 30
0.0
 11
155.5868544785
 21
221.9551561459
 31
0.0
  0
LINE
  5
197
330
15C
100
AcDbEntity
  8
AP_398
  6
Continuous
 62
     7
100
AcDbLine
 10
163.8860184772
 20
224.2535838249
 30
0.0
 11
164.1858256666
 21
224.5533910143
 31
0.0
  0
LINE
  5
198
330
15C
100
AcDbEntity
  8
AP_398
  6
Continuous
 62
     7
100
AcDbLine
 10
164.1858256666
 20
224.5533910143
 30
0.0
 11
164.1858256666
 21
229.5533910143
 31
0.0
  0
LINE
  5
199
330
15C
100
AcDbEntity
  8
AP_398
  6
Continuous
 62
     7
100
AcDbLine
 10
164.1858256666
 20
229.5533910143
 30
0.0
 11
163.8858256666
 21
229.8533910143
 31
0.0
  0
LINE
  5
19A
330
15C
100
AcDbEntity
  8
AP_398
  6
Continuous
 62
     7
100
AcDbLine
 10
163.8858256666
 20
229.8533910143
 30
0.0
 11
163.8858256666
 21
236.5553487708
 31
0.0
  0
ARC
  5
19B
330
15C
100
AcDbEntity
  8
AP_398
  6
Continuous
 62
     7
100
AcDbCircle
 10
165.5349731675
 20
190.2553487708
 30
0.0
 40
0.4999999999999996
100
AcDbArc
 50
270.0
 51
0.0
  0
LINE
  5
19C
330
15C
100
AcDbEntity
  8
AP_398
  6
Continuous
 62
     7
100
AcDbLine
 10
165.5349731675
 20
189.7553487708
 30
0.0
 11
164.9349731675
 21
189.7553487708
 31
0.0
  0
ARC
  5
19D
330
15C
100
AcDbEntity
  8
AP_398
  6
Continuous
 62
     7
100
AcDbCircle
 10
162.9349731675
 20
210.5553487708
 30
0.0
 40
0.2000000000000003
100
AcDbArc
 50
90.0
 51
240.0
  0
LINE
  5
19E
330
15C
100
AcDbEntity
  8
AP_398
  6
Continuous
 62
     7
100
AcDbLine
 10
162.9349731675
 20
210.7553487708
 30
0.0
 11
164.4349731675
 21
210.7553487708
 31
0.0
  0
ARC
  5
19F
330
15C
100
AcDbEntity
  8
AP_398
  6
Continuous
 62
     7
100
AcDbCircle
 10
156.5349731675
 20
210.5553487708
 30
0.0
 40
0.2000000000000005
100
AcDbArc
 50
300.0
 51
90.0
  0
LINE
  5
1A0
330
15C
100
AcDbEntity
  8
AP_398
  6
Continuous
 62
     7
100
AcDbLine
 10
156.6349731675
 20
210.38214369
 30
0.0
 11
155.5957426829
 21
209.78214369
 31
0.0
  0
ARC
  5
1A1
330
15C
100
AcDbEntity
  8
AP_398
  6
Continuous
 62
     7
100
AcDbCircle
 10
153.9349731675
 20
190.2553487708
 30
0.0
 40
0.5000000000000004
100
AcDbArc
 50
180.0
 51
270.0
  0
LINE
  5
1A2
330
15C
100
AcDbEntity
  8
AP_398
  6
Continuous
 62
     7
100
AcDbLine
 10
153.4349731675
 20
190.2553487708
 30
0.0
 11
153.4349731675
 21
220.2370440562
 31
0.0
  0
LINE
  5
1A3
330
15C
100
AcDbEntity
  8
AP_398
  6
Continuous
 62
     7
100
AcDbLine
 10
155.3192039699
 20
236.7553487708
 30
0.0
 11
155.3851206683
 21
236.7553487708
 31
0.0
  0
ARC
  5
1A4
330
15C
100
AcDbEntity
  8
AP_398
  6
Continuous
 62
     7
100
AcDbCircle
 10
155.3192039699
 20
236.2553487708
 30
0.0
 40
0.5000000000000004
100
AcDbArc
 50
90.0
 51
175.0
  0
LINE
  5
1A5
330
15C
100
AcDbEntity
  8
AP_398
  6
Continuous
 62
     7
100
AcDbLine
 10
164.648839714
 20
236.2989266421
 30
0.0
 11
166.0159466579
 21
220.67282277
 31
0.0
  0
ARC
  5
1A6
330
15C
100
AcDbEntity
  8
AP_398
  6
Continuous
 62
     7
100
AcDbCircle
 10
164.150742365
 20
236.2553487708
 30
0.0
 40
0.4999999999999993
100
AcDbArc
 50
5.0
 51
90.0
  0
LINE
  5
1A7
330
15C
100
AcDbEntity
  8
AP_398
  6
Continuous
 62
     7
100
AcDbLine
 10
164.0858256666
 20
236.7553487708
 30
0.0
 11
164.150742365
 21
236.7553487708
 31
0.0
  0
ARC
  5
1A8
330
15C
100
AcDbEntity
  8
AP_398
  6
Continuous
 62
     7
100
AcDbCircle
 10
164.0858256666
 20
236.5553487708
 30
0.0
 40
0.1999999999999988
100
AcDbArc
 50
90.0
 51
180.0
  0
LINE
  5
1A9
330
15C
100
AcDbEntity
  8
AP_398
  6
Continuous
 62
     7
100
AcDbLine
 10
155.5851206683
 20
236.5553487708
 30
0.0
 11
155.5851206683
 21
229.5553487708
 31
0.0
  0
ARC
  5
1AA
330
15C
100
AcDbEntity
  8
AP_398
  6
Continuous
 62
     7
100
AcDbCircle
 10
155.3851206683
 20
236.5553487708
 30
0.0
 40
0.1999999999999997
100
AcDbArc
 50
0.0
 51
90.0
  0
LINE
  5
1AB
330
15C
100
AcDbEntity
  8
AP_398
  6
Continuous
 62
     7
100
AcDbLine
 10
163.8838048046
 20
221.9551561459
 30
0.0
 11
163.8860184772
 21
224.2535838249
 31
0.0
  0
ARC
  5
1AC
330
15C
100
AcDbEntity
  8
AP_398
  6
Continuous
 62
     7
100
AcDbCircle
 10
163.6838048973
 20
221.9553487708
 30
0.0
 40
0.1999999999999998
100
AcDbArc
 50
270.0
 51
359.9448170321
  0
LINE
  5
1AD
330
15C
100
AcDbEntity
  8
AP_398
  6
Continuous
 62
     7
100
AcDbLine
 10
154.8349731675
 20
220.2553487708
 30
0.0
 11
154.8349731675
 21
210.9553487708
 31
0.0
  0
ARC
  5
1AE
330
15C
100
AcDbEntity
  8
AP_398
  6
Continuous
 62
     7
100
AcDbCircle
 10
155.0349731675
 20
220.2553487708
 30
0.0
 40
0.2000000000000005
100
AcDbArc
 50
90.0
 51
180.0
  0
LINE
  5
1AF
330
15C
100
AcDbEntity
  8
AP_398
  6
Continuous
 62
     7
100
AcDbLine
 10
164.4349731675
 20
220.4553487708
 30
0.0
 11
155.0349731675
 21
220.4553487708
 31
0.0
  0
ARC
  5
1B0
330
15C
100
AcDbEntity
  8
AP_398
  6
Continuous
 62
     7
100
AcDbCircle
 10
164.4349731675
 20
220.2553487708
 30
0.0
 40
0.1999999999999988
100
AcDbArc
 50
0.0
 51
90.0
  0
LINE
  5
1B1
330
15C
100
AcDbEntity
  8
AP_398
  6
Continuous
 62
     7
100
AcDbLine
 10
164.6349731675
 20
210.9553487708
 30
0.0
 11
164.6349731675
 21
220.2553487708
 31
0.0
  0
ARC
  5
1B2
330
15C
100
AcDbEntity
  8
AP_398
  6
Continuous
 62
     7
100
AcDbCircle
 10
164.4349731675
 20
210.9553487708
 30
0.0
 40
0.1999999999999997
100
AcDbArc
 50
270.0
 51
0.0
  0
LINE
  5
1B3
330
15C
100
AcDbEntity
  8
AP_398
  6
Continuous
 62
     7
100
AcDbLine
 10
155.0349731675
 20
210.7553487708
 30
0.0
 11
156.5349731675
 21
210.7553487708
 31
0.0
  0
ARC
  5
1B4
330
15C
100
AcDbEntity
  8
AP_398
  6
Continuous
 62
     7
100
AcDbCircle
 10
155.0349731675
 20
210.9553487708
 30
0.0
 40
0.2000000000000005
100
AcDbArc
 50
180.0
 51
270.0
  0
LINE
  5
1B5
330
15C
100
AcDbEntity
  8
AP_398
  6
Continuous
 62
     7
100
AcDbLine
 10
154.7349731675
 20
209.5553487708
 30
0.0
 11
154.7349731675
 21
189.9553487708
 31
0.0
  0
ARC
  5
1B6
330
15C
100
AcDbEntity
  8
AP_398
  6
Continuous
 62
     7
100
AcDbCircle
 10
154.9349731675
 20
209.5553487708
 30
0.0
 40
0.1999999999999997
100
AcDbArc
 50
90.0
 51
180.0
  0
LINE
  5
1B7
330
15C
100
AcDbEntity
  8
AP_398
  6
Continuous
 62
     7
100
AcDbLine
 10
155.4957426829
 20
209.7553487708
 30
0.0
 11
154.9349731675
 21
209.7553487708
 31
0.0
  0
ARC
  5
1B8
330
15C
100
AcDbEntity
  8
AP_398
  6
Continuous
 62
     7
100
AcDbCircle
 10
155.4957426829
 20
209.9553487708
 30
0.0
 40
0.1999999999999997
100
AcDbArc
 50
270.0
 51
300.0
  0
LINE
  5
1B9
330
15C
100
AcDbEntity
  8
AP_398
  6
Continuous
 62
     7
100
AcDbLine
 10
163.874203652
 20
209.78214369
 30
0.0
 11
162.8349731675
 21
210.38214369
 31
0.0
  0
ARC
  5
1BA
330
15C
100
AcDbEntity
  8
AP_398
  6
Continuous
 62
     7
100
AcDbCircle
 10
163.974203652
 20
209.9553487708
 30
0.0
 40
0.2000000000000001
100
AcDbArc
 50
240.0
 51
270.0
  0
LINE
  5
1BB
330
15C
100
AcDbEntity
  8
AP_398
  6
Continuous
 62
     7
100
AcDbLine
 10
164.5349731675
 20
209.7553487708
 30
0.0
 11
163.974203652
 21
209.7553487708
 31
0.0
  0
ARC
  5
1BC
330
15C
100
AcDbEntity
  8
AP_398
  6
Continuous
 62
     7
100
AcDbCircle
 10
164.5349731675
 20
209.5553487708
 30
0.0
 40
0.1999999999999997
100
AcDbArc
 50
0.0
 51
90.0
  0
LINE
  5
1BD
330
15C
100
AcDbEntity
  8
AP_398
  6
Continuous
 62
     7
100
AcDbLine
 10
154.5349731675
 20
189.7553487708
 30
0.0
 11
153.9349731675
 21
189.7553487708
 31
0.0
  0
ARC
  5
1BE
330
15C
100
AcDbEntity
  8
AP_398
  6
Continuous
 62
     7
100
AcDbCircle
 10
154.5349731675
 20
189.9553487708
 30
0.0
 40
0.1999999999999988
100
AcDbArc
 50
270.0
 51
0.0
  0
LINE
  5
1BF
330
15C
100
AcDbEntity
  8
AP_398
  6
Continuous
 62
     7
100
AcDbLine
 10
164.7349731675
 20
189.9553487708
 30
0.0
 11
164.7349731675
 21
209.5553487708
 31
0.0
  0
ARC
  5
1C0
330
15C
100
AcDbEntity
  8
AP_398
  6
Continuous
 62
     7
100
AcDbCircle
 10
164.9349731675
 20
189.9553487708
 30
0.0
 40
0.1999999999999997
100
AcDbArc
 50
180.0
 51
270.0
  0
LINE
  5
1C1
330
15C
100
AcDbEntity
  8
AP_398
  6
Continuous
 62
     7
100
AcDbLine
 10
155.7868543857
 20
221.7553487708
 30
0.0
 11
163.6838048973
 21
221.7553487708
 31
0.0
  0
ARC
  5
1C2
330
15C
100
AcDbEntity
  8
AP_398
  6
Continuous
 62
     7
100
AcDbCircle
 10
155.7868543857
 20
221.9553487708
 30
0.0
 40
0.1999999999999988
100
AcDbArc
 50
180.0551829679
 51
270.0
  0
LINE
  5
1C3
330
15C
100
AcDbEntity
  8
AP_398
  6
Continuous
 62
     7
100
AcDbLine
 10
153.453999677
 20
220.67282277
 30
0.0
 11
154.8211066209
 21
236.2989266421
 31
0.0
  0
ARC
  5
1C4
330
15C
100
AcDbEntity
  8
AP_398
  6
Continuous
 62
     7
100
AcDbCircle
 10
158.4349731675
 20
220.2370440562
 30
0.0
 40
4.999999999999999
100
AcDbArc
 50
175.0
 51
180.0
  0
LINE
  5
1C5
330
15C
100
AcDbEntity
  8
AP_398
  6
Continuous
 62
     7
100
AcDbLine
 10
166.0349731675
 20
220.2370440562
 30
0.0
 11
166.0349731675
 21
190.2553487708
 31
0.0
  0
ARC
  5
1C6
330
15C
100
AcDbEntity
  8
AP_398
  6
Continuous
 62
     7
100
AcDbCircle
 10
161.0349731675
 20
220.2370440562
 30
0.0
 40
5.0
100
AcDbArc
 50
0.0
 51
5.0
  0
ARC
  5
1C7
330
15C
100
AcDbEntity
  8
AP_392
  6
Continuous
 62
     7
100
AcDbCircle
 10
163.4455008069
 20
199.6623945771
 30
0.0
 40
0.4000000000000002
100
AcDbArc
 50
97.1885560161
 51
180.0
  0
ARC
  5
1C8
330
15C
100
AcDbEntity
  8
AP_392
  6
Continuous
 62
     7
100
AcDbCircle
 10
163.3457200116
 20
200.4561474884
 30
0.0
 40
0.3999999999998731
100
AcDbArc
 50
277.141310347
 51
90.4268611865
  0
LINE
  5
1C9
330
15C
100
AcDbEntity
  8
AP_392
  6
Continuous
 62
     7
100
AcDbLine
 10
163.3427399859
 20
200.8561363875
 30
0.0
 11
163.3427399859
 21
204.3609215799
 31
0.0
  0
ARC
  5
1CA
330
15C
100
AcDbEntity
  8
AP_392
  6
Continuous
 62
     7
100
AcDbCircle
 10
163.1427399859
 20
204.3609215799
 30
0.0
 40
0.2000000000000062
100
AcDbArc
 50
0.0
 51
135.3304740561
  0
LINE
  5
1CB
330
15C
100
AcDbEntity
  8
AP_392
  6
Continuous
 62
     7
100
AcDbLine
 10
163.000505288
 20
204.5015248896
 30
0.0
 11
162.8735378156
 21
204.3730842425
 31
0.0
  0
ARC
  5
1CC
330
15C
100
AcDbEntity
  8
AP_392
  6
Continuous
 62
     7
100
AcDbCircle
 10
162.7235175018
 20
204.5053487709
 30
0.0
 40
0.1999999999999991
100
AcDbArc
 50
237.5
 51
318.5991768658
  0
LINE
  5
1CD
330
15C
100
AcDbEntity
  8
AP_392
  6
Continuous
 62
     7
100
AcDbLine
 10
162.6160575802
 20
204.3366704817
 30
0.0
 11
161.4387933973
 21
205.0866704817
 31
0.0
  0
ARC
  5
1CE
330
15C
100
AcDbEntity
  8
AP_392
  6
Continuous
 62
     7
100
AcDbCircle
 10
161.546253319
 20
205.2553487709
 30
0.0
 40
0.2000000000000024
100
AcDbArc
 50
122.5
 51
237.5
  0
LINE
  5
1CF
330
15C
100
AcDbEntity
  8
AP_392
  6
Continuous
 62
     7
100
AcDbLine
 10
161.4387933973
 20
205.42402706
 30
0.0
 11
162.6160575802
 21
206.17402706
 31
0.0
  0
ARC
  5
1D0
330
15C
100
AcDbEntity
  8
AP_392
  6
Continuous
 62
     7
100
AcDbCircle
 10
162.7235175018
 20
206.0053487709
 30
0.0
 40
0.2000000000000002
100
AcDbArc
 50
41.4008231342
 51
122.5
  0
LINE
  5
1D1
330
15C
100
AcDbEntity
  8
AP_392
  6
Continuous
 62
     7
100
AcDbLine
 10
162.8735378156
 20
206.1376132992
 30
0.0
 11
163.000505288
 21
206.0091726521
 31
0.0
  0
ARC
  5
1D2
330
15C
100
AcDbEntity
  8
AP_392
  6
Continuous
 62
     7
100
AcDbCircle
 10
163.1427399859
 20
206.1497759619
 30
0.0
 40
0.2000000000000026
100
AcDbArc
 50
224.6695259439
 51
0.0
  0
LINE
  5
1D3
330
15C
100
AcDbEntity
  8
AP_392
  6
Continuous
 62
     7
100
AcDbLine
 10
163.3427399859
 20
206.1497759619
 30
0.0
 11
163.3427399859
 21
206.2175209151
 31
0.0
  0
LINE
  5
1D4
330
15C
100
AcDbEntity
  8
AP_392
  6
Continuous
 62
     7
100
AcDbLine
 10
163.3427399859
 20
206.2175209151
 30
0.0
 11
163.9080435938
 21
206.782824523
 31
0.0
  0
LINE
  5
1D5
330
15C
100
AcDbEntity
  8
AP_392
  6
Continuous
 62
     7
100
AcDbLine
 10
163.9080435938
 20
206.782824523
 30
0.0
 11
164.3425268781
 21
206.5319754819
 31
0.0
  0
LINE
  5
1D6
330
15C
100
AcDbEntity
  8
AP_392
  6
Continuous
 62
     7
100
AcDbLine
 10
164.3425268781
 20
206.5319754819
 30
0.0
 11
164.3425268781
 21
203.8556470567
 31
0.0
  0
ARC
  5
1D7
330
15C
100
AcDbEntity
  8
AP_392
  6
Continuous
 62
     7
100
AcDbCircle
 10
164.3425268781
 20
203.4559453425
 30
0.0
 40
0.3997017142065812
100
AcDbArc
 50
90.0000000003
 51
270.0
  0
LINE
  5
1D8
330
15C
100
AcDbEntity
  8
AP_392
  6
Continuous
 62
     7
100
AcDbLine
 10
164.3425268781
 20
203.0562436283
 30
0.0
 11
164.3425268781
 21
190.6624129219
 31
0.0
  0
ARC
  5
1D9
330
15C
100
AcDbEntity
  8
AP_392
  6
Continuous
 62
     7
100
AcDbCircle
 10
155.1350628466
 20
203.4559453425
 30
0.0
 40
0.3997017142065803
100
AcDbArc
 50
270.0
 51
89.9999999997
  0
LINE
  5
1DA
330
15C
100
AcDbEntity
  8
AP_392
  6
Continuous
 62
     7
100
AcDbLine
 10
155.1350628466
 20
203.8556470567
 30
0.0
 11
155.1350628466
 21
206.5319754819
 31
0.0
  0
LINE
  5
1DB
330
15C
100
AcDbEntity
  8
AP_392
  6
Continuous
 62
     7
100
AcDbLine
 10
155.1350628466
 20
206.5319754819
 30
0.0
 11
155.5647004159
 21
206.7800268482
 31
0.0
  0
LINE
  5
1DC
330
15C
100
AcDbEntity
  8
AP_392
  6
Continuous
 62
     7
100
AcDbLine
 10
155.5647004159
 20
206.7800268482
 30
0.0
 11
156.1348497388
 21
206.2098775253
 31
0.0
  0
LINE
  5
1DD
330
15C
100
AcDbEntity
  8
AP_392
  6
Continuous
 62
     7
100
AcDbLine
 10
156.1348497388
 20
206.2098775253
 30
0.0
 11
156.1348497388
 21
206.1497759619
 31
0.0
  0
ARC
  5
1DE
330
15C
100
AcDbEntity
  8
AP_392
  6
Continuous
 62
     7
100
AcDbCircle
 10
156.3348497388
 20
206.1497759619
 30
0.0
 40
0.2000000000000023
100
AcDbArc
 50
180.0
 51
315.3304740561
  0
LINE
  5
1DF
330
15C
100
AcDbEntity
  8
AP_392
  6
Continuous
 62
     7
100
AcDbLine
 10
156.4770844368
 20
206.0091726521
 30
0.0
 11
156.6040519091
 21
206.1376132992
 31
0.0
  0
ARC
  5
1E0
330
15C
100
AcDbEntity
  8
AP_392
  6
Continuous
 62
     7
100
AcDbCircle
 10
156.7540722229
 20
206.0053487709
 30
0.0
 40
0.1999999999999991
100
AcDbArc
 50
57.5
 51
138.5991768658
  0
LINE
  5
1E1
330
15C
100
AcDbEntity
  8
AP_392
  6
Continuous
 62
     7
100
AcDbLine
 10
156.8615321446
 20
206.17402706
 30
0.0
 11
158.0387963274
 21
205.42402706
 31
0.0
  0
ARC
  5
1E2
330
15C
100
AcDbEntity
  8
AP_392
  6
Continuous
 62
     7
100
AcDbCircle
 10
157.9313364058
 20
205.2553487709
 30
0.0
 40
0.2000000000000002
100
AcDbArc
 50
302.5
 51
57.5
  0
LINE
  5
1E3
330
15C
100
AcDbEntity
  8
AP_392
  6
Continuous
 62
     7
100
AcDbLine
 10
158.0387963274
 20
205.0866704817
 30
0.0
 11
156.8615321446
 21
204.3366704817
 31
0.0
  0
ARC
  5
1E4
330
15C
100
AcDbEntity
  8
AP_392
  6
Continuous
 62
     7
100
AcDbCircle
 10
156.7540722229
 20
204.5053487709
 30
0.0
 40
0.1999999999999995
100
AcDbArc
 50
221.4008231342
 51
302.5
  0
LINE
  5
1E5
330
15C
100
AcDbEntity
  8
AP_392
  6
Continuous
 62
     7
100
AcDbLine
 10
156.6040519091
 20
204.3730842425
 30
0.0
 11
156.4770844368
 21
204.5015248896
 31
0.0
  0
ARC
  5
1E6
330
15C
100
AcDbEntity
  8
AP_392
  6
Continuous
 62
     7
100
AcDbCircle
 10
156.3348497388
 20
204.3609215799
 30
0.0
 40
0.2000000000000023
100
AcDbArc
 50
44.6695259439
 51
180.0
  0
LINE
  5
1E7
330
15C
100
AcDbEntity
  8
AP_392
  6
Continuous
 62
     7
100
AcDbLine
 10
156.1348497388
 20
204.3609215799
 30
0.0
 11
156.1348497388
 21
200.8561363875
 31
0.0
  0
ARC
  5
1E8
330
15C
100
AcDbEntity
  8
AP_392
  6
Continuous
 62
     7
100
AcDbCircle
 10
156.1318697131
 20
200.4561474884
 30
0.0
 40
0.4000000000000005
100
AcDbArc
 50
89.5731388134
 51
262.8586896531
  0
ARC
  5
1E9
330
15C
100
AcDbEntity
  8
AP_392
  6
Continuous
 62
     7
100
AcDbCircle
 10
156.0320889178
 20
199.6623945771
 30
0.0
 40
0.4
100
AcDbArc
 50
0.0
 51
82.811443984
  0
LINE
  5
1EA
330
15C
100
AcDbEntity
  8
AP_392
  6
Continuous
 62
     7
100
AcDbLine
 10
156.4320889178
 20
199.6623945771
 30
0.0
 11
156.4320889178
 21
190.4194472227
 31
0.0
  0
LINE
  5
1EB
330
15C
100
AcDbEntity
  8
AP_392
  6
Continuous
 62
     7
100
AcDbLine
 10
163.0455008069
 20
190.4194472227
 30
0.0
 11
163.0455008069
 21
199.6623945771
 31
0.0
  0
ARC
  5
1EC
330
15C
100
AcDbEntity
  8
AP_392
  6
Continuous
 62
     7
100
AcDbCircle
 10
162.5455008069
 20
190.4194472227
 30
0.0
 40
0.5
100
AcDbArc
 50
284.7827749082
 51
0.0
  0
ARC
  5
1ED
330
15C
100
AcDbEntity
  8
AP_392
  6
Continuous
 62
     7
100
AcDbCircle
 10
159.7387948624
 20
201.0553487708
 30
0.0
 40
11.49999999999735
100
AcDbArc
 50
255.2172250918
 51
284.7827749082
  0
ARC
  5
1EE
330
15C
100
AcDbEntity
  8
AP_392
  6
Continuous
 62
     7
100
AcDbCircle
 10
156.9320889178
 20
190.4194472227
 30
0.0
 40
0.4999999999999997
100
AcDbArc
 50
180.0
 51
255.2172250918
  0
ARC
  5
1EF
330
15C
100
AcDbEntity
  8
AP_392
  6
Continuous
 62
     7
100
AcDbCircle
 10
159.7387948624
 20
201.0553487708
 30
0.0
 40
12.0
100
AcDbArc
 50
250.876102371
 51
289.123897629
  0
ARC
  5
1F0
330
15C
100
AcDbEntity
  8
AP_392
  6
Continuous
 62
     7
100
AcDbCircle
 10
163.3425268781
 20
190.6624129219
 30
0.0
 40
1.0
100
AcDbArc
 50
289.123897629
 51
0.0
  0
LINE
  5
1F1
330
15C
100
AcDbEntity
  8
AP_392
  6
Continuous
 62
     7
100
AcDbLine
 10
155.1350628466
 20
190.6624129219
 30
0.0
 11
155.1350628466
 21
203.0562436283
 31
0.0
  0
ARC
  5
1F2
330
15C
100
AcDbEntity
  8
AP_392
  6
Continuous
 62
     7
100
AcDbCircle
 10
156.1350628466
 20
190.6624129219
 30
0.0
 40
1.0
100
AcDbArc
 50
180.0
 51
250.876102371
  0
LINE
  5
1F3
330
15C
100
AcDbEntity
  8
GLAS_FÜR_8MM
  6
Continuous
 62
     7
100
AcDbLine
 10
155.8358256666
 20
221.7553487708
 30
0.0
 11
163.6358256666
 21
221.7553487708
 31
0.0
  0
LINE
  5
1F4
330
15C
100
AcDbEntity
  8
GLAS_FÜR_8MM
  6
Continuous
 62
     7
100
AcDbLine
 10
163.6358256666
 20
249.4239880969
 30
0.0
 11
163.6358256666
 21
221.7553487708
 31
0.0
  0
LINE
  5
1F5
330
15C
100
AcDbEntity
  8
GLAS_FÜR_8MM
  6
Continuous
 62
     7
100
AcDbLine
 10
155.8358256666
 20
249.4239880969
 30
0.0
 11
155.8358256666
 21
221.7553487708
 31
0.0
  0
CIRCLE
  5
1F6
330
15C
100
AcDbEntity
  8
AJ_149
  6
Continuous
 62
     7
100
AcDbCircle
 10
159.7849731675
 20
215.6053487708
 30
0.0
 40
4.6
  0
ARC
  5
1F7
330
15C
100
AcDbEntity
  8
AJ_149
  6
Continuous
 62
     7
100
AcDbCircle
 10
159.7849731675
 20
215.6053487708
 30
0.0
 40
3.0
100
AcDbArc
 50
170.4059317731
 51
189.5940682269
  0
ARC
  5
1F8
330
15C
100
AcDbEntity
  8
AJ_149
  6
Continuous
 62
     7
100
AcDbCircle
 10
159.7849731675
 20
215.6053487708
 30
0.0
 40
3.000000000000001
100
AcDbArc
 50
260.4059317731
 51
279.5940682269
  0
ARC
  5
1F9
330
15C
100
AcDbEntity
  8
AJ_149
  6
Continuous
 62
     7
100
AcDbCircle
 10
159.7849731675
 20
215.6053487708
 30
0.0
 40
3.0
100
AcDbArc
 50
350.4059317731
 51
9.5940682269
  0
ARC
  5
1FA
330
15C
100
AcDbEntity
  8
AJ_149
  6
Continuous
 62
     7
100
AcDbCircle
 10
159.7849731675
 20
215.6053487708
 30
0.0
 40
3.0
100
AcDbArc
 50
80.4059317731
 51
99.5940682269
  0
LINE
  5
1FB
330
15C
100
AcDbEntity
  8
AJ_149
  6
Continuous
 62
     7
100
AcDbLine
 10
160.2849731675
 20
218.5633886623
 30
0.0
 11
160.2849731675
 21
217.1053487708
 31
0.0
  0
LINE
  5
1FC
330
15C
100
AcDbEntity
  8
AJ_149
  6
Continuous
 62
     7
100
AcDbLine
 10
162.743013059
 20
215.1053487708
 30
0.0
 11
161.2849731675
 21
215.1053487708
 31
0.0
  0
LINE
  5
1FD
330
15C
100
AcDbEntity
  8
AJ_149
  6
Continuous
 62
     7
100
AcDbLine
 10
159.2849731675
 20
212.6473088792
 30
0.0
 11
159.2849731675
 21
214.1053487708
 31
0.0
  0
LINE
  5
1FE
330
15C
100
AcDbEntity
  8
AJ_149
  6
Continuous
 62
     7
100
AcDbLine
 10
156.8269332759
 20
216.1053487708
 30
0.0
 11
158.2849731675
 21
216.1053487708
 31
0.0
  0
LINE
  5
1FF
330
15C
100
AcDbEntity
  8
AJ_149
  6
Continuous
 62
     7
100
AcDbLine
 10
159.2849731675
 20
217.1053487708
 30
0.0
 11
159.2849731675
 21
218.5633886623
 31
0.0
  0
ARC
  5
200
330
15C
100
AcDbEntity
  8
AJ_149
  6
Continuous
 62
     7
100
AcDbCircle
 10
158.2849731675
 20
217.1053487708
 30
0.0
 40
0.9999999999999991
100
AcDbArc
 50
270.0
 51
0.0
  0
LINE
  5
201
330
15C
100
AcDbEntity
  8
AJ_149
  6
Continuous
 62
     7
100
AcDbLine
 10
158.2849731675
 20
215.1053487708
 30
0.0
 11
156.8269332843
 21
215.1053487708
 31
0.0
  0
ARC
  5
202
330
15C
100
AcDbEntity
  8
AJ_149
  6
Continuous
 62
     7
100
AcDbCircle
 10
158.2849731675
 20
214.1053487708
 30
0.0
 40
0.9999999999999991
100
AcDbArc
 50
0.0
 51
90.0
  0
LINE
  5
203
330
15C
100
AcDbEntity
  8
AJ_149
  6
Continuous
 62
     7
100
AcDbLine
 10
160.2849731675
 20
214.1053487708
 30
0.0
 11
160.2849731675
 21
212.6473089291
 31
0.0
  0
ARC
  5
204
330
15C
100
AcDbEntity
  8
AJ_149
  6
Continuous
 62
     7
100
AcDbCircle
 10
161.2849731675
 20
214.1053487708
 30
0.0
 40
0.9999999999999996
100
AcDbArc
 50
90.0
 51
180.0
  0
LINE
  5
205
330
15C
100
AcDbEntity
  8
AJ_149
  6
Continuous
 62
     7
100
AcDbLine
 10
161.2849731675
 20
216.1053487708
 30
0.0
 11
162.7430130674
 21
216.1053487708
 31
0.0
  0
ARC
  5
206
330
15C
100
AcDbEntity
  8
AJ_149
  6
Continuous
 62
     7
100
AcDbCircle
 10
161.2849731675
 20
217.1053487708
 30
0.0
 40
0.9999999999999991
100
AcDbArc
 50
180.0
 51
270.0
  0
ENDBLK
  5
208
330
15C
100
AcDbEntity
  8
0
100
AcDbBlockEnd
  0
ENDSEC
  0
SECTION
  2
ENTITIES
  0
INSERT
  5
70
330
1F
100
AcDbEntity
  8
Standard
100
AcDbBlockReference
  2
SE
 10
0.0
 20
0.0
 30
0.0
  0
DIMENSION
  5
136
330
1F
100
AcDbEntity
  8
Standard
  6
Continuous
 62
     7
100
AcDbDimension
  2
DMBLK271
 10
48.8482189832
 20
244.8708685074
 30
0.0
 11
59.9373846783
 21
244.8708685074
 31
0.0
 70
   161
  1
\A1;<>
 71
     5
 42
-1.0
 73
     0
 74
     0
 75
     0
  3
E-Katalog
100
AcDbAlignedDimension
 13
48.8482189832
 23
221.6861760203
 33
0.0
 14
56.6482189832
 24
221.6861760203
 34
0.0
  0
DIMENSION
  5
13E
330
1F
100
AcDbEntity
  8
Standard
  6
Continuous
 62
     7
100
AcDbDimension
  2
DMBLK272
 10
65.3368072327
 20
221.6861760203
 30
0.0
 11
65.3368072327
 21
229.1861761879
 31
0.0
 70
   160
  1
\A1;<>
 71
     5
 42
-1.0
 73
     0
 74
     0
 75
     0
  3
E-Katalog
100
AcDbAlignedDimension
 13
57.1631356816
 23
236.6861760203
 33
0.0
 14
56.6482189832
 24
221.6861760203
 34
0.0
 50
90.0
100
AcDbRotatedDimension
1001
ACAD
1000
DSTYLE
1002
{
1070
   271
1070
     2
1070
   272
1070
     2
1070
     0
1002
}
  0
DIMENSION
  5
148
330
1F
100
AcDbEntity
  8
Standard
  6
Continuous
 62
     7
100
AcDbDimension
  2
DMBLK273
 10
65.3368066786
 20
189.6861760203
 30
0.0
 11
65.3368066786
 21
205.6861752603
 31
0.0
 70
   160
  1
\A1;<>
 71
     5
 42
-1.0
 73
     0
 74
     0
 75
     0
  3
E-Katalog
100
AcDbAlignedDimension
 13
56.6482189832
 23
221.6861760203
 33
0.0
 14
57.9473664841
 24
189.6861760203
 34
0.0
 50
90.0
100
AcDbRotatedDimension
1001
ACAD
1000
DSTYLE
1002
{
1070
   271
1070
     2
1070
   272
1070
     2
1070
     0
1002
}
  0
DIMENSION
  5
152
330
1F
100
AcDbEntity
  8
Standard
  6
Continuous
 62
     7
100
AcDbDimension
  2
DMBLK274
 10
46.4473664841
 20
182.1991424445
 30
0.0
 11
52.7473664923
 21
182.1991424445
 31
0.0
 70
   161
  1
\A1;<>
 71
     5
 42
-1.0
 73
     0
 74
     0
 75
     0
  3
E-Katalog
100
AcDbAlignedDimension
 13
46.4473664841
 23
190.1861760203
 33
0.0
 14
59.0473664841
 24
190.1861760203
 34
0.0
1001
ACAD
1000
DSTYLE
1002
{
1070
   271
1070
     2
1070
   272
1070
     2
1070
     0
1002
}
  0
INSERT
  5
15D
330
1F
100
AcDbEntity
  8
Standard
100
AcDbBlockReference
  2
SE1
 10
0.0
 20
0.0
 30
0.0
  0
LINE
  5
209
330
1F
100
AcDbEntity
  8
Standard
  6
Continuous
 62
     7
100
AcDbLine
 10
18.1568766159
 20
171.0856000139
 30
0.0
 11
198.0131616313
 21
171.0856000139
 31
0.0
  0
LINE
  5
20A
330
1F
100
AcDbEntity
  8
Standard
  6
Continuous
 62
     7
100
AcDbLine
 10
108.0850191236
 20
248.4701847857
 30
0.0
 11
108.0850191236
 21
78.496657704
 31
0.0
  0
ENDSEC
  0
SECTION
  2
OBJECTS
  0
DICTIONARY
  5
C
330
0
100
AcDbDictionary
281
     1
  3
ACAD_DETAILVIEWSTYLE
350
246
  3
ACAD_GROUP
350
D
  3
ACAD_LAYOUT
350
1A
  3
ACAD_MATERIAL
350
43
  3
ACAD_MLEADERSTYLE
350
6B
  3
ACAD_MLINESTYLE
350
17
  3
ACAD_PLOTSETTINGS
350
19
  3
ACAD_PLOTSTYLENAME
350
E
  3
ACAD_SCALELIST
350
47
  3
ACAD_SECTIONVIEWSTYLE
350
247
  3
ACAD_TABLESTYLE
350
69
  3
ACAD_VISUALSTYLE
350
2A
  3
ACDB_RECOMPOSE_DATA
350
243
  3
AcDbVariableDictionary
350
20B
  0
SUN
  5
6D
330
29
100
AcDbSun
 90
        1
290
     0
 63
     7
421
 16777215
 40
1.0
291
     1
 91
  2455826
 92
 54000000
292
     0
 70
     2
 71
   256
280
     1
  0
DICTIONARY
  5
246
102
{ACAD_REACTORS
330
C
102
}
330
C
100
AcDbDictionary
281
     1
  0
DICTIONARY
  5
D
102
{ACAD_REACTORS
330
C
102
}
330
C
100
AcDbDictionary
281
     1
  0
DICTIONARY
  5
1A
102
{ACAD_REACTORS
330
C
102
}
330
C
100
AcDbDictionary
281
     1
  3
Layout1
350
1E
  3
Model
350
22
  0
DICTIONARY
  5
43
102
{ACAD_REACTORS
330
C
102
}
330
C
100
AcDbDictionary
281
     1
  3
ByBlock
350
45
  3
ByLayer
350
44
  3
Global
350
46
  0
DICTIONARY
  5
6B
102
{ACAD_REACTORS
330
C
102
}
330
C
100
AcDbDictionary
281
     1
  3
Standard
350
6C
  0
DICTIONARY
  5
17
102
{ACAD_REACTORS
330
C
102
}
330
C
100
AcDbDictionary
281
     1
  3
Standard
350
18
  0
DICTIONARY
  5
19
102
{ACAD_REACTORS
330
C
102
}
330
C
100
AcDbDictionary
281
     1
  0
ACDBDICTIONARYWDFLT
  5
E
102
{ACAD_REACTORS
330
C
102
}
330
C
100
AcDbDictionary
281
     1
  3
Normal
350
F
100
AcDbDictionaryWithDefault
340
F
  0
DICTIONARY
  5
47
102
{ACAD_REACTORS
330
C
102
}
330
C
100
AcDbDictionary
281
     1
  3
A0
350
48
  3
A1
350
49
  3
A2
350
4A
  3
A3
350
4B
  3
A4
350
4C
  3
A5
350
4D
  3
A6
350
4E
  3
A7
350
4F
  3
A8
350
50
  3
A9
350
51
  3
B0
350
52
  3
B1
350
53
  3
B2
350
54
  3
B3
350
55
  3
B4
350
56
  3
B5
350
57
  3
B6
350
58
  3
B7
350
59
  3
B8
350
5A
  3
B9
350
5B
  3
C0
350
5C
  3
C1
350
5D
  3
C2
350
5E
  3
C3
350
5F
  3
C4
350
60
  3
C5
350
61
  3
C6
350
62
  3
C7
350
63
  3
C8
350
64
  3
C9
350
65
  3
D0
350
66
  3
D1
350
67
  3
D2
350
68
  0
DICTIONARY
  5
247
102
{ACAD_REACTORS
330
C
102
}
330
C
100
AcDbDictionary
281
     1
  0
DICTIONARY
  5
69
102
{ACAD_REACTORS
330
C
102
}
330
C
100
AcDbDictionary
281
     1
  3
Standard
350
6A
  0
DICTIONARY
  5
2A
102
{ACAD_REACTORS
330
C
102
}
330
C
100
AcDbDictionary
281
     1
  3
2dWireframe
350
2F
  3
Basic
350
32
  3
Brighten
350
36
  3
ColorChange
350
3A
  3
Conceptual
350
34
  3
Dim
350
35
  3
EdgeColorOff
350
3D
  3
Facepattern
350
39
  3
Flat
350
2B
  3
FlatWithEdges
350
2C
  3
Gouraud
350
2D
  3
GouraudWithEdges
350
2E
  3
Hidden
350
31
  3
JitterOff
350
3B
  3
Linepattern
350
38
  3
OverhangOff
350
3C
  3
Realistic
350
33
  3
Shaded
350
42
  3
Shaded with edges
350
41
  3
Shades of Gray
350
3E
  3
Sketchy
350
3F
  3
Thicken
350
37
  3
Wireframe
350
30
  3
X-Ray
350
40
  0
XRECORD
  5
243
102
{ACAD_REACTORS
330
C
102
}
330
C
100
AcDbXrecord
280
     1
 90
        1
330
6A
  0
DICTIONARY
  5
20B
102
{ACAD_REACTORS
330
C
102
}
330
C
100
AcDbDictionary
281
     1
  3
CANNOSCALE
350
20C
  3
CMLEADERSTYLE
350
245
  3
CTABLESTYLE
350
244
  3
XCLIPFRAME
350
20D
  0
LAYOUT
  5
1E
102
{ACAD_REACTORS
330
1A
102
}
330
1A
100
AcDbPlotSettings
  1

  2
none_device
  4

  6

 40
0.0
 41
0.0
 42
0.0
 43
0.0
 44
0.0
 45
0.0
 46
0.0
 47
0.0
 48
0.0
 49
0.0
140
0.0
141
0.0
142
1.0
143
1.0
 70
   688
 72
     1
 73
     0
 74
     5
  7

 75
    16
 76
     0
 77
     2
 78
   300
147
1.0
148
0.0
149
0.0
100
AcDbLayout
  1
Layout1
 70
     1
 71
     1
 10
0.0
 20
0.0
 11
215.9
 21
279.4
 12
0.0
 22
0.0
 32
0.0
 14
0.0
 24
0.0
 34
0.0
 15
215.9
 25
279.4
 35
0.0
146
0.0
 13
0.0
 23
0.0
 33
0.0
 16
1.0
 26
0.0
 36
0.0
 17
0.0
 27
1.0
 37
0.0
 76
     0
330
1B
  0
LAYOUT
  5
22
102
{ACAD_REACTORS
330
1A
102
}
330
1A
100
AcDbPlotSettings
  1

  2
none_device
  4
Letter_(8.50_x_11.00_Inches)
  6

 40
6.35
 41
6.35
 42
6.35000508
 43
6.35000508
 44
215.9
 45
279.4
 46
0.0
 47
0.0
 48
0.0
 49
0.0
140
0.0
141
0.0
142
1.0
143
1.0
 70
  1712
 72
     1
 73
     0
 74
     0
  7

 75
     0
 76
     0
 77
     2
 78
   300
147
1.0
148
0.0
149
0.0
100
AcDbLayout
  1
Model
 70
     1
 71
     0
 10
0.0
 20
0.0
 11
215.9
 21
279.4
 12
0.0
 22
0.0
 32
0.0
 14
0.0
 24
0.0
 34
0.0
 15
215.9
 25
279.4
 35
0.0
146
0.0
 13
0.0
 23
0.0
 33
0.0
 16
1.0
 26
0.0
 36
0.0
 17
0.0
 27
1.0
 37
0.0
 76
     0
330
1F
331
29
  0
MATERIAL
  5
45
102
{ACAD_REACTORS
330
43
102
}
330
43
100
AcDbMaterial
  1
ByBlock
 72
     1
 94
      127
  0
MATERIAL
  5
44
102
{ACAD_REACTORS
330
43
102
}
330
43
100
AcDbMaterial
  1
ByLayer
 72
     1
 94
      127
  0
MATERIAL
  5
46
102
{ACAD_REACTORS
330
43
102
}
330
43
100
AcDbMaterial
  1
Global
 72
     1
 94
      127
  0
MLEADERSTYLE
  5
6C
102
{ACAD_REACTORS
330
6B
102
}
102
{ACAD_XDICTIONARY
360
241
102
}
330
6B
100
AcDbMLeaderStyle
170
     2
171
     1
172
     0
 90
        2
 40
0.0
 41
0.0
173
     1
 91
-1056964608
340
14
 92
       -2
290
     1
 42
2.0
291
     1
 43
8.0
  3
Standard
341
0
 44
4.0
300

342
11
174
     1
178
     6
175
     1
176
     0
 93
-1056964608
 45
4.0
292
     0
297
     0
 46
4.0
343
0
 94
-1056964608
 47
1.0
 49
1.0
140
1.0
293
     1
141
0.0
294
     1
177
     0
142
1.0
295
     0
296
     0
143
3.75
1001
ACAD_MLEADERVER
1070
     2
  0
MLINESTYLE
  5
18
102
{ACAD_REACTORS
330
17
102
}
330
17
100
AcDbMlineStyle
  2
Standard
 70
     0
  3

 62
   256
 51
90.0
 52
90.0
 71
     2
 49
0.5
 62
   256
  6
BYLAYER
 49
-0.5
 62
   256
  6
BYLAYER
  0
ACDBPLACEHOLDER
  5
F
102
{ACAD_REACTORS
330
E
102
}
330
E
  0
SCALE
  5
48
102
{ACAD_REACTORS
330
47
102
}
330
47
100
AcDbScale
 70
     0
300
1:1
140
1.0
141
1.0
290
     1
  0
SCALE
  5
49
102
{ACAD_REACTORS
330
47
102
}
330
47
100
AcDbScale
 70
     0
300
1:2
140
1.0
141
2.0
290
     0
  0
SCALE
  5
4A
102
{ACAD_REACTORS
330
47
102
}
330
47
100
AcDbScale
 70
     0
300
1:4
140
1.0
141
4.0
290
     0
  0
SCALE
  5
4B
102
{ACAD_REACTORS
330
47
102
}
330
47
100
AcDbScale
 70
     0
300
1:5
140
1.0
141
5.0
290
     0
  0
SCALE
  5
4C
102
{ACAD_REACTORS
330
47
102
}
330
47
100
AcDbScale
 70
     0
300
1:8
140
1.0
141
8.0
290
     0
  0
SCALE
  5
4D
102
{ACAD_REACTORS
330
47
102
}
330
47
100
AcDbScale
 70
     0
300
1:10
140
1.0
141
10.0
290
     0
  0
SCALE
  5
4E
102
{ACAD_REACTORS
330
47
102
}
330
47
100
AcDbScale
 70
     0
300
1:16
140
1.0
141
16.0
290
     0
  0
SCALE
  5
4F
102
{ACAD_REACTORS
330
47
102
}
330
47
100
AcDbScale
 70
     0
300
1:20
140
1.0
141
20.0
290
     0
  0
SCALE
  5
50
102
{ACAD_REACTORS
330
47
102
}
330
47
100
AcDbScale
 70
     0
300
1:30
140
1.0
141
30.0
290
     0
  0
SCALE
  5
51
102
{ACAD_REACTORS
330
47
102
}
330
47
100
AcDbScale
 70
     0
300
1:40
140
1.0
141
40.0
290
     0
  0
SCALE
  5
52
102
{ACAD_REACTORS
330
47
102
}
330
47
100
AcDbScale
 70
     0
300
1:50
140
1.0
141
50.0
290
     0
  0
SCALE
  5
53
102
{ACAD_REACTORS
330
47
102
}
330
47
100
AcDbScale
 70
     0
300
1:100
140
1.0
141
100.0
290
     0
  0
SCALE
  5
54
102
{ACAD_REACTORS
330
47
102
}
330
47
100
AcDbScale
 70
     0
300
2:1
140
2.0
141
1.0
290
     0
  0
SCALE
  5
55
102
{ACAD_REACTORS
330
47
102
}
330
47
100
AcDbScale
 70
     0
300
4:1
140
4.0
141
1.0
290
     0
  0
SCALE
  5
56
102
{ACAD_REACTORS
330
47
102
}
330
47
100
AcDbScale
 70
     0
300
8:1
140
8.0
141
1.0
290
     0
  0
SCALE
  5
57
102
{ACAD_REACTORS
330
47
102
}
330
47
100
AcDbScale
 70
     0
300
10:1
140
10.0
141
1.0
290
     0
  0
SCALE
  5
58
102
{ACAD_REACTORS
330
47
102
}
330
47
100
AcDbScale
 70
     0
300
100:1
140
100.0
141
1.0
290
     0
  0
SCALE
  5
59
102
{ACAD_REACTORS
330
47
102
}
330
47
100
AcDbScale
 70
     0
300
1/128" = 1'-0"
140
0.0078125
141
12.0
290
     0
  0
SCALE
  5
5A
102
{ACAD_REACTORS
330
47
102
}
330
47
100
AcDbScale
 70
     0
300
1/64" = 1'-0"
140
0.015625
141
12.0
290
     0
  0
SCALE
  5
5B
102
{ACAD_REACTORS
330
47
102
}
330
47
100
AcDbScale
 70
     0
300
1/32" = 1'-0"
140
0.03125
141
12.0
290
     0
  0
SCALE
  5
5C
102
{ACAD_REACTORS
330
47
102
}
330
47
100
AcDbScale
 70
     0
300
1/16" = 1'-0"
140
0.0625
141
12.0
290
     0
  0
SCALE
  5
5D
102
{ACAD_REACTORS
330
47
102
}
330
47
100
AcDbScale
 70
     0
300
3/32" = 1'-0"
140
0.09375
141
12.0
290
     0
  0
SCALE
  5
5E
102
{ACAD_REACTORS
330
47
102
}
330
47
100
AcDbScale
 70
     0
300
1/8" = 1'-0"
140
0.125
141
12.0
290
     0
  0
SCALE
  5
5F
102
{ACAD_REACTORS
330
47
102
}
330
47
100
AcDbScale
 70
     0
300
3/16" = 1'-0"
140
0.1875
141
12.0
290
     0
  0
SCALE
  5
60
102
{ACAD_REACTORS
330
47
102
}
330
47
100
AcDbScale
 70
     0
300
1/4" = 1'-0"
140
0.25
141
12.0
290
     0
  0
SCALE
  5
61
102
{ACAD_REACTORS
330
47
102
}
330
47
100
AcDbScale
 70
     0
300
3/8" = 1'-0"
140
0.375
141
12.0
290
     0
  0
SCALE
  5
62
102
{ACAD_REACTORS
330
47
102
}
330
47
100
AcDbScale
 70
     0
300
1/2" = 1'-0"
140
0.5
141
12.0
290
     0
  0
SCALE
  5
63
102
{ACAD_REACTORS
330
47
102
}
330
47
100
AcDbScale
 70
     0
300
3/4" = 1'-0"
140
0.75
141
12.0
290
     0
  0
SCALE
  5
64
102
{ACAD_REACTORS
330
47
102
}
330
47
100
AcDbScale
 70
     0
300
1" = 1'-0"
140
1.0
141
12.0
290
     0
  0
SCALE
  5
65
102
{ACAD_REACTORS
330
47
102
}
330
47
100
AcDbScale
 70
     0
300
1-1/2" = 1'-0"
140
1.5
141
12.0
290
     0
  0
SCALE
  5
66
102
{ACAD_REACTORS
330
47
102
}
330
47
100
AcDbScale
 70
     0
300
3" = 1'-0"
140
3.0
141
12.0
290
     0
  0
SCALE
  5
67
102
{ACAD_REACTORS
330
47
102
}
330
47
100
AcDbScale
 70
     0
300
6" = 1'-0"
140
6.0
141
12.0
290
     0
  0
SCALE
  5
68
102
{ACAD_REACTORS
330
47
102
}
330
47
100
AcDbScale
 70
     0
300
1'-0" = 1'-0"
140
12.0
141
12.0
290
     0
  0
TABLESTYLE
  5
6A
102
{ACAD_REACTORS
330
69
102
}
102
{ACAD_XDICTIONARY
360
23E
102
}
330
69
100
AcDbTableStyle
  3
Standard
 70
     0
 71
     0
 40
0.06
 41
0.06
280
     0
281
     0
  7
Standard
140
4.5
170
     2
 62
     0
 63
   257
283
     0
 90
        4
 91
        0
  1

274
    -2
284
     1
 64
     0
275
    -2
285
     1
 65
     0
276
    -2
286
     1
 66
     0
277
    -2
287
     1
 67
     0
278
    -2
288
     1
 68
     0
279
    -2
289
     1
 69
     0
  7
Standard
140
6.0
170
     5
 62
     0
 63
   257
283
     0
 90
        4
 91
        0
  1

274
    -2
284
     1
 64
     0
275
    -2
285
     1
 65
     0
276
    -2
286
     1
 66
     0
277
    -2
287
     1
 67
     0
278
    -2
288
     1
 68
     0
279
    -2
289
     1
 69
     0
  7
Standard
140
4.5
170
     5
 62
     0
 63
   257
283
     0
 90
        4
 91
        0
  1

274
    -2
284
     1
 64
     0
275
    -2
285
     1
 65
     0
276
    -2
286
     1
 66
     0
277
    -2
287
     1
 67
     0
278
    -2
288
     1
 68
     0
279
    -2
289
     1
 69
     0
  0
VISUALSTYLE
  5
2F
102
{ACAD_REACTORS
330
2A
102
}
102
{ACAD_XDICTIONARY
360
216
102
}
330
2A
100
AcDbVisualStyle
  2
2dWireframe
 70
     4
 71
     0
 72
     2
 73
     0
 90
        0
 40
0.6
 41
30.0
 62
     5
 63
     7
421
 16777215
 74
     1
 91
        4
 64
     7
 65
   257
 75
     1
175
     1
 42
1.0
 92
        0
 66
   257
 43
1.0
 76
     1
 77
     6
 78
     2
 67
     7
 79
     5
170
     0
171
     0
290
     0
174
     0
 93
        1
 44
0.0
173
     0
291
     0
 45
0.0
  0
VISUALSTYLE
  5
32
102
{ACAD_REACTORS
330
2A
102
}
102
{ACAD_XDICTIONARY
360
21C
102
}
330
2A
100
AcDbVisualStyle
  2
Basic
 70
     7
 71
     1
 72
     0
 73
     1
 90
        0
 40
0.6
 41
30.0
 62
     5
 63
     7
421
 16777215
 74
     0
 91
        4
 64
     7
 65
   257
 75
     1
175
     1
 42
1.0
 92
        8
 66
     7
 43
1.0
 76
     1
 77
     6
 78
     2
 67
     7
 79
     5
170
     0
171
     0
290
     0
174
     0
 93
        1
 44
0.0
173
     0
291
     1
 45
0.0
  0
VISUALSTYLE
  5
36
102
{ACAD_REACTORS
330
2A
102
}
102
{ACAD_XDICTIONARY
360
224
102
}
330
2A
100
AcDbVisualStyle
  2
Brighten
 70
    12
 71
     2
 72
     2
 73
     0
 90
        0
 40
0.6
 41
30.0
 62
     5
 63
     7
421
 16777215
 74
     1
 91
        4
 64
     7
 65
   257
 75
     1
175
     1
 42
1.0
 92
        8
 66
     7
 43
1.0
 76
     1
 77
     6
 78
     2
 67
     7
 79
     5
170
     0
171
     0
290
     0
174
     0
 93
        1
 44
50.0
173
     0
291
     1
 45
0.0
  0
VISUALSTYLE
  5
3A
102
{ACAD_REACTORS
330
2A
102
}
102
{ACAD_XDICTIONARY
360
22C
102
}
330
2A
100
AcDbVisualStyle
  2
ColorChange
 70
    16
 71
     2
 72
     2
 73
     3
 90
        0
 40
0.6
 41
30.0
 62
     5
 63
     8
421
  8421504
 74
     1
 91
        4
 64
     7
 65
   257
 75
     1
175
     1
 42
1.0
 92
        8
 66
     8
424
  8421504
 43
1.0
 76
     1
 77
     6
 78
     2
 67
     7
 79
     5
170
     0
171
     0
290
     0
174
     0
 93
        1
 44
0.0
173
     0
291
     1
 45
0.0
  0
VISUALSTYLE
  5
34
102
{ACAD_REACTORS
330
2A
102
}
102
{ACAD_XDICTIONARY
360
220
102
}
330
2A
100
AcDbVisualStyle
  2
Conceptual
 70
     9
 71
     3
 72
     2
 73
     0
 90
        0
 40
0.6
 41
30.0
 62
     5
 63
     7
421
 16777215
 74
     2
 91
        2
 64
     7
 65
   257
 75
     1
175
     1
 42
179.0
 92
        8
 66
     7
 43
1.0
 76
     1
 77
     6
 78
     2
 67
     7
 79
     3
170
     0
171
     0
290
     0
174
     0
 93
        1
 44
0.0
173
     0
291
     0
 45
0.0
  0
VISUALSTYLE
  5
35
102
{ACAD_REACTORS
330
2A
102
}
102
{ACAD_XDICTIONARY
360
222
102
}
330
2A
100
AcDbVisualStyle
  2
Dim
 70
    11
 71
     2
 72
     2
 73
     0
 90
        0
 40
0.6
 41
30.0
 62
     5
 63
     7
421
 16777215
 74
     1
 91
        4
 64
     7
 65
   257
 75
     1
175
     1
 42
1.0
 92
        8
 66
     7
 43
1.0
 76
     1
 77
     6
 78
     2
 67
     7
 79
     5
170
     0
171
     0
290
     0
174
     0
 93
        1
 44
-50.0
173
     0
291
     1
 45
0.0
  0
VISUALSTYLE
  5
3D
102
{ACAD_REACTORS
330
2A
102
}
102
{ACAD_XDICTIONARY
360
232
102
}
330
2A
100
AcDbVisualStyle
  2
EdgeColorOff
 70
    22
 71
     2
 72
     2
 73
     0
 90
        0
 40
0.6
 41
30.0
 62
     5
 63
     7
421
 16777215
 74
     1
 91
        4
 64
     7
 65
   257
 75
     1
175
     1
 42
1.0
 92
        8
 66
     7
 43
1.0
 76
     1
 77
     6
 78
     2
 67
     7
 79
     5
170
     0
171
     0
290
     0
174
     0
 93
        1
 44
0.0
173
     0
291
     1
 45
0.0
  0
VISUALSTYLE
  5
39
102
{ACAD_REACTORS
330
2A
102
}
102
{ACAD_XDICTIONARY
360
22A
102
}
330
2A
100
AcDbVisualStyle
  2
Facepattern
 70
    15
 71
     2
 72
     2
 73
     0
 90
        0
 40
0.6
 41
30.0
 62
     5
 63
     7
421
 16777215
 74
     1
 91
        4
 64
     7
 65
   257
 75
     1
175
     1
 42
1.0
 92
        8
 66
     7
 43
1.0
 76
     1
 77
     6
 78
     2
 67
     7
 79
     5
170
     0
171
     0
290
     0
174
     0
 93
        1
 44
0.0
173
     0
291
     1
 45
0.0
  0
VISUALSTYLE
  5
2B
102
{ACAD_REACTORS
330
2A
102
}
102
{ACAD_XDICTIONARY
360
20E
102
}
330
2A
100
AcDbVisualStyle
  2
Flat
 70
     0
 71
     2
 72
     1
 73
     1
 90
        2
 40
0.6
 41
30.0
 62
     5
 63
     7
421
 16777215
 74
     0
 91
        0
 64
     7
 65
   257
 75
     1
175
     1
 42
1.0
 92
        8
 66
     7
 43
1.0
 76
     1
 77
     6
 78
     2
 67
     7
 79
     5
170
     0
171
     0
290
     0
174
     0
 93
       13
 44
0.0
173
     0
291
     1
 45
0.0
  0
VISUALSTYLE
  5
2C
102
{ACAD_REACTORS
330
2A
102
}
102
{ACAD_XDICTIONARY
360
210
102
}
330
2A
100
AcDbVisualStyle
  2
FlatWithEdges
 70
     1
 71
     2
 72
     1
 73
     1
 90
        2
 40
0.6
 41
30.0
 62
     5
 63
     7
421
 16777215
 74
     1
 91
        0
 64
     7
 65
   257
 75
     1
175
     1
 42
1.0
 92
        0
 66
   257
 43
1.0
 76
     1
 77
     6
 78
     2
 67
     7
 79
     5
170
     0
171
     0
290
     0
174
     0
 93
       13
 44
0.0
173
     0
291
     1
 45
0.0
  0
VISUALSTYLE
  5
2D
102
{ACAD_REACTORS
330
2A
102
}
102
{ACAD_XDICTIONARY
360
212
102
}
330
2A
100
AcDbVisualStyle
  2
Gouraud
 70
     2
 71
     2
 72
     2
 73
     1
 90
        2
 40
0.6
 41
30.0
 62
     5
 63
     7
421
 16777215
 74
     0
 91
        0
 64
     7
 65
   257
 75
     1
175
     1
 42
1.0
 92
        0
 66
     7
 43
1.0
 76
     1
 77
     6
 78
     2
 67
     7
 79
     5
170
     0
171
     0
290
     0
174
     0
 93
       13
 44
0.0
173
     0
291
     1
 45
0.0
  0
VISUALSTYLE
  5
2E
102
{ACAD_REACTORS
330
2A
102
}
102
{ACAD_XDICTIONARY
360
214
102
}
330
2A
100
AcDbVisualStyle
  2
GouraudWithEdges
 70
     3
 71
     2
 72
     2
 73
     1
 90
        2
 40
0.6
 41
30.0
 62
     5
 63
     7
421
 16777215
 74
     1
 91
        0
 64
     7
 65
   257
 75
     1
175
     1
 42
1.0
 92
        0
 66
   257
 43
1.0
 76
     1
 77
     6
 78
     2
 67
     7
 79
     5
170
     0
171
     0
290
     0
174
     0
 93
       13
 44
0.0
173
     0
291
     1
 45
0.0
  0
VISUALSTYLE
  5
31
102
{ACAD_REACTORS
330
2A
102
}
102
{ACAD_XDICTIONARY
360
21A
102
}
330
2A
100
AcDbVisualStyle
  2
Hidden
 70
     6
 71
     1
 72
     2
 73
     2
 90
        0
 40
0.6
 41
30.0
 62
     5
 63
     7
421
 16777215
 74
     2
 91
        2
 64
     7
 65
   257
 75
     2
175
     1
 42
40.0
 92
        0
 66
   257
 43
1.0
 76
     1
 77
     6
 78
     2
 67
     7
 79
     3
170
     0
171
     0
290
     0
174
     0
 93
        1
 44
0.0
173
     0
291
     0
 45
0.0
  0
VISUALSTYLE
  5
3B
102
{ACAD_REACTORS
330
2A
102
}
102
{ACAD_XDICTIONARY
360
22E
102
}
330
2A
100
AcDbVisualStyle
  2
JitterOff
 70
    20
 71
     2
 72
     2
 73
     0
 90
        0
 40
0.6
 41
30.0
 62
     5
 63
     7
421
 16777215
 74
     1
 91
        4
 64
     7
 65
   257
 75
     1
175
     1
 42
1.0
 92
       10
 66
     7
 43
1.0
 76
     1
 77
     6
 78
     2
 67
     7
 79
     5
170
     0
171
     0
290
     0
174
     0
 93
        1
 44
0.0
173
     0
291
     1
 45
0.0
  0
VISUALSTYLE
  5
38
102
{ACAD_REACTORS
330
2A
102
}
102
{ACAD_XDICTIONARY
360
228
102
}
330
2A
100
AcDbVisualStyle
  2
Linepattern
 70
    14
 71
     2
 72
     2
 73
     0
 90
        0
 40
0.6
 41
30.0
 62
     5
 63
     7
421
 16777215
 74
     1
 91
        4
 64
     7
 65
   257
 75
     7
175
     7
 42
1.0
 92
        8
 66
     7
 43
1.0
 76
     1
 77
     6
 78
     2
 67
     7
 79
     5
170
     0
171
     0
290
     0
174
     0
 93
        1
 44
0.0
173
     0
291
     1
 45
0.0
  0
VISUALSTYLE
  5
3C
102
{ACAD_REACTORS
330
2A
102
}
102
{ACAD_XDICTIONARY
360
230
102
}
330
2A
100
AcDbVisualStyle
  2
OverhangOff
 70
    21
 71
     2
 72
     2
 73
     0
 90
        0
 40
0.6
 41
30.0
 62
     5
 63
     7
421
 16777215
 74
     1
 91
        4
 64
     7
 65
   257
 75
     1
175
     1
 42
1.0
 92
        9
 66
     7
 43
1.0
 76
     1
 77
     6
 78
     2
 67
     7
 79
     5
170
     0
171
     0
290
     0
174
     0
 93
        1
 44
0.0
173
     0
291
     1
 45
0.0
  0
VISUALSTYLE
  5
33
102
{ACAD_REACTORS
330
2A
102
}
102
{ACAD_XDICTIONARY
360
21E
102
}
330
2A
100
AcDbVisualStyle
  2
Realistic
 70
     8
 71
     2
 72
     3
 73
     0
 90
        2
 40
0.6
 41
30.0
 62
     5
 63
     7
421
 16777215
 74
     0
 91
        0
 64
     7
 65
   257
 75
     1
175
     1
 42
1.0
 92
        8
 66
   257
 43
1.0
 76
     1
 77
     6
 78
     2
 67
     7
 79
     3
170
     0
171
     0
290
     0
174
     0
 93
       13
 44
0.0
173
     0
291
     0
 45
0.0
  0
VISUALSTYLE
  5
42
102
{ACAD_REACTORS
330
2A
102
}
102
{ACAD_XDICTIONARY
360
23C
102
}
330
2A
100
AcDbVisualStyle
  2
Shaded
 70
    27
 71
     2
 72
     2
 73
     1
 90
        2
 40
0.6
 41
30.0
 62
     5
 63
     7
421
 16777215
 74
     0
 91
        4
 64
     7
 65
   257
 75
     1
175
     1
 42
1.0
 92
        8
 66
   257
 43
1.0
 76
     1
 77
     6
 78
     2
 67
     8
425
  7895160
 79
     3
170
     0
171
     0
290
     0
174
     0
 93
        5
 44
0.0
173
     0
291
     0
 45
0.0
  0
VISUALSTYLE
  5
41
102
{ACAD_REACTORS
330
2A
102
}
102
{ACAD_XDICTIONARY
360
23A
102
}
330
2A
100
AcDbVisualStyle
  2
Shaded with edges
 70
    26
 71
     2
 72
     2
 73
     1
 90
        2
 40
0.6
 41
30.0
 62
     5
 63
     7
421
 16777215
 74
     1
 91
       10
 64
     7
 65
   257
 75
     2
175
     1
 42
1.0
 92
        8
 66
   257
 43
1.0
 76
     1
 77
     6
 78
     2
 67
     7
 79
     3
170
     0
171
     0
290
     0
174
     0
 93
        5
 44
0.0
173
     0
291
     0
 45
0.0
  0
VISUALSTYLE
  5
3E
102
{ACAD_REACTORS
330
2A
102
}
102
{ACAD_XDICTIONARY
360
234
102
}
330
2A
100
AcDbVisualStyle
  2
Shades of Gray
 70
    23
 71
     2
 72
     2
 73
     3
 90
        0
 40
0.6
 41
30.0
 62
     5
 63
     7
421
 16777215
 74
     2
 91
        2
 64
     7
 65
     7
 75
     1
175
     1
 42
40.0
 92
        8
 66
     7
 43
1.0
 76
     1
 77
     6
 78
     2
 67
     7
 79
     3
170
     0
171
     0
290
     0
174
     0
 93
        1
 44
0.0
173
     0
291
     0
 45
0.0
  0
VISUALSTYLE
  5
3F
102
{ACAD_REACTORS
330
2A
102
}
102
{ACAD_XDICTIONARY
360
236
102
}
330
2A
100
AcDbVisualStyle
  2
Sketchy
 70
    24
 71
     1
 72
     2
 73
     2
 90
        0
 40
0.6
 41
30.0
 62
     5
 63
     7
421
 16777215
 74
     2
 91
        2
 64
     7
 65
     7
 75
     1
175
     1
 42
40.0
 92
       11
 66
     7
 43
1.0
 76
     1
 77
     6
 78
     2
 67
     7
 79
     6
170
     0
171
     0
290
     0
174
     0
 93
        1
 44
0.0
173
     0
291
     0
 45
0.0
  0
VISUALSTYLE
  5
37
102
{ACAD_REACTORS
330
2A
102
}
102
{ACAD_XDICTIONARY
360
226
102
}
330
2A
100
AcDbVisualStyle
  2
Thicken
 70
    13
 71
     2
 72
     2
 73
     0
 90
        0
 40
0.6
 41
30.0
 62
     5
 63
     7
421
 16777215
 74
     1
 91
        4
 64
     7
 65
   257
 75
     1
175
     1
 42
1.0
 92
       12
 66
     7
 43
1.0
 76
     1
 77
     6
 78
     2
 67
     7
 79
     5
170
     0
171
     0
290
     0
174
     0
 93
        1
 44
0.0
173
     0
291
     1
 45
0.0
  0
VISUALSTYLE
  5
30
102
{ACAD_REACTORS
330
2A
102
}
102
{ACAD_XDICTIONARY
360
218
102
}
330
2A
100
AcDbVisualStyle
  2
Wireframe
 70
     5
 71
     0
 72
     2
 73
     0
 90
        0
 40
0.6
 41
30.0
 62
     5
 63
     7
421
 16777215
 74
     1
 91
        4
 64
     7
 65
   257
 75
     1
175
     1
 42
1.0
 92
        0
 66
   257
 43
1.0
 76
     1
 77
     6
 78
     2
 67
     7
 79
     3
170
     0
171
     0
290
     0
174
     0
 93
        1
 44
0.0
173
     0
291
     0
 45
0.0
  0
VISUALSTYLE
  5
40
102
{ACAD_REACTORS
330
2A
102
}
102
{ACAD_XDICTIONARY
360
238
102
}
330
2A
100
AcDbVisualStyle
  2
X-Ray
 70
    25
 71
     2
 72
     2
 73
     1
 90
        1
 40
0.5
 41
30.0
 62
     5
 63
     7
421
 16777215
 74
     1
 91
        0
 64
     7
 65
   257
 75
     1
175
     1
 42
1.0
 92
        8
 66
     7
 43
1.0
 76
     1
 77
     6
 78
     2
 67
     7
 79
     3
170
     0
171
     0
290
     0
174
     0
 93
       13
 44
0.0
173
     0
291
     0
 45
0.0
  0
DICTIONARYVAR
  5
20C
102
{ACAD_REACTORS
330
20B
102
}
330
20B
100
DictionaryVariables
280
     0
  1
1:1
  0
DICTIONARYVAR
  5
245
102
{ACAD_REACTORS
330
20B
102
}
330
20B
100
DictionaryVariables
280
     0
  1
Standard
  0
DICTIONARYVAR
  5
244
102
{ACAD_REACTORS
330
20B
102
}
330
20B
100
DictionaryVariables
280
     0
  1
Standard
  0
DICTIONARYVAR
  5
20D
102
{ACAD_REACTORS
330
20B
102
}
330
20B
100
DictionaryVariables
280
     0
  1
2
  0
DICTIONARY
  5
241
330
6C
100
AcDbDictionary
280
     1
281
     1
  3
ACAD_XREC_ROUNDTRIP
360
242
  0
DICTIONARY
  5
23E
330
6A
100
AcDbDictionary
280
     1
281
     1
  3
ACAD_ROUNDTRIP_2008_TABLESTYLE_CELLSTYLEMAP
360
23F
  0
DICTIONARY
  5
216
330
2F
100
AcDbDictionary
280
     1
281
     1
  3
ACAD_XREC_ROUNDTRIP
360
217
  0
DICTIONARY
  5
21C
330
32
100
AcDbDictionary
280
     1
281
     1
  3
ACAD_XREC_ROUNDTRIP
360
21D
  0
DICTIONARY
  5
224
330
36
100
AcDbDictionary
280
     1
281
     1
  3
ACAD_XREC_ROUNDTRIP
360
225
  0
DICTIONARY
  5
22C
330
3A
100
AcDbDictionary
280
     1
281
     1
  3
ACAD_XREC_ROUNDTRIP
360
22D
  0
DICTIONARY
  5
220
330
34
100
AcDbDictionary
280
     1
281
     1
  3
ACAD_XREC_ROUNDTRIP
360
221
  0
DICTIONARY
  5
222
330
35
100
AcDbDictionary
280
     1
281
     1
  3
ACAD_XREC_ROUNDTRIP
360
223
  0
DICTIONARY
  5
232
330
3D
100
AcDbDictionary
280
     1
281
     1
  3
ACAD_XREC_ROUNDTRIP
360
233
  0
DICTIONARY
  5
22A
330
39
100
AcDbDictionary
280
     1
281
     1
  3
ACAD_XREC_ROUNDTRIP
360
22B
  0
DICTIONARY
  5
20E
330
2B
100
AcDbDictionary
280
     1
281
     1
  3
ACAD_XREC_ROUNDTRIP
360
20F
  0
DICTIONARY
  5
210
330
2C
100
AcDbDictionary
280
     1
281
     1
  3
ACAD_XREC_ROUNDTRIP
360
211
  0
DICTIONARY
  5
212
330
2D
100
AcDbDictionary
280
     1
281
     1
  3
ACAD_XREC_ROUNDTRIP
360
213
  0
DICTIONARY
  5
214
330
2E
100
AcDbDictionary
280
     1
281
     1
  3
ACAD_XREC_ROUNDTRIP
360
215
  0
DICTIONARY
  5
21A
330
31
100
AcDbDictionary
280
     1
281
     1
  3
ACAD_XREC_ROUNDTRIP
360
21B
  0
DICTIONARY
  5
22E
330
3B
100
AcDbDictionary
280
     1
281
     1
  3
ACAD_XREC_ROUNDTRIP
360
22F
  0
DICTIONARY
  5
228
330
38
100
AcDbDictionary
280
     1
281
     1
  3
ACAD_XREC_ROUNDTRIP
360
229
  0
DICTIONARY
  5
230
330
3C
100
AcDbDictionary
280
     1
281
     1
  3
ACAD_XREC_ROUNDTRIP
360
231
  0
DICTIONARY
  5
21E
330
33
100
AcDbDictionary
280
     1
281
     1
  3
ACAD_XREC_ROUNDTRIP
360
21F
  0
DICTIONARY
  5
23C
330
42
100
AcDbDictionary
280
     1
281
     1
  3
ACAD_XREC_ROUNDTRIP
360
23D
  0
DICTIONARY
  5
23A
330
41
100
AcDbDictionary
280
     1
281
     1
  3
ACAD_XREC_ROUNDTRIP
360
23B
  0
DICTIONARY
  5
234
330
3E
100
AcDbDictionary
280
     1
281
     1
  3
ACAD_XREC_ROUNDTRIP
360
235
  0
DICTIONARY
  5
236
330
3F
100
AcDbDictionary
280
     1
281
     1
  3
ACAD_XREC_ROUNDTRIP
360
237
  0
DICTIONARY
  5
226
330
37
100
AcDbDictionary
280
     1
281
     1
  3
ACAD_XREC_ROUNDTRIP
360
227
  0
DICTIONARY
  5
218
330
30
100
AcDbDictionary
280
     1
281
     1
  3
ACAD_XREC_ROUNDTRIP
360
219
  0
DICTIONARY
  5
238
330
40
100
AcDbDictionary
280
     1
281
     1
  3
ACAD_XREC_ROUNDTRIP
360
239
  0
XRECORD
  5
242
102
{ACAD_REACTORS
330
241
102
}
330
241
100
AcDbXrecord
280
     1
102
ACAD_ROUNDTRIP_2010_MLEADER_STYLE
  0
CELLSTYLEMAP
  5
23F
102
{ACAD_REACTORS
330
23E
102
}
330
23E
100
AcDbCellStyleMap
 90
        3
300
CELLSTYLE
  1
TABLEFORMAT_BEGIN
 90
        5
170
     1
 91
        0
 92
    32768
 62
   257
 93
        1
300
CONTENTFORMAT
  1
CONTENTFORMAT_BEGIN
 90
        0
 91
        0
 92
        4
 93
        0
300

 40
0.0
140
1.0
 94
        5
 62
     0
340
11
144
6.0
309
CONTENTFORMAT_END
171
     1
301
MARGIN
  1
CELLMARGIN_BEGIN
 40
1.5
 40
1.5
 40
1.5
 40
1.5
 40
1.5
 40
1.5
309
CELLMARGIN_END
 94
        6
 95
        1
302
GRIDFORMAT
  1
GRIDFORMAT_BEGIN
 90
        0
 91
        1
 62
     0
 92
       -2
340
14
 93
        0
 40
0.045
309
GRIDFORMAT_END
 95
        2
302
GRIDFORMAT
  1
GRIDFORMAT_BEGIN
 90
        0
 91
        1
 62
     0
 92
       -2
340
14
 93
        0
 40
0.045
309
GRIDFORMAT_END
 95
        4
302
GRIDFORMAT
  1
GRIDFORMAT_BEGIN
 90
        0
 91
        1
 62
     0
 92
       -2
340
14
 93
        0
 40
0.045
309
GRIDFORMAT_END
 95
        8
302
GRIDFORMAT
  1
GRIDFORMAT_BEGIN
 90
        0
 91
        1
 62
     0
 92
       -2
340
14
 93
        0
 40
0.045
309
GRIDFORMAT_END
 95
       16
302
GRIDFORMAT
  1
GRIDFORMAT_BEGIN
 90
        0
 91
        1
 62
     0
 92
       -2
340
14
 93
        0
 40
0.045
309
GRIDFORMAT_END
 95
       32
302
GRIDFORMAT
  1
GRIDFORMAT_BEGIN
 90
        0
 91
        1
 62
     0
 92
       -2
340
14
 93
        0
 40
0.045
309
GRIDFORMAT_END
309
TABLEFORMAT_END
  1
CELLSTYLE_BEGIN
 90
        1
 91
        1
300
_TITLE
309
CELLSTYLE_END
300
CELLSTYLE
  1
TABLEFORMAT_BEGIN
 90
        5
170
     1
 91
        0
 92
        0
 62
   257
 93
        1
300
CONTENTFORMAT
  1
CONTENTFORMAT_BEGIN
 90
        0
 91
        0
 92
        4
 93
        0
300

 40
0.0
140
1.0
 94
        5
 62
     0
340
11
144
4.5
309
CONTENTFORMAT_END
171
     1
301
MARGIN
  1
CELLMARGIN_BEGIN
 40
1.5
 40
1.5
 40
1.5
 40
1.5
 40
1.5
 40
1.5
309
CELLMARGIN_END
 94
        6
 95
        1
302
GRIDFORMAT
  1
GRIDFORMAT_BEGIN
 90
        0
 91
        1
 62
     0
 92
       -2
340
14
 93
        0
 40
0.045
309
GRIDFORMAT_END
 95
        2
302
GRIDFORMAT
  1
GRIDFORMAT_BEGIN
 90
        0
 91
        1
 62
     0
 92
       -2
340
14
 93
        0
 40
0.045
309
GRIDFORMAT_END
 95
        4
302
GRIDFORMAT
  1
GRIDFORMAT_BEGIN
 90
        0
 91
        1
 62
     0
 92
       -2
340
14
 93
        0
 40
0.045
309
GRIDFORMAT_END
 95
        8
302
GRIDFORMAT
  1
GRIDFORMAT_BEGIN
 90
        0
 91
        1
 62
     0
 92
       -2
340
14
 93
        0
 40
0.045
309
GRIDFORMAT_END
 95
       16
302
GRIDFORMAT
  1
GRIDFORMAT_BEGIN
 90
        0
 91
        1
 62
     0
 92
       -2
340
14
 93
        0
 40
0.045
309
GRIDFORMAT_END
 95
       32
302
GRIDFORMAT
  1
GRIDFORMAT_BEGIN
 90
        0
 91
        1
 62
     0
 92
       -2
340
14
 93
        0
 40
0.045
309
GRIDFORMAT_END
309
TABLEFORMAT_END
  1
CELLSTYLE_BEGIN
 90
        2
 91
        1
300
_HEADER
309
CELLSTYLE_END
300
CELLSTYLE
  1
TABLEFORMAT_BEGIN
 90
        5
170
     1
 91
        0
 92
        0
 62
   257
 93
        1
300
CONTENTFORMAT
  1
CONTENTFORMAT_BEGIN
 90
        0
 91
        0
 92
        4
 93
        0
300

 40
0.0
140
1.0
 94
        2
 62
     0
340
11
144
4.5
309
CONTENTFORMAT_END
171
     1
301
MARGIN
  1
CELLMARGIN_BEGIN
 40
1.5
 40
1.5
 40
1.5
 40
1.5
 40
1.5
 40
1.5
309
CELLMARGIN_END
 94
        6
 95
        1
302
GRIDFORMAT
  1
GRIDFORMAT_BEGIN
 90
        0
 91
        1
 62
     0
 92
       -2
340
14
 93
        0
 40
0.045
309
GRIDFORMAT_END
 95
        2
302
GRIDFORMAT
  1
GRIDFORMAT_BEGIN
 90
        0
 91
        1
 62
     0
 92
       -2
340
14
 93
        0
 40
0.045
309
GRIDFORMAT_END
 95
        4
302
GRIDFORMAT
  1
GRIDFORMAT_BEGIN
 90
        0
 91
        1
 62
     0
 92
       -2
340
14
 93
        0
 40
0.045
309
GRIDFORMAT_END
 95
        8
302
GRIDFORMAT
  1
GRIDFORMAT_BEGIN
 90
        0
 91
        1
 62
     0
 92
       -2
340
14
 93
        0
 40
0.045
309
GRIDFORMAT_END
 95
       16
302
GRIDFORMAT
  1
GRIDFORMAT_BEGIN
 90
        0
 91
        1
 62
     0
 92
       -2
340
14
 93
        0
 40
0.045
309
GRIDFORMAT_END
 95
       32
302
GRIDFORMAT
  1
GRIDFORMAT_BEGIN
 90
        0
 91
        1
 62
     0
 92
       -2
340
14
 93
        0
 40
0.045
309
GRIDFORMAT_END
309
TABLEFORMAT_END
  1
CELLSTYLE_BEGIN
 90
        3
 91
        2
300
_DATA
309
CELLSTYLE_END
  0
XRECORD
  5
217
102
{ACAD_REACTORS
330
216
102
}
330
216
100
AcDbXrecord
280
     1
102
RTVSPropertyOp0
 70
     1
102
RTVSPropertyOp1
 70
     1
102
RTVSPropertyOp2
 70
     1
102
RTVSPropertyOp3
 70
     1
102
RTVSPropertyOp4
 70
     1
102
RTVSPropertyOp5
 70
     1
102
RTVSPropertyOp6
 70
     1
102
RTVSPropertyOp7
 70
     1
102
RTVSPropertyOp8
 70
     1
102
RTVSPropertyOp9
 70
     1
102
RTVSPropertyOp10
 70
     1
102
RTVSPropertyOp11
 70
     1
102
RTVSPropertyOp12
 70
     1
102
RTVSPropertyOp13
 70
     1
102
RTVSPropertyOp14
 70
     1
102
RTVSPropertyOp15
 70
     1
102
RTVSPropertyOp16
 70
     1
102
RTVSPropertyOp17
 70
     1
102
RTVSPropertyOp18
 70
     1
102
RTVSPropertyOp19
 70
     1
102
RTVSPropertyOp20
 70
     1
102
RTVSPropertyOp21
 70
     1
102
RTVSPropertyOp22
 70
     1
102
RTVSPropertyOp23
 70
     1
102
RTVSPropertyOp24
 70
     1
102
RTVSPropertyOp25
 70
     1
102
RTVSPropertyOp26
 70
     1
102
RTVSPropertyOp27
 70
     1
102
RTVSPropertyOp28
 70
     1
102
RTVSPropertyOp29
 70
     1
102
RTVSPropertyOp30
 70
     1
102
RTVSPropertyOp31
 70
     1
102
RTVSPropertyOp32
 70
     1
102
RTVSPropertyOp33
 70
     1
102
RTVSPropertyOp34
 70
     1
102
RTVSPropertyOp35
 70
     1
102
RTVSPropertyOp36
 70
     1
102
RTVSPropertyOp37
 70
     1
102
RTVSPropertyOp38
 70
     1
102
RTVSPropertyOp39
 70
     1
102
RTVSPropertyOp40
 70
     1
102
RTVSPropertyOp41
 70
     1
102
RTVSPropertyOp42
 70
     1
102
RTVSPropertyOp43
 70
     1
102
RTVSPropertyOp44
 70
     1
102
RTVSPropertyOp45
 70
     1
102
RTVSPropertyOp46
 70
     1
102
RTVSPropertyOp47
 70
     1
102
RTVSPropertyOp48
 70
     1
102
RTVSPropertyOp49
 70
     1
102
RTVSPropertyOp50
 70
     1
102
RTVSPropertyOp51
 70
     0
102
RTVSPropertyOp52
 70
     0
102
RTVSPropertyOp53
 70
     1
102
RTVSPropertyOp54
 70
     1
102
RTVSPropertyOp55
 70
     1
102
RTVSPropertyOp56
 70
     1
102
RTVSPropertyOp57
 70
     1
102
RTVSPost2010Prop28
280
     1
102
RTVSPost2010PropOp28
 70
     1
102
RTVSPost2010Prop29
280
     1
102
RTVSPost2010PropOp29
 70
     1
102
RTVSPost2010Prop30
280
     0
102
RTVSPost2010PropOp30
 70
     1
102
RTVSPost2010Prop31
280
     0
102
RTVSPost2010PropOp31
 70
     1
102
RTVSPost2010Prop32
280
     0
102
RTVSPost2010PropOp32
 70
     1
102
RTVSPost2010Prop33
280
     0
102
RTVSPost2010PropOp33
 70
     1
102
RTVSPost2010Prop34
280
     0
102
RTVSPost2010PropOp34
 70
     1
102
RTVSPost2010Prop35
280
     0
102
RTVSPost2010PropOp35
 70
     1
102
RTVSPost2010Prop36
280
     0
102
RTVSPost2010PropOp36
 70
     1
102
RTVSPost2010Prop37
 90
       50
102
RTVSPost2010PropOp37
 70
     1
102
RTVSPost2010Prop38
140
0.0
102
RTVSPost2010PropOp38
 70
     1
102
RTVSPost2010Prop39
140
1.0
102
RTVSPost2010PropOp39
 70
     1
102
RTVSPost2010Prop40
 90
        0
102
RTVSPost2010PropOp40
 70
     1
102
RTVSPost2010Prop41ColorIndex
 90
       18
102
RTVSPost2010Prop41ColorRGB
 90
        0
102
RTVSPost2010PropOp41
 70
     1
102
RTVSPost2010Prop42
 90
       50
102
RTVSPost2010PropOp42
 70
     1
102
RTVSPost2010Prop43
 90
        3
102
RTVSPost2010PropOp43
 70
     1
102
RTVSPost2010Prop44ColorIndex
 90
        5
102
RTVSPost2010Prop44ColorRGB
 90
      255
102
RTVSPost2010PropOp44
 70
     1
102
RTVSPost2010Prop45
280
     0
102
RTVSPost2010PropOp45
 70
     1
102
RTVSPost2010Prop46
 90
       50
102
RTVSPost2010PropOp46
 70
     1
102
RTVSPost2010Prop47
 90
       50
102
RTVSPost2010PropOp47
 70
     1
102
RTVSPost2010Prop48
 90
       50
102
RTVSPost2010PropOp48
 70
     1
102
RTVSPost2010Prop49
280
     0
102
RTVSPost2010PropOp49
 70
     1
102
RTVSPost2010Prop50
 90
       50
102
RTVSPost2010PropOp50
 70
     1
102
RTVSPost2010Prop51ColorIndex
 90
      256
102
RTVSPost2010Prop51ColorRGB
 90
-16777216
102
RTVSPost2010PropOp51
 70
     0
102
RTVSPost2010Prop52
140
1.0
102
RTVSPost2010PropOp52
 70
     0
102
RTVSPost2010Prop53
 90
        2
102
RTVSPost2010PropOp53
 70
     1
102
RTVSPost2010Prop54
  1
strokes_ogs.tif
102
RTVSPost2010PropOp54
 70
     1
102
RTVSPost2010Prop55
280
     0
102
RTVSPost2010PropOp55
 70
     1
102
RTVSPost2010Prop56
140
1.0
102
RTVSPost2010PropOp56
 70
     1
102
RTVSPost2010Prop57
140
1.0
102
RTVSPost2010PropOp57
 70
     1
  0
XRECORD
  5
21D
102
{ACAD_REACTORS
330
21C
102
}
330
21C
100
AcDbXrecord
280
     1
102
RTVSPropertyOp0
 70
     1
102
RTVSPropertyOp1
 70
     1
102
RTVSPropertyOp2
 70
     1
102
RTVSPropertyOp3
 70
     1
102
RTVSPropertyOp4
 70
     1
102
RTVSPropertyOp5
 70
     1
102
RTVSPropertyOp6
 70
     1
102
RTVSPropertyOp7
 70
     1
102
RTVSPropertyOp8
 70
     1
102
RTVSPropertyOp9
 70
     1
102
RTVSPropertyOp10
 70
     1
102
RTVSPropertyOp11
 70
     1
102
RTVSPropertyOp12
 70
     1
102
RTVSPropertyOp13
 70
     1
102
RTVSPropertyOp14
 70
     1
102
RTVSPropertyOp15
 70
     1
102
RTVSPropertyOp16
 70
     1
102
RTVSPropertyOp17
 70
     1
102
RTVSPropertyOp18
 70
     1
102
RTVSPropertyOp19
 70
     1
102
RTVSPropertyOp20
 70
     1
102
RTVSPropertyOp21
 70
     1
102
RTVSPropertyOp22
 70
     1
102
RTVSPropertyOp23
 70
     1
102
RTVSPropertyOp24
 70
     1
102
RTVSPropertyOp25
 70
     1
102
RTVSPropertyOp26
 70
     1
102
RTVSPropertyOp27
 70
     1
102
RTVSPropertyOp28
 70
     1
102
RTVSPropertyOp29
 70
     1
102
RTVSPropertyOp30
 70
     1
102
RTVSPropertyOp31
 70
     1
102
RTVSPropertyOp32
 70
     1
102
RTVSPropertyOp33
 70
     1
102
RTVSPropertyOp34
 70
     1
102
RTVSPropertyOp35
 70
     1
102
RTVSPropertyOp36
 70
     1
102
RTVSPropertyOp37
 70
     1
102
RTVSPropertyOp38
 70
     1
102
RTVSPropertyOp39
 70
     1
102
RTVSPropertyOp40
 70
     1
102
RTVSPropertyOp41
 70
     1
102
RTVSPropertyOp42
 70
     1
102
RTVSPropertyOp43
 70
     1
102
RTVSPropertyOp44
 70
     1
102
RTVSPropertyOp45
 70
     1
102
RTVSPropertyOp46
 70
     1
102
RTVSPropertyOp47
 70
     1
102
RTVSPropertyOp48
 70
     1
102
RTVSPropertyOp49
 70
     1
102
RTVSPropertyOp50
 70
     1
102
RTVSPropertyOp51
 70
     0
102
RTVSPropertyOp52
 70
     0
102
RTVSPropertyOp53
 70
     1
102
RTVSPropertyOp54
 70
     1
102
RTVSPropertyOp55
 70
     1
102
RTVSPropertyOp56
 70
     1
102
RTVSPropertyOp57
 70
     1
102
RTVSPost2010Prop28
280
     0
102
RTVSPost2010PropOp28
 70
     1
102
RTVSPost2010Prop29
280
     1
102
RTVSPost2010PropOp29
 70
     1
102
RTVSPost2010Prop30
280
     1
102
RTVSPost2010PropOp30
 70
     1
102
RTVSPost2010Prop31
280
     0
102
RTVSPost2010PropOp31
 70
     1
102
RTVSPost2010Prop32
280
     0
102
RTVSPost2010PropOp32
 70
     1
102
RTVSPost2010Prop33
280
     0
102
RTVSPost2010PropOp33
 70
     1
102
RTVSPost2010Prop34
280
     0
102
RTVSPost2010PropOp34
 70
     1
102
RTVSPost2010Prop35
280
     0
102
RTVSPost2010PropOp35
 70
     1
102
RTVSPost2010Prop36
280
     0
102
RTVSPost2010PropOp36
 70
     1
102
RTVSPost2010Prop37
 90
       50
102
RTVSPost2010PropOp37
 70
     1
102
RTVSPost2010Prop38
140
0.0
102
RTVSPost2010PropOp38
 70
     1
102
RTVSPost2010Prop39
140
1.0
102
RTVSPost2010PropOp39
 70
     1
102
RTVSPost2010Prop40
 90
        0
102
RTVSPost2010PropOp40
 70
     1
102
RTVSPost2010Prop41ColorIndex
 90
       18
102
RTVSPost2010Prop41ColorRGB
 90
        0
102
RTVSPost2010PropOp41
 70
     1
102
RTVSPost2010Prop42
 90
       50
102
RTVSPost2010PropOp42
 70
     1
102
RTVSPost2010Prop43
 90
        3
102
RTVSPost2010PropOp43
 70
     1
102
RTVSPost2010Prop44ColorIndex
 90
        5
102
RTVSPost2010Prop44ColorRGB
 90
      255
102
RTVSPost2010PropOp44
 70
     1
102
RTVSPost2010Prop45
280
     0
102
RTVSPost2010PropOp45
 70
     1
102
RTVSPost2010Prop46
 90
       50
102
RTVSPost2010PropOp46
 70
     1
102
RTVSPost2010Prop47
 90
       50
102
RTVSPost2010PropOp47
 70
     1
102
RTVSPost2010Prop48
 90
       50
102
RTVSPost2010PropOp48
 70
     1
102
RTVSPost2010Prop49
280
     0
102
RTVSPost2010PropOp49
 70
     1
102
RTVSPost2010Prop50
 90
       50
102
RTVSPost2010PropOp50
 70
     1
102
RTVSPost2010Prop51ColorIndex
 90
      256
102
RTVSPost2010Prop51ColorRGB
 90
-16777216
102
RTVSPost2010PropOp51
 70
     0
102
RTVSPost2010Prop52
140
1.0
102
RTVSPost2010PropOp52
 70
     0
102
RTVSPost2010Prop53
 90
        2
102
RTVSPost2010PropOp53
 70
     1
102
RTVSPost2010Prop54
  1
strokes_ogs.tif
102
RTVSPost2010PropOp54
 70
     1
102
RTVSPost2010Prop55
280
     0
102
RTVSPost2010PropOp55
 70
     1
102
RTVSPost2010Prop56
140
1.0
102
RTVSPost2010PropOp56
 70
     1
102
RTVSPost2010Prop57
140
1.0
102
RTVSPost2010PropOp57
 70
     1
  0
XRECORD
  5
225
102
{ACAD_REACTORS
330
224
102
}
330
224
100
AcDbXrecord
280
     1
102
RTVSPropertyOp0
 70
     1
102
RTVSPropertyOp1
 70
     1
102
RTVSPropertyOp2
 70
     1
102
RTVSPropertyOp3
 70
     1
102
RTVSPropertyOp4
 70
     1
102
RTVSPropertyOp5
 70
     1
102
RTVSPropertyOp6
 70
     1
102
RTVSPropertyOp7
 70
     1
102
RTVSPropertyOp8
 70
     1
102
RTVSPropertyOp9
 70
     1
102
RTVSPropertyOp10
 70
     1
102
RTVSPropertyOp11
 70
     1
102
RTVSPropertyOp12
 70
     1
102
RTVSPropertyOp13
 70
     1
102
RTVSPropertyOp14
 70
     1
102
RTVSPropertyOp15
 70
     1
102
RTVSPropertyOp16
 70
     1
102
RTVSPropertyOp17
 70
     1
102
RTVSPropertyOp18
 70
     1
102
RTVSPropertyOp19
 70
     1
102
RTVSPropertyOp20
 70
     1
102
RTVSPropertyOp21
 70
     1
102
RTVSPropertyOp22
 70
     1
102
RTVSPropertyOp23
 70
     1
102
RTVSPropertyOp24
 70
     1
102
RTVSPropertyOp25
 70
     1
102
RTVSPropertyOp26
 70
     1
102
RTVSPropertyOp27
 70
     1
102
RTVSPropertyOp28
 70
     1
102
RTVSPropertyOp29
 70
     1
102
RTVSPropertyOp30
 70
     1
102
RTVSPropertyOp31
 70
     1
102
RTVSPropertyOp32
 70
     1
102
RTVSPropertyOp33
 70
     1
102
RTVSPropertyOp34
 70
     1
102
RTVSPropertyOp35
 70
     1
102
RTVSPropertyOp36
 70
     1
102
RTVSPropertyOp37
 70
     1
102
RTVSPropertyOp38
 70
     1
102
RTVSPropertyOp39
 70
     1
102
RTVSPropertyOp40
 70
     1
102
RTVSPropertyOp41
 70
     1
102
RTVSPropertyOp42
 70
     1
102
RTVSPropertyOp43
 70
     1
102
RTVSPropertyOp44
 70
     1
102
RTVSPropertyOp45
 70
     1
102
RTVSPropertyOp46
 70
     1
102
RTVSPropertyOp47
 70
     1
102
RTVSPropertyOp48
 70
     1
102
RTVSPropertyOp49
 70
     1
102
RTVSPropertyOp50
 70
     1
102
RTVSPropertyOp51
 70
     0
102
RTVSPropertyOp52
 70
     0
102
RTVSPropertyOp53
 70
     1
102
RTVSPropertyOp54
 70
     1
102
RTVSPropertyOp55
 70
     1
102
RTVSPropertyOp56
 70
     1
102
RTVSPropertyOp57
 70
     1
102
RTVSPost2010Prop28
280
     0
102
RTVSPost2010PropOp28
 70
     1
102
RTVSPost2010Prop29
280
     1
102
RTVSPost2010PropOp29
 70
     1
102
RTVSPost2010Prop30
280
     1
102
RTVSPost2010PropOp30
 70
     1
102
RTVSPost2010Prop31
280
     0
102
RTVSPost2010PropOp31
 70
     1
102
RTVSPost2010Prop32
280
     0
102
RTVSPost2010PropOp32
 70
     1
102
RTVSPost2010Prop33
280
     0
102
RTVSPost2010PropOp33
 70
     1
102
RTVSPost2010Prop34
280
     0
102
RTVSPost2010PropOp34
 70
     1
102
RTVSPost2010Prop35
280
     0
102
RTVSPost2010PropOp35
 70
     1
102
RTVSPost2010Prop36
280
     0
102
RTVSPost2010PropOp36
 70
     1
102
RTVSPost2010Prop37
 90
       50
102
RTVSPost2010PropOp37
 70
     1
102
RTVSPost2010Prop38
140
0.0
102
RTVSPost2010PropOp38
 70
     1
102
RTVSPost2010Prop39
140
1.0
102
RTVSPost2010PropOp39
 70
     1
102
RTVSPost2010Prop40
 90
        0
102
RTVSPost2010PropOp40
 70
     1
102
RTVSPost2010Prop41ColorIndex
 90
       18
102
RTVSPost2010Prop41ColorRGB
 90
        0
102
RTVSPost2010PropOp41
 70
     1
102
RTVSPost2010Prop42
 90
       50
102
RTVSPost2010PropOp42
 70
     1
102
RTVSPost2010Prop43
 90
        3
102
RTVSPost2010PropOp43
 70
     1
102
RTVSPost2010Prop44ColorIndex
 90
        5
102
RTVSPost2010Prop44ColorRGB
 90
      255
102
RTVSPost2010PropOp44
 70
     1
102
RTVSPost2010Prop45
280
     0
102
RTVSPost2010PropOp45
 70
     1
102
RTVSPost2010Prop46
 90
       50
102
RTVSPost2010PropOp46
 70
     1
102
RTVSPost2010Prop47
 90
       50
102
RTVSPost2010PropOp47
 70
     1
102
RTVSPost2010Prop48
 90
       50
102
RTVSPost2010PropOp48
 70
     1
102
RTVSPost2010Prop49
280
     0
102
RTVSPost2010PropOp49
 70
     1
102
RTVSPost2010Prop50
 90
       50
102
RTVSPost2010PropOp50
 70
     1
102
RTVSPost2010Prop51ColorIndex
 90
      256
102
RTVSPost2010Prop51ColorRGB
 90
-16777216
102
RTVSPost2010PropOp51
 70
     0
102
RTVSPost2010Prop52
140
1.0
102
RTVSPost2010PropOp52
 70
     0
102
RTVSPost2010Prop53
 90
        2
102
RTVSPost2010PropOp53
 70
     1
102
RTVSPost2010Prop54
  1
strokes_ogs.tif
102
RTVSPost2010PropOp54
 70
     1
102
RTVSPost2010Prop55
280
     0
102
RTVSPost2010PropOp55
 70
     1
102
RTVSPost2010Prop56
140
1.0
102
RTVSPost2010PropOp56
 70
     1
102
RTVSPost2010Prop57
140
1.0
102
RTVSPost2010PropOp57
 70
     1
  0
XRECORD
  5
22D
102
{ACAD_REACTORS
330
22C
102
}
330
22C
100
AcDbXrecord
280
     1
102
RTVSPropertyOp0
 70
     1
102
RTVSPropertyOp1
 70
     1
102
RTVSPropertyOp2
 70
     1
102
RTVSPropertyOp3
 70
     1
102
RTVSPropertyOp4
 70
     1
102
RTVSPropertyOp5
 70
     1
102
RTVSPropertyOp6
 70
     1
102
RTVSPropertyOp7
 70
     1
102
RTVSPropertyOp8
 70
     1
102
RTVSPropertyOp9
 70
     1
102
RTVSPropertyOp10
 70
     1
102
RTVSPropertyOp11
 70
     1
102
RTVSPropertyOp12
 70
     1
102
RTVSPropertyOp13
 70
     1
102
RTVSPropertyOp14
 70
     1
102
RTVSPropertyOp15
 70
     1
102
RTVSPropertyOp16
 70
     1
102
RTVSPropertyOp17
 70
     1
102
RTVSPropertyOp18
 70
     1
102
RTVSPropertyOp19
 70
     1
102
RTVSPropertyOp20
 70
     1
102
RTVSPropertyOp21
 70
     1
102
RTVSPropertyOp22
 70
     1
102
RTVSPropertyOp23
 70
     1
102
RTVSPropertyOp24
 70
     1
102
RTVSPropertyOp25
 70
     1
102
RTVSPropertyOp26
 70
     1
102
RTVSPropertyOp27
 70
     1
102
RTVSPropertyOp28
 70
     1
102
RTVSPropertyOp29
 70
     1
102
RTVSPropertyOp30
 70
     1
102
RTVSPropertyOp31
 70
     1
102
RTVSPropertyOp32
 70
     1
102
RTVSPropertyOp33
 70
     1
102
RTVSPropertyOp34
 70
     1
102
RTVSPropertyOp35
 70
     1
102
RTVSPropertyOp36
 70
     1
102
RTVSPropertyOp37
 70
     1
102
RTVSPropertyOp38
 70
     1
102
RTVSPropertyOp39
 70
     1
102
RTVSPropertyOp40
 70
     1
102
RTVSPropertyOp41
 70
     1
102
RTVSPropertyOp42
 70
     1
102
RTVSPropertyOp43
 70
     1
102
RTVSPropertyOp44
 70
     1
102
RTVSPropertyOp45
 70
     1
102
RTVSPropertyOp46
 70
     1
102
RTVSPropertyOp47
 70
     1
102
RTVSPropertyOp48
 70
     1
102
RTVSPropertyOp49
 70
     1
102
RTVSPropertyOp50
 70
     1
102
RTVSPropertyOp51
 70
     0
102
RTVSPropertyOp52
 70
     0
102
RTVSPropertyOp53
 70
     1
102
RTVSPropertyOp54
 70
     1
102
RTVSPropertyOp55
 70
     1
102
RTVSPropertyOp56
 70
     1
102
RTVSPropertyOp57
 70
     1
102
RTVSPost2010Prop28
280
     0
102
RTVSPost2010PropOp28
 70
     1
102
RTVSPost2010Prop29
280
     1
102
RTVSPost2010PropOp29
 70
     1
102
RTVSPost2010Prop30
280
     1
102
RTVSPost2010PropOp30
 70
     1
102
RTVSPost2010Prop31
280
     0
102
RTVSPost2010PropOp31
 70
     1
102
RTVSPost2010Prop32
280
     0
102
RTVSPost2010PropOp32
 70
     1
102
RTVSPost2010Prop33
280
     0
102
RTVSPost2010PropOp33
 70
     1
102
RTVSPost2010Prop34
280
     0
102
RTVSPost2010PropOp34
 70
     1
102
RTVSPost2010Prop35
280
     0
102
RTVSPost2010PropOp35
 70
     1
102
RTVSPost2010Prop36
280
     0
102
RTVSPost2010PropOp36
 70
     1
102
RTVSPost2010Prop37
 90
       50
102
RTVSPost2010PropOp37
 70
     1
102
RTVSPost2010Prop38
140
0.0
102
RTVSPost2010PropOp38
 70
     1
102
RTVSPost2010Prop39
140
1.0
102
RTVSPost2010PropOp39
 70
     1
102
RTVSPost2010Prop40
 90
        0
102
RTVSPost2010PropOp40
 70
     1
102
RTVSPost2010Prop41ColorIndex
 90
       18
102
RTVSPost2010Prop41ColorRGB
 90
        0
102
RTVSPost2010PropOp41
 70
     1
102
RTVSPost2010Prop42
 90
       50
102
RTVSPost2010PropOp42
 70
     1
102
RTVSPost2010Prop43
 90
        3
102
RTVSPost2010PropOp43
 70
     1
102
RTVSPost2010Prop44ColorIndex
 90
        5
102
RTVSPost2010Prop44ColorRGB
 90
      255
102
RTVSPost2010PropOp44
 70
     1
102
RTVSPost2010Prop45
280
     0
102
RTVSPost2010PropOp45
 70
     1
102
RTVSPost2010Prop46
 90
       50
102
RTVSPost2010PropOp46
 70
     1
102
RTVSPost2010Prop47
 90
       50
102
RTVSPost2010PropOp47
 70
     1
102
RTVSPost2010Prop48
 90
       50
102
RTVSPost2010PropOp48
 70
     1
102
RTVSPost2010Prop49
280
     0
102
RTVSPost2010PropOp49
 70
     1
102
RTVSPost2010Prop50
 90
       50
102
RTVSPost2010PropOp50
 70
     1
102
RTVSPost2010Prop51ColorIndex
 90
      256
102
RTVSPost2010Prop51ColorRGB
 90
-16777216
102
RTVSPost2010PropOp51
 70
     0
102
RTVSPost2010Prop52
140
1.0
102
RTVSPost2010PropOp52
 70
     0
102
RTVSPost2010Prop53
 90
        2
102
RTVSPost2010PropOp53
 70
     1
102
RTVSPost2010Prop54
  1
strokes_ogs.tif
102
RTVSPost2010PropOp54
 70
     1
102
RTVSPost2010Prop55
280
     0
102
RTVSPost2010PropOp55
 70
     1
102
RTVSPost2010Prop56
140
1.0
102
RTVSPost2010PropOp56
 70
     1
102
RTVSPost2010Prop57
140
1.0
102
RTVSPost2010PropOp57
 70
     1
  0
XRECORD
  5
221
102
{ACAD_REACTORS
330
220
102
}
330
220
100
AcDbXrecord
280
     1
102
RTVSPropertyOp0
 70
     1
102
RTVSPropertyOp1
 70
     1
102
RTVSPropertyOp2
 70
     1
102
RTVSPropertyOp3
 70
     1
102
RTVSPropertyOp4
 70
     1
102
RTVSPropertyOp5
 70
     1
102
RTVSPropertyOp6
 70
     1
102
RTVSPropertyOp7
 70
     1
102
RTVSPropertyOp8
 70
     1
102
RTVSPropertyOp9
 70
     1
102
RTVSPropertyOp10
 70
     1
102
RTVSPropertyOp11
 70
     1
102
RTVSPropertyOp12
 70
     1
102
RTVSPropertyOp13
 70
     1
102
RTVSPropertyOp14
 70
     1
102
RTVSPropertyOp15
 70
     1
102
RTVSPropertyOp16
 70
     1
102
RTVSPropertyOp17
 70
     1
102
RTVSPropertyOp18
 70
     1
102
RTVSPropertyOp19
 70
     1
102
RTVSPropertyOp20
 70
     1
102
RTVSPropertyOp21
 70
     1
102
RTVSPropertyOp22
 70
     1
102
RTVSPropertyOp23
 70
     1
102
RTVSPropertyOp24
 70
     1
102
RTVSPropertyOp25
 70
     1
102
RTVSPropertyOp26
 70
     1
102
RTVSPropertyOp27
 70
     1
102
RTVSPropertyOp28
 70
     1
102
RTVSPropertyOp29
 70
     1
102
RTVSPropertyOp30
 70
     1
102
RTVSPropertyOp31
 70
     1
102
RTVSPropertyOp32
 70
     1
102
RTVSPropertyOp33
 70
     1
102
RTVSPropertyOp34
 70
     1
102
RTVSPropertyOp35
 70
     1
102
RTVSPropertyOp36
 70
     1
102
RTVSPropertyOp37
 70
     1
102
RTVSPropertyOp38
 70
     1
102
RTVSPropertyOp39
 70
     1
102
RTVSPropertyOp40
 70
     1
102
RTVSPropertyOp41
 70
     1
102
RTVSPropertyOp42
 70
     1
102
RTVSPropertyOp43
 70
     1
102
RTVSPropertyOp44
 70
     1
102
RTVSPropertyOp45
 70
     1
102
RTVSPropertyOp46
 70
     1
102
RTVSPropertyOp47
 70
     1
102
RTVSPropertyOp48
 70
     1
102
RTVSPropertyOp49
 70
     1
102
RTVSPropertyOp50
 70
     1
102
RTVSPropertyOp51
 70
     0
102
RTVSPropertyOp52
 70
     0
102
RTVSPropertyOp53
 70
     1
102
RTVSPropertyOp54
 70
     1
102
RTVSPropertyOp55
 70
     1
102
RTVSPropertyOp56
 70
     1
102
RTVSPropertyOp57
 70
     1
102
RTVSPost2010Prop28
280
     0
102
RTVSPost2010PropOp28
 70
     1
102
RTVSPost2010Prop29
280
     1
102
RTVSPost2010PropOp29
 70
     1
102
RTVSPost2010Prop30
280
     1
102
RTVSPost2010PropOp30
 70
     1
102
RTVSPost2010Prop31
280
     0
102
RTVSPost2010PropOp31
 70
     1
102
RTVSPost2010Prop32
280
     0
102
RTVSPost2010PropOp32
 70
     1
102
RTVSPost2010Prop33
280
     0
102
RTVSPost2010PropOp33
 70
     1
102
RTVSPost2010Prop34
280
     0
102
RTVSPost2010PropOp34
 70
     1
102
RTVSPost2010Prop35
280
     0
102
RTVSPost2010PropOp35
 70
     1
102
RTVSPost2010Prop36
280
     0
102
RTVSPost2010PropOp36
 70
     1
102
RTVSPost2010Prop37
 90
       50
102
RTVSPost2010PropOp37
 70
     1
102
RTVSPost2010Prop38
140
0.0
102
RTVSPost2010PropOp38
 70
     1
102
RTVSPost2010Prop39
140
1.0
102
RTVSPost2010PropOp39
 70
     1
102
RTVSPost2010Prop40
 90
        0
102
RTVSPost2010PropOp40
 70
     1
102
RTVSPost2010Prop41ColorIndex
 90
       18
102
RTVSPost2010Prop41ColorRGB
 90
        0
102
RTVSPost2010PropOp41
 70
     1
102
RTVSPost2010Prop42
 90
       50
102
RTVSPost2010PropOp42
 70
     1
102
RTVSPost2010Prop43
 90
        3
102
RTVSPost2010PropOp43
 70
     1
102
RTVSPost2010Prop44ColorIndex
 90
        5
102
RTVSPost2010Prop44ColorRGB
 90
      255
102
RTVSPost2010PropOp44
 70
     1
102
RTVSPost2010Prop45
280
     0
102
RTVSPost2010PropOp45
 70
     1
102
RTVSPost2010Prop46
 90
       50
102
RTVSPost2010PropOp46
 70
     1
102
RTVSPost2010Prop47
 90
       50
102
RTVSPost2010PropOp47
 70
     1
102
RTVSPost2010Prop48
 90
       50
102
RTVSPost2010PropOp48
 70
     1
102
RTVSPost2010Prop49
280
     0
102
RTVSPost2010PropOp49
 70
     1
102
RTVSPost2010Prop50
 90
       50
102
RTVSPost2010PropOp50
 70
     1
102
RTVSPost2010Prop51ColorIndex
 90
      256
102
RTVSPost2010Prop51ColorRGB
 90
-16777216
102
RTVSPost2010PropOp51
 70
     0
102
RTVSPost2010Prop52
140
1.0
102
RTVSPost2010PropOp52
 70
     0
102
RTVSPost2010Prop53
 90
        2
102
RTVSPost2010PropOp53
 70
     1
102
RTVSPost2010Prop54
  1
strokes_ogs.tif
102
RTVSPost2010PropOp54
 70
     1
102
RTVSPost2010Prop55
280
     0
102
RTVSPost2010PropOp55
 70
     1
102
RTVSPost2010Prop56
140
1.0
102
RTVSPost2010PropOp56
 70
     1
102
RTVSPost2010Prop57
140
1.0
102
RTVSPost2010PropOp57
 70
     1
  0
XRECORD
  5
223
102
{ACAD_REACTORS
330
222
102
}
330
222
100
AcDbXrecord
280
     1
102
RTVSPropertyOp0
 70
     1
102
RTVSPropertyOp1
 70
     1
102
RTVSPropertyOp2
 70
     1
102
RTVSPropertyOp3
 70
     1
102
RTVSPropertyOp4
 70
     1
102
RTVSPropertyOp5
 70
     1
102
RTVSPropertyOp6
 70
     1
102
RTVSPropertyOp7
 70
     1
102
RTVSPropertyOp8
 70
     1
102
RTVSPropertyOp9
 70
     1
102
RTVSPropertyOp10
 70
     1
102
RTVSPropertyOp11
 70
     1
102
RTVSPropertyOp12
 70
     1
102
RTVSPropertyOp13
 70
     1
102
RTVSPropertyOp14
 70
     1
102
RTVSPropertyOp15
 70
     1
102
RTVSPropertyOp16
 70
     1
102
RTVSPropertyOp17
 70
     1
102
RTVSPropertyOp18
 70
     1
102
RTVSPropertyOp19
 70
     1
102
RTVSPropertyOp20
 70
     1
102
RTVSPropertyOp21
 70
     1
102
RTVSPropertyOp22
 70
     1
102
RTVSPropertyOp23
 70
     1
102
RTVSPropertyOp24
 70
     1
102
RTVSPropertyOp25
 70
     1
102
RTVSPropertyOp26
 70
     1
102
RTVSPropertyOp27
 70
     1
102
RTVSPropertyOp28
 70
     1
102
RTVSPropertyOp29
 70
     1
102
RTVSPropertyOp30
 70
     1
102
RTVSPropertyOp31
 70
     1
102
RTVSPropertyOp32
 70
     1
102
RTVSPropertyOp33
 70
     1
102
RTVSPropertyOp34
 70
     1
102
RTVSPropertyOp35
 70
     1
102
RTVSPropertyOp36
 70
     1
102
RTVSPropertyOp37
 70
     1
102
RTVSPropertyOp38
 70
     1
102
RTVSPropertyOp39
 70
     1
102
RTVSPropertyOp40
 70
     1
102
RTVSPropertyOp41
 70
     1
102
RTVSPropertyOp42
 70
     1
102
RTVSPropertyOp43
 70
     1
102
RTVSPropertyOp44
 70
     1
102
RTVSPropertyOp45
 70
     1
102
RTVSPropertyOp46
 70
     1
102
RTVSPropertyOp47
 70
     1
102
RTVSPropertyOp48
 70
     1
102
RTVSPropertyOp49
 70
     1
102
RTVSPropertyOp50
 70
     1
102
RTVSPropertyOp51
 70
     0
102
RTVSPropertyOp52
 70
     0
102
RTVSPropertyOp53
 70
     1
102
RTVSPropertyOp54
 70
     1
102
RTVSPropertyOp55
 70
     1
102
RTVSPropertyOp56
 70
     1
102
RTVSPropertyOp57
 70
     1
102
RTVSPost2010Prop28
280
     0
102
RTVSPost2010PropOp28
 70
     1
102
RTVSPost2010Prop29
280
     1
102
RTVSPost2010PropOp29
 70
     1
102
RTVSPost2010Prop30
280
     1
102
RTVSPost2010PropOp30
 70
     1
102
RTVSPost2010Prop31
280
     0
102
RTVSPost2010PropOp31
 70
     1
102
RTVSPost2010Prop32
280
     0
102
RTVSPost2010PropOp32
 70
     1
102
RTVSPost2010Prop33
280
     0
102
RTVSPost2010PropOp33
 70
     1
102
RTVSPost2010Prop34
280
     0
102
RTVSPost2010PropOp34
 70
     1
102
RTVSPost2010Prop35
280
     0
102
RTVSPost2010PropOp35
 70
     1
102
RTVSPost2010Prop36
280
     0
102
RTVSPost2010PropOp36
 70
     1
102
RTVSPost2010Prop37
 90
       50
102
RTVSPost2010PropOp37
 70
     1
102
RTVSPost2010Prop38
140
0.0
102
RTVSPost2010PropOp38
 70
     1
102
RTVSPost2010Prop39
140
1.0
102
RTVSPost2010PropOp39
 70
     1
102
RTVSPost2010Prop40
 90
        0
102
RTVSPost2010PropOp40
 70
     1
102
RTVSPost2010Prop41ColorIndex
 90
       18
102
RTVSPost2010Prop41ColorRGB
 90
        0
102
RTVSPost2010PropOp41
 70
     1
102
RTVSPost2010Prop42
 90
       50
102
RTVSPost2010PropOp42
 70
     1
102
RTVSPost2010Prop43
 90
        3
102
RTVSPost2010PropOp43
 70
     1
102
RTVSPost2010Prop44ColorIndex
 90
        5
102
RTVSPost2010Prop44ColorRGB
 90
      255
102
RTVSPost2010PropOp44
 70
     1
102
RTVSPost2010Prop45
280
     0
102
RTVSPost2010PropOp45
 70
     1
102
RTVSPost2010Prop46
 90
       50
102
RTVSPost2010PropOp46
 70
     1
102
RTVSPost2010Prop47
 90
       50
102
RTVSPost2010PropOp47
 70
     1
102
RTVSPost2010Prop48
 90
       50
102
RTVSPost2010PropOp48
 70
     1
102
RTVSPost2010Prop49
280
     0
102
RTVSPost2010PropOp49
 70
     1
102
RTVSPost2010Prop50
 90
       50
102
RTVSPost2010PropOp50
 70
     1
102
RTVSPost2010Prop51ColorIndex
 90
      256
102
RTVSPost2010Prop51ColorRGB
 90
-16777216
102
RTVSPost2010PropOp51
 70
     0
102
RTVSPost2010Prop52
140
1.0
102
RTVSPost2010PropOp52
 70
     0
102
RTVSPost2010Prop53
 90
        2
102
RTVSPost2010PropOp53
 70
     1
102
RTVSPost2010Prop54
  1
strokes_ogs.tif
102
RTVSPost2010PropOp54
 70
     1
102
RTVSPost2010Prop55
280
     0
102
RTVSPost2010PropOp55
 70
     1
102
RTVSPost2010Prop56
140
1.0
102
RTVSPost2010PropOp56
 70
     1
102
RTVSPost2010Prop57
140
1.0
102
RTVSPost2010PropOp57
 70
     1
  0
XRECORD
  5
233
102
{ACAD_REACTORS
330
232
102
}
330
232
100
AcDbXrecord
280
     1
102
RTVSPropertyOp0
 70
     0
102
RTVSPropertyOp1
 70
     0
102
RTVSPropertyOp2
 70
     0
102
RTVSPropertyOp3
 70
     0
102
RTVSPropertyOp4
 70
     0
102
RTVSPropertyOp5
 70
     0
102
RTVSPropertyOp6
 70
     0
102
RTVSPropertyOp7
 70
     0
102
RTVSPropertyOp8
 70
     0
102
RTVSPropertyOp9
 70
     0
102
RTVSPropertyOp10
 70
     0
102
RTVSPropertyOp11
 70
     0
102
RTVSPropertyOp12
 70
     0
102
RTVSPropertyOp13
 70
     0
102
RTVSPropertyOp14
 70
     2
102
RTVSPropertyOp15
 70
     0
102
RTVSPropertyOp16
 70
     0
102
RTVSPropertyOp17
 70
     0
102
RTVSPropertyOp18
 70
     0
102
RTVSPropertyOp19
 70
     0
102
RTVSPropertyOp20
 70
     0
102
RTVSPropertyOp21
 70
     0
102
RTVSPropertyOp22
 70
     0
102
RTVSPropertyOp23
 70
     0
102
RTVSPropertyOp24
 70
     0
102
RTVSPropertyOp25
 70
     0
102
RTVSPropertyOp26
 70
     0
102
RTVSPropertyOp27
 70
     0
102
RTVSPropertyOp28
 70
     0
102
RTVSPropertyOp29
 70
     0
102
RTVSPropertyOp30
 70
     0
102
RTVSPropertyOp31
 70
     0
102
RTVSPropertyOp32
 70
     0
102
RTVSPropertyOp33
 70
     0
102
RTVSPropertyOp34
 70
     0
102
RTVSPropertyOp35
 70
     0
102
RTVSPropertyOp36
 70
     0
102
RTVSPropertyOp37
 70
     0
102
RTVSPropertyOp38
 70
     0
102
RTVSPropertyOp39
 70
     0
102
RTVSPropertyOp40
 70
     0
102
RTVSPropertyOp41
 70
     0
102
RTVSPropertyOp42
 70
     0
102
RTVSPropertyOp43
 70
     0
102
RTVSPropertyOp44
 70
     0
102
RTVSPropertyOp45
 70
     0
102
RTVSPropertyOp46
 70
     0
102
RTVSPropertyOp47
 70
     0
102
RTVSPropertyOp48
 70
     0
102
RTVSPropertyOp49
 70
     0
102
RTVSPropertyOp50
 70
     0
102
RTVSPropertyOp51
 70
     0
102
RTVSPropertyOp52
 70
     0
102
RTVSPropertyOp53
 70
     0
102
RTVSPropertyOp54
 70
     0
102
RTVSPropertyOp55
 70
     0
102
RTVSPropertyOp56
 70
     0
102
RTVSPropertyOp57
 70
     0
102
RTVSPost2010Prop28
280
     0
102
RTVSPost2010PropOp28
 70
     0
102
RTVSPost2010Prop29
280
     1
102
RTVSPost2010PropOp29
 70
     0
102
RTVSPost2010Prop30
280
     1
102
RTVSPost2010PropOp30
 70
     0
102
RTVSPost2010Prop31
280
     0
102
RTVSPost2010PropOp31
 70
     0
102
RTVSPost2010Prop32
280
     0
102
RTVSPost2010PropOp32
 70
     0
102
RTVSPost2010Prop33
280
     0
102
RTVSPost2010PropOp33
 70
     0
102
RTVSPost2010Prop34
280
     0
102
RTVSPost2010PropOp34
 70
     0
102
RTVSPost2010Prop35
280
     0
102
RTVSPost2010PropOp35
 70
     0
102
RTVSPost2010Prop36
280
     0
102
RTVSPost2010PropOp36
 70
     0
102
RTVSPost2010Prop37
 90
       50
102
RTVSPost2010PropOp37
 70
     0
102
RTVSPost2010Prop38
140
0.0
102
RTVSPost2010PropOp38
 70
     0
102
RTVSPost2010Prop39
140
1.0
102
RTVSPost2010PropOp39
 70
     0
102
RTVSPost2010Prop40
 90
        0
102
RTVSPost2010PropOp40
 70
     0
102
RTVSPost2010Prop41ColorIndex
 90
       18
102
RTVSPost2010Prop41ColorRGB
 90
        0
102
RTVSPost2010PropOp41
 70
     0
102
RTVSPost2010Prop42
 90
       50
102
RTVSPost2010PropOp42
 70
     0
102
RTVSPost2010Prop43
 90
        3
102
RTVSPost2010PropOp43
 70
     0
102
RTVSPost2010Prop44ColorIndex
 90
        5
102
RTVSPost2010Prop44ColorRGB
 90
      255
102
RTVSPost2010PropOp44
 70
     0
102
RTVSPost2010Prop45
280
     0
102
RTVSPost2010PropOp45
 70
     0
102
RTVSPost2010Prop46
 90
       50
102
RTVSPost2010PropOp46
 70
     0
102
RTVSPost2010Prop47
 90
       50
102
RTVSPost2010PropOp47
 70
     0
102
RTVSPost2010Prop48
 90
       50
102
RTVSPost2010PropOp48
 70
     0
102
RTVSPost2010Prop49
280
     0
102
RTVSPost2010PropOp49
 70
     0
102
RTVSPost2010Prop50
 90
       50
102
RTVSPost2010PropOp50
 70
     0
102
RTVSPost2010Prop51ColorIndex
 90
      256
102
RTVSPost2010Prop51ColorRGB
 90
-16777216
102
RTVSPost2010PropOp51
 70
     0
102
RTVSPost2010Prop52
140
1.0
102
RTVSPost2010PropOp52
 70
     0
102
RTVSPost2010Prop53
 90
        2
102
RTVSPost2010PropOp53
 70
     0
102
RTVSPost2010Prop54
  1
strokes_ogs.tif
102
RTVSPost2010PropOp54
 70
     0
102
RTVSPost2010Prop55
280
     0
102
RTVSPost2010PropOp55
 70
     0
102
RTVSPost2010Prop56
140
1.0
102
RTVSPost2010PropOp56
 70
     0
102
RTVSPost2010Prop57
140
1.0
102
RTVSPost2010PropOp57
 70
     0
  0
XRECORD
  5
22B
102
{ACAD_REACTORS
330
22A
102
}
330
22A
100
AcDbXrecord
280
     1
102
RTVSPropertyOp0
 70
     1
102
RTVSPropertyOp1
 70
     1
102
RTVSPropertyOp2
 70
     1
102
RTVSPropertyOp3
 70
     1
102
RTVSPropertyOp4
 70
     1
102
RTVSPropertyOp5
 70
     1
102
RTVSPropertyOp6
 70
     1
102
RTVSPropertyOp7
 70
     1
102
RTVSPropertyOp8
 70
     1
102
RTVSPropertyOp9
 70
     1
102
RTVSPropertyOp10
 70
     1
102
RTVSPropertyOp11
 70
     1
102
RTVSPropertyOp12
 70
     1
102
RTVSPropertyOp13
 70
     1
102
RTVSPropertyOp14
 70
     1
102
RTVSPropertyOp15
 70
     1
102
RTVSPropertyOp16
 70
     1
102
RTVSPropertyOp17
 70
     1
102
RTVSPropertyOp18
 70
     1
102
RTVSPropertyOp19
 70
     1
102
RTVSPropertyOp20
 70
     1
102
RTVSPropertyOp21
 70
     1
102
RTVSPropertyOp22
 70
     1
102
RTVSPropertyOp23
 70
     1
102
RTVSPropertyOp24
 70
     1
102
RTVSPropertyOp25
 70
     1
102
RTVSPropertyOp26
 70
     1
102
RTVSPropertyOp27
 70
     1
102
RTVSPropertyOp28
 70
     1
102
RTVSPropertyOp29
 70
     1
102
RTVSPropertyOp30
 70
     1
102
RTVSPropertyOp31
 70
     1
102
RTVSPropertyOp32
 70
     1
102
RTVSPropertyOp33
 70
     1
102
RTVSPropertyOp34
 70
     1
102
RTVSPropertyOp35
 70
     1
102
RTVSPropertyOp36
 70
     1
102
RTVSPropertyOp37
 70
     1
102
RTVSPropertyOp38
 70
     1
102
RTVSPropertyOp39
 70
     1
102
RTVSPropertyOp40
 70
     1
102
RTVSPropertyOp41
 70
     1
102
RTVSPropertyOp42
 70
     1
102
RTVSPropertyOp43
 70
     1
102
RTVSPropertyOp44
 70
     1
102
RTVSPropertyOp45
 70
     1
102
RTVSPropertyOp46
 70
     1
102
RTVSPropertyOp47
 70
     1
102
RTVSPropertyOp48
 70
     1
102
RTVSPropertyOp49
 70
     1
102
RTVSPropertyOp50
 70
     1
102
RTVSPropertyOp51
 70
     0
102
RTVSPropertyOp52
 70
     0
102
RTVSPropertyOp53
 70
     1
102
RTVSPropertyOp54
 70
     1
102
RTVSPropertyOp55
 70
     1
102
RTVSPropertyOp56
 70
     1
102
RTVSPropertyOp57
 70
     1
102
RTVSPost2010Prop28
280
     0
102
RTVSPost2010PropOp28
 70
     1
102
RTVSPost2010Prop29
280
     1
102
RTVSPost2010PropOp29
 70
     1
102
RTVSPost2010Prop30
280
     1
102
RTVSPost2010PropOp30
 70
     1
102
RTVSPost2010Prop31
280
     0
102
RTVSPost2010PropOp31
 70
     1
102
RTVSPost2010Prop32
280
     0
102
RTVSPost2010PropOp32
 70
     1
102
RTVSPost2010Prop33
280
     0
102
RTVSPost2010PropOp33
 70
     1
102
RTVSPost2010Prop34
280
     0
102
RTVSPost2010PropOp34
 70
     1
102
RTVSPost2010Prop35
280
     0
102
RTVSPost2010PropOp35
 70
     1
102
RTVSPost2010Prop36
280
     0
102
RTVSPost2010PropOp36
 70
     1
102
RTVSPost2010Prop37
 90
       50
102
RTVSPost2010PropOp37
 70
     1
102
RTVSPost2010Prop38
140
0.0
102
RTVSPost2010PropOp38
 70
     1
102
RTVSPost2010Prop39
140
1.0
102
RTVSPost2010PropOp39
 70
     1
102
RTVSPost2010Prop40
 90
        0
102
RTVSPost2010PropOp40
 70
     1
102
RTVSPost2010Prop41ColorIndex
 90
       18
102
RTVSPost2010Prop41ColorRGB
 90
        0
102
RTVSPost2010PropOp41
 70
     1
102
RTVSPost2010Prop42
 90
       50
102
RTVSPost2010PropOp42
 70
     1
102
RTVSPost2010Prop43
 90
        3
102
RTVSPost2010PropOp43
 70
     1
102
RTVSPost2010Prop44ColorIndex
 90
        5
102
RTVSPost2010Prop44ColorRGB
 90
      255
102
RTVSPost2010PropOp44
 70
     1
102
RTVSPost2010Prop45
280
     0
102
RTVSPost2010PropOp45
 70
     1
102
RTVSPost2010Prop46
 90
       50
102
RTVSPost2010PropOp46
 70
     1
102
RTVSPost2010Prop47
 90
       50
102
RTVSPost2010PropOp47
 70
     1
102
RTVSPost2010Prop48
 90
       50
102
RTVSPost2010PropOp48
 70
     1
102
RTVSPost2010Prop49
280
     0
102
RTVSPost2010PropOp49
 70
     1
102
RTVSPost2010Prop50
 90
       50
102
RTVSPost2010PropOp50
 70
     1
102
RTVSPost2010Prop51ColorIndex
 90
      256
102
RTVSPost2010Prop51ColorRGB
 90
-16777216
102
RTVSPost2010PropOp51
 70
     0
102
RTVSPost2010Prop52
140
1.0
102
RTVSPost2010PropOp52
 70
     0
102
RTVSPost2010Prop53
 90
        2
102
RTVSPost2010PropOp53
 70
     1
102
RTVSPost2010Prop54
  1
strokes_ogs.tif
102
RTVSPost2010PropOp54
 70
     1
102
RTVSPost2010Prop55
280
     0
102
RTVSPost2010PropOp55
 70
     1
102
RTVSPost2010Prop56
140
1.0
102
RTVSPost2010PropOp56
 70
     1
102
RTVSPost2010Prop57
140
1.0
102
RTVSPost2010PropOp57
 70
     1
  0
XRECORD
  5
20F
102
{ACAD_REACTORS
330
20E
102
}
330
20E
100
AcDbXrecord
280
     1
102
RTVSPropertyOp0
 70
     1
102
RTVSPropertyOp1
 70
     1
102
RTVSPropertyOp2
 70
     1
102
RTVSPropertyOp3
 70
     1
102
RTVSPropertyOp4
 70
     1
102
RTVSPropertyOp5
 70
     1
102
RTVSPropertyOp6
 70
     1
102
RTVSPropertyOp7
 70
     1
102
RTVSPropertyOp8
 70
     1
102
RTVSPropertyOp9
 70
     1
102
RTVSPropertyOp10
 70
     1
102
RTVSPropertyOp11
 70
     1
102
RTVSPropertyOp12
 70
     1
102
RTVSPropertyOp13
 70
     1
102
RTVSPropertyOp14
 70
     1
102
RTVSPropertyOp15
 70
     1
102
RTVSPropertyOp16
 70
     1
102
RTVSPropertyOp17
 70
     1
102
RTVSPropertyOp18
 70
     1
102
RTVSPropertyOp19
 70
     1
102
RTVSPropertyOp20
 70
     1
102
RTVSPropertyOp21
 70
     1
102
RTVSPropertyOp22
 70
     1
102
RTVSPropertyOp23
 70
     1
102
RTVSPropertyOp24
 70
     1
102
RTVSPropertyOp25
 70
     1
102
RTVSPropertyOp26
 70
     1
102
RTVSPropertyOp27
 70
     1
102
RTVSPropertyOp28
 70
     1
102
RTVSPropertyOp29
 70
     1
102
RTVSPropertyOp30
 70
     1
102
RTVSPropertyOp31
 70
     1
102
RTVSPropertyOp32
 70
     1
102
RTVSPropertyOp33
 70
     1
102
RTVSPropertyOp34
 70
     1
102
RTVSPropertyOp35
 70
     1
102
RTVSPropertyOp36
 70
     1
102
RTVSPropertyOp37
 70
     1
102
RTVSPropertyOp38
 70
     1
102
RTVSPropertyOp39
 70
     1
102
RTVSPropertyOp40
 70
     1
102
RTVSPropertyOp41
 70
     1
102
RTVSPropertyOp42
 70
     1
102
RTVSPropertyOp43
 70
     1
102
RTVSPropertyOp44
 70
     1
102
RTVSPropertyOp45
 70
     1
102
RTVSPropertyOp46
 70
     1
102
RTVSPropertyOp47
 70
     1
102
RTVSPropertyOp48
 70
     1
102
RTVSPropertyOp49
 70
     1
102
RTVSPropertyOp50
 70
     1
102
RTVSPropertyOp51
 70
     0
102
RTVSPropertyOp52
 70
     0
102
RTVSPropertyOp53
 70
     1
102
RTVSPropertyOp54
 70
     1
102
RTVSPropertyOp55
 70
     1
102
RTVSPropertyOp56
 70
     1
102
RTVSPropertyOp57
 70
     1
102
RTVSPost2010Prop28
280
     0
102
RTVSPost2010PropOp28
 70
     1
102
RTVSPost2010Prop29
280
     1
102
RTVSPost2010PropOp29
 70
     1
102
RTVSPost2010Prop30
280
     1
102
RTVSPost2010PropOp30
 70
     1
102
RTVSPost2010Prop31
280
     0
102
RTVSPost2010PropOp31
 70
     1
102
RTVSPost2010Prop32
280
     0
102
RTVSPost2010PropOp32
 70
     1
102
RTVSPost2010Prop33
280
     0
102
RTVSPost2010PropOp33
 70
     1
102
RTVSPost2010Prop34
280
     0
102
RTVSPost2010PropOp34
 70
     1
102
RTVSPost2010Prop35
280
     0
102
RTVSPost2010PropOp35
 70
     1
102
RTVSPost2010Prop36
280
     0
102
RTVSPost2010PropOp36
 70
     1
102
RTVSPost2010Prop37
 90
       50
102
RTVSPost2010PropOp37
 70
     1
102
RTVSPost2010Prop38
140
0.0
102
RTVSPost2010PropOp38
 70
     1
102
RTVSPost2010Prop39
140
1.0
102
RTVSPost2010PropOp39
 70
     1
102
RTVSPost2010Prop40
 90
        0
102
RTVSPost2010PropOp40
 70
     1
102
RTVSPost2010Prop41ColorIndex
 90
       18
102
RTVSPost2010Prop41ColorRGB
 90
        0
102
RTVSPost2010PropOp41
 70
     1
102
RTVSPost2010Prop42
 90
       50
102
RTVSPost2010PropOp42
 70
     1
102
RTVSPost2010Prop43
 90
        3
102
RTVSPost2010PropOp43
 70
     1
102
RTVSPost2010Prop44ColorIndex
 90
        5
102
RTVSPost2010Prop44ColorRGB
 90
      255
102
RTVSPost2010PropOp44
 70
     1
102
RTVSPost2010Prop45
280
     0
102
RTVSPost2010PropOp45
 70
     1
102
RTVSPost2010Prop46
 90
       50
102
RTVSPost2010PropOp46
 70
     1
102
RTVSPost2010Prop47
 90
       50
102
RTVSPost2010PropOp47
 70
     1
102
RTVSPost2010Prop48
 90
       50
102
RTVSPost2010PropOp48
 70
     1
102
RTVSPost2010Prop49
280
     0
102
RTVSPost2010PropOp49
 70
     1
102
RTVSPost2010Prop50
 90
       50
102
RTVSPost2010PropOp50
 70
     1
102
RTVSPost2010Prop51ColorIndex
 90
      256
102
RTVSPost2010Prop51ColorRGB
 90
-16777216
102
RTVSPost2010PropOp51
 70
     0
102
RTVSPost2010Prop52
140
1.0
102
RTVSPost2010PropOp52
 70
     0
102
RTVSPost2010Prop53
 90
        2
102
RTVSPost2010PropOp53
 70
     1
102
RTVSPost2010Prop54
  1
strokes_ogs.tif
102
RTVSPost2010PropOp54
 70
     1
102
RTVSPost2010Prop55
280
     0
102
RTVSPost2010PropOp55
 70
     1
102
RTVSPost2010Prop56
140
1.0
102
RTVSPost2010PropOp56
 70
     1
102
RTVSPost2010Prop57
140
1.0
102
RTVSPost2010PropOp57
 70
     1
  0
XRECORD
  5
211
102
{ACAD_REACTORS
330
210
102
}
330
210
100
AcDbXrecord
280
     1
102
RTVSPropertyOp0
 70
     1
102
RTVSPropertyOp1
 70
     1
102
RTVSPropertyOp2
 70
     1
102
RTVSPropertyOp3
 70
     1
102
RTVSPropertyOp4
 70
     1
102
RTVSPropertyOp5
 70
     1
102
RTVSPropertyOp6
 70
     1
102
RTVSPropertyOp7
 70
     1
102
RTVSPropertyOp8
 70
     1
102
RTVSPropertyOp9
 70
     1
102
RTVSPropertyOp10
 70
     1
102
RTVSPropertyOp11
 70
     1
102
RTVSPropertyOp12
 70
     1
102
RTVSPropertyOp13
 70
     1
102
RTVSPropertyOp14
 70
     1
102
RTVSPropertyOp15
 70
     1
102
RTVSPropertyOp16
 70
     1
102
RTVSPropertyOp17
 70
     1
102
RTVSPropertyOp18
 70
     1
102
RTVSPropertyOp19
 70
     1
102
RTVSPropertyOp20
 70
     1
102
RTVSPropertyOp21
 70
     1
102
RTVSPropertyOp22
 70
     1
102
RTVSPropertyOp23
 70
     1
102
RTVSPropertyOp24
 70
     1
102
RTVSPropertyOp25
 70
     1
102
RTVSPropertyOp26
 70
     1
102
RTVSPropertyOp27
 70
     1
102
RTVSPropertyOp28
 70
     1
102
RTVSPropertyOp29
 70
     1
102
RTVSPropertyOp30
 70
     1
102
RTVSPropertyOp31
 70
     1
102
RTVSPropertyOp32
 70
     1
102
RTVSPropertyOp33
 70
     1
102
RTVSPropertyOp34
 70
     1
102
RTVSPropertyOp35
 70
     1
102
RTVSPropertyOp36
 70
     1
102
RTVSPropertyOp37
 70
     1
102
RTVSPropertyOp38
 70
     1
102
RTVSPropertyOp39
 70
     1
102
RTVSPropertyOp40
 70
     1
102
RTVSPropertyOp41
 70
     1
102
RTVSPropertyOp42
 70
     1
102
RTVSPropertyOp43
 70
     1
102
RTVSPropertyOp44
 70
     1
102
RTVSPropertyOp45
 70
     1
102
RTVSPropertyOp46
 70
     1
102
RTVSPropertyOp47
 70
     1
102
RTVSPropertyOp48
 70
     1
102
RTVSPropertyOp49
 70
     1
102
RTVSPropertyOp50
 70
     1
102
RTVSPropertyOp51
 70
     0
102
RTVSPropertyOp52
 70
     0
102
RTVSPropertyOp53
 70
     1
102
RTVSPropertyOp54
 70
     1
102
RTVSPropertyOp55
 70
     1
102
RTVSPropertyOp56
 70
     1
102
RTVSPropertyOp57
 70
     1
102
RTVSPost2010Prop28
280
     0
102
RTVSPost2010PropOp28
 70
     1
102
RTVSPost2010Prop29
280
     1
102
RTVSPost2010PropOp29
 70
     1
102
RTVSPost2010Prop30
280
     1
102
RTVSPost2010PropOp30
 70
     1
102
RTVSPost2010Prop31
280
     0
102
RTVSPost2010PropOp31
 70
     1
102
RTVSPost2010Prop32
280
     0
102
RTVSPost2010PropOp32
 70
     1
102
RTVSPost2010Prop33
280
     0
102
RTVSPost2010PropOp33
 70
     1
102
RTVSPost2010Prop34
280
     0
102
RTVSPost2010PropOp34
 70
     1
102
RTVSPost2010Prop35
280
     0
102
RTVSPost2010PropOp35
 70
     1
102
RTVSPost2010Prop36
280
     0
102
RTVSPost2010PropOp36
 70
     1
102
RTVSPost2010Prop37
 90
       50
102
RTVSPost2010PropOp37
 70
     1
102
RTVSPost2010Prop38
140
0.0
102
RTVSPost2010PropOp38
 70
     1
102
RTVSPost2010Prop39
140
1.0
102
RTVSPost2010PropOp39
 70
     1
102
RTVSPost2010Prop40
 90
        0
102
RTVSPost2010PropOp40
 70
     1
102
RTVSPost2010Prop41ColorIndex
 90
       18
102
RTVSPost2010Prop41ColorRGB
 90
        0
102
RTVSPost2010PropOp41
 70
     1
102
RTVSPost2010Prop42
 90
       50
102
RTVSPost2010PropOp42
 70
     1
102
RTVSPost2010Prop43
 90
        3
102
RTVSPost2010PropOp43
 70
     1
102
RTVSPost2010Prop44ColorIndex
 90
        5
102
RTVSPost2010Prop44ColorRGB
 90
      255
102
RTVSPost2010PropOp44
 70
     1
102
RTVSPost2010Prop45
280
     0
102
RTVSPost2010PropOp45
 70
     1
102
RTVSPost2010Prop46
 90
       50
102
RTVSPost2010PropOp46
 70
     1
102
RTVSPost2010Prop47
 90
       50
102
RTVSPost2010PropOp47
 70
     1
102
RTVSPost2010Prop48
 90
       50
102
RTVSPost2010PropOp48
 70
     1
102
RTVSPost2010Prop49
280
     0
102
RTVSPost2010PropOp49
 70
     1
102
RTVSPost2010Prop50
 90
       50
102
RTVSPost2010PropOp50
 70
     1
102
RTVSPost2010Prop51ColorIndex
 90
      256
102
RTVSPost2010Prop51ColorRGB
 90
-16777216
102
RTVSPost2010PropOp51
 70
     0
102
RTVSPost2010Prop52
140
1.0
102
RTVSPost2010PropOp52
 70
     0
102
RTVSPost2010Prop53
 90
        2
102
RTVSPost2010PropOp53
 70
     1
102
RTVSPost2010Prop54
  1
strokes_ogs.tif
102
RTVSPost2010PropOp54
 70
     1
102
RTVSPost2010Prop55
280
     0
102
RTVSPost2010PropOp55
 70
     1
102
RTVSPost2010Prop56
140
1.0
102
RTVSPost2010PropOp56
 70
     1
102
RTVSPost2010Prop57
140
1.0
102
RTVSPost2010PropOp57
 70
     1
  0
XRECORD
  5
213
102
{ACAD_REACTORS
330
212
102
}
330
212
100
AcDbXrecord
280
     1
102
RTVSPropertyOp0
 70
     1
102
RTVSPropertyOp1
 70
     1
102
RTVSPropertyOp2
 70
     1
102
RTVSPropertyOp3
 70
     1
102
RTVSPropertyOp4
 70
     1
102
RTVSPropertyOp5
 70
     1
102
RTVSPropertyOp6
 70
     1
102
RTVSPropertyOp7
 70
     1
102
RTVSPropertyOp8
 70
     1
102
RTVSPropertyOp9
 70
     1
102
RTVSPropertyOp10
 70
     1
102
RTVSPropertyOp11
 70
     1
102
RTVSPropertyOp12
 70
     1
102
RTVSPropertyOp13
 70
     1
102
RTVSPropertyOp14
 70
     1
102
RTVSPropertyOp15
 70
     1
102
RTVSPropertyOp16
 70
     1
102
RTVSPropertyOp17
 70
     1
102
RTVSPropertyOp18
 70
     1
102
RTVSPropertyOp19
 70
     1
102
RTVSPropertyOp20
 70
     1
102
RTVSPropertyOp21
 70
     1
102
RTVSPropertyOp22
 70
     1
102
RTVSPropertyOp23
 70
     1
102
RTVSPropertyOp24
 70
     1
102
RTVSPropertyOp25
 70
     1
102
RTVSPropertyOp26
 70
     1
102
RTVSPropertyOp27
 70
     1
102
RTVSPropertyOp28
 70
     1
102
RTVSPropertyOp29
 70
     1
102
RTVSPropertyOp30
 70
     1
102
RTVSPropertyOp31
 70
     1
102
RTVSPropertyOp32
 70
     1
102
RTVSPropertyOp33
 70
     1
102
RTVSPropertyOp34
 70
     1
102
RTVSPropertyOp35
 70
     1
102
RTVSPropertyOp36
 70
     1
102
RTVSPropertyOp37
 70
     1
102
RTVSPropertyOp38
 70
     1
102
RTVSPropertyOp39
 70
     1
102
RTVSPropertyOp40
 70
     1
102
RTVSPropertyOp41
 70
     1
102
RTVSPropertyOp42
 70
     1
102
RTVSPropertyOp43
 70
     1
102
RTVSPropertyOp44
 70
     1
102
RTVSPropertyOp45
 70
     1
102
RTVSPropertyOp46
 70
     1
102
RTVSPropertyOp47
 70
     1
102
RTVSPropertyOp48
 70
     1
102
RTVSPropertyOp49
 70
     1
102
RTVSPropertyOp50
 70
     1
102
RTVSPropertyOp51
 70
     0
102
RTVSPropertyOp52
 70
     0
102
RTVSPropertyOp53
 70
     1
102
RTVSPropertyOp54
 70
     1
102
RTVSPropertyOp55
 70
     1
102
RTVSPropertyOp56
 70
     1
102
RTVSPropertyOp57
 70
     1
102
RTVSPost2010Prop28
280
     0
102
RTVSPost2010PropOp28
 70
     1
102
RTVSPost2010Prop29
280
     1
102
RTVSPost2010PropOp29
 70
     1
102
RTVSPost2010Prop30
280
     1
102
RTVSPost2010PropOp30
 70
     1
102
RTVSPost2010Prop31
280
     0
102
RTVSPost2010PropOp31
 70
     1
102
RTVSPost2010Prop32
280
     0
102
RTVSPost2010PropOp32
 70
     1
102
RTVSPost2010Prop33
280
     0
102
RTVSPost2010PropOp33
 70
     1
102
RTVSPost2010Prop34
280
     0
102
RTVSPost2010PropOp34
 70
     1
102
RTVSPost2010Prop35
280
     0
102
RTVSPost2010PropOp35
 70
     1
102
RTVSPost2010Prop36
280
     0
102
RTVSPost2010PropOp36
 70
     1
102
RTVSPost2010Prop37
 90
       50
102
RTVSPost2010PropOp37
 70
     1
102
RTVSPost2010Prop38
140
0.0
102
RTVSPost2010PropOp38
 70
     1
102
RTVSPost2010Prop39
140
1.0
102
RTVSPost2010PropOp39
 70
     1
102
RTVSPost2010Prop40
 90
        0
102
RTVSPost2010PropOp40
 70
     1
102
RTVSPost2010Prop41ColorIndex
 90
       18
102
RTVSPost2010Prop41ColorRGB
 90
        0
102
RTVSPost2010PropOp41
 70
     1
102
RTVSPost2010Prop42
 90
       50
102
RTVSPost2010PropOp42
 70
     1
102
RTVSPost2010Prop43
 90
        3
102
RTVSPost2010PropOp43
 70
     1
102
RTVSPost2010Prop44ColorIndex
 90
        5
102
RTVSPost2010Prop44ColorRGB
 90
      255
102
RTVSPost2010PropOp44
 70
     1
102
RTVSPost2010Prop45
280
     0
102
RTVSPost2010PropOp45
 70
     1
102
RTVSPost2010Prop46
 90
       50
102
RTVSPost2010PropOp46
 70
     1
102
RTVSPost2010Prop47
 90
       50
102
RTVSPost2010PropOp47
 70
     1
102
RTVSPost2010Prop48
 90
       50
102
RTVSPost2010PropOp48
 70
     1
102
RTVSPost2010Prop49
280
     0
102
RTVSPost2010PropOp49
 70
     1
102
RTVSPost2010Prop50
 90
       50
102
RTVSPost2010PropOp50
 70
     1
102
RTVSPost2010Prop51ColorIndex
 90
      256
102
RTVSPost2010Prop51ColorRGB
 90
-16777216
102
RTVSPost2010PropOp51
 70
     0
102
RTVSPost2010Prop52
140
1.0
102
RTVSPost2010PropOp52
 70
     0
102
RTVSPost2010Prop53
 90
        2
102
RTVSPost2010PropOp53
 70
     1
102
RTVSPost2010Prop54
  1
strokes_ogs.tif
102
RTVSPost2010PropOp54
 70
     1
102
RTVSPost2010Prop55
280
     0
102
RTVSPost2010PropOp55
 70
     1
102
RTVSPost2010Prop56
140
1.0
102
RTVSPost2010PropOp56
 70
     1
102
RTVSPost2010Prop57
140
1.0
102
RTVSPost2010PropOp57
 70
     1
  0
XRECORD
  5
215
102
{ACAD_REACTORS
330
214
102
}
330
214
100
AcDbXrecord
280
     1
102
RTVSPropertyOp0
 70
     1
102
RTVSPropertyOp1
 70
     1
102
RTVSPropertyOp2
 70
     1
102
RTVSPropertyOp3
 70
     1
102
RTVSPropertyOp4
 70
     1
102
RTVSPropertyOp5
 70
     1
102
RTVSPropertyOp6
 70
     1
102
RTVSPropertyOp7
 70
     1
102
RTVSPropertyOp8
 70
     1
102
RTVSPropertyOp9
 70
     1
102
RTVSPropertyOp10
 70
     1
102
RTVSPropertyOp11
 70
     1
102
RTVSPropertyOp12
 70
     1
102
RTVSPropertyOp13
 70
     1
102
RTVSPropertyOp14
 70
     1
102
RTVSPropertyOp15
 70
     1
102
RTVSPropertyOp16
 70
     1
102
RTVSPropertyOp17
 70
     1
102
RTVSPropertyOp18
 70
     1
102
RTVSPropertyOp19
 70
     1
102
RTVSPropertyOp20
 70
     1
102
RTVSPropertyOp21
 70
     1
102
RTVSPropertyOp22
 70
     1
102
RTVSPropertyOp23
 70
     1
102
RTVSPropertyOp24
 70
     1
102
RTVSPropertyOp25
 70
     1
102
RTVSPropertyOp26
 70
     1
102
RTVSPropertyOp27
 70
     1
102
RTVSPropertyOp28
 70
     1
102
RTVSPropertyOp29
 70
     1
102
RTVSPropertyOp30
 70
     1
102
RTVSPropertyOp31
 70
     1
102
RTVSPropertyOp32
 70
     1
102
RTVSPropertyOp33
 70
     1
102
RTVSPropertyOp34
 70
     1
102
RTVSPropertyOp35
 70
     1
102
RTVSPropertyOp36
 70
     1
102
RTVSPropertyOp37
 70
     1
102
RTVSPropertyOp38
 70
     1
102
RTVSPropertyOp39
 70
     1
102
RTVSPropertyOp40
 70
     1
102
RTVSPropertyOp41
 70
     1
102
RTVSPropertyOp42
 70
     1
102
RTVSPropertyOp43
 70
     1
102
RTVSPropertyOp44
 70
     1
102
RTVSPropertyOp45
 70
     1
102
RTVSPropertyOp46
 70
     1
102
RTVSPropertyOp47
 70
     1
102
RTVSPropertyOp48
 70
     1
102
RTVSPropertyOp49
 70
     1
102
RTVSPropertyOp50
 70
     1
102
RTVSPropertyOp51
 70
     0
102
RTVSPropertyOp52
 70
     0
102
RTVSPropertyOp53
 70
     1
102
RTVSPropertyOp54
 70
     1
102
RTVSPropertyOp55
 70
     1
102
RTVSPropertyOp56
 70
     1
102
RTVSPropertyOp57
 70
     1
102
RTVSPost2010Prop28
280
     0
102
RTVSPost2010PropOp28
 70
     1
102
RTVSPost2010Prop29
280
     1
102
RTVSPost2010PropOp29
 70
     1
102
RTVSPost2010Prop30
280
     1
102
RTVSPost2010PropOp30
 70
     1
102
RTVSPost2010Prop31
280
     0
102
RTVSPost2010PropOp31
 70
     1
102
RTVSPost2010Prop32
280
     0
102
RTVSPost2010PropOp32
 70
     1
102
RTVSPost2010Prop33
280
     0
102
RTVSPost2010PropOp33
 70
     1
102
RTVSPost2010Prop34
280
     0
102
RTVSPost2010PropOp34
 70
     1
102
RTVSPost2010Prop35
280
     0
102
RTVSPost2010PropOp35
 70
     1
102
RTVSPost2010Prop36
280
     0
102
RTVSPost2010PropOp36
 70
     1
102
RTVSPost2010Prop37
 90
       50
102
RTVSPost2010PropOp37
 70
     1
102
RTVSPost2010Prop38
140
0.0
102
RTVSPost2010PropOp38
 70
     1
102
RTVSPost2010Prop39
140
1.0
102
RTVSPost2010PropOp39
 70
     1
102
RTVSPost2010Prop40
 90
        0
102
RTVSPost2010PropOp40
 70
     1
102
RTVSPost2010Prop41ColorIndex
 90
       18
102
RTVSPost2010Prop41ColorRGB
 90
        0
102
RTVSPost2010PropOp41
 70
     1
102
RTVSPost2010Prop42
 90
       50
102
RTVSPost2010PropOp42
 70
     1
102
RTVSPost2010Prop43
 90
        3
102
RTVSPost2010PropOp43
 70
     1
102
RTVSPost2010Prop44ColorIndex
 90
        5
102
RTVSPost2010Prop44ColorRGB
 90
      255
102
RTVSPost2010PropOp44
 70
     1
102
RTVSPost2010Prop45
280
     0
102
RTVSPost2010PropOp45
 70
     1
102
RTVSPost2010Prop46
 90
       50
102
RTVSPost2010PropOp46
 70
     1
102
RTVSPost2010Prop47
 90
       50
102
RTVSPost2010PropOp47
 70
     1
102
RTVSPost2010Prop48
 90
       50
102
RTVSPost2010PropOp48
 70
     1
102
RTVSPost2010Prop49
280
     0
102
RTVSPost2010PropOp49
 70
     1
102
RTVSPost2010Prop50
 90
       50
102
RTVSPost2010PropOp50
 70
     1
102
RTVSPost2010Prop51ColorIndex
 90
      256
102
RTVSPost2010Prop51ColorRGB
 90
-16777216
102
RTVSPost2010PropOp51
 70
     0
102
RTVSPost2010Prop52
140
1.0
102
RTVSPost2010PropOp52
 70
     0
102
RTVSPost2010Prop53
 90
        2
102
RTVSPost2010PropOp53
 70
     1
102
RTVSPost2010Prop54
  1
strokes_ogs.tif
102
RTVSPost2010PropOp54
 70
     1
102
RTVSPost2010Prop55
280
     0
102
RTVSPost2010PropOp55
 70
     1
102
RTVSPost2010Prop56
140
1.0
102
RTVSPost2010PropOp56
 70
     1
102
RTVSPost2010Prop57
140
1.0
102
RTVSPost2010PropOp57
 70
     1
  0
XRECORD
  5
21B
102
{ACAD_REACTORS
330
21A
102
}
330
21A
100
AcDbXrecord
280
     1
102
RTVSPropertyOp0
 70
     1
102
RTVSPropertyOp1
 70
     1
102
RTVSPropertyOp2
 70
     1
102
RTVSPropertyOp3
 70
     1
102
RTVSPropertyOp4
 70
     1
102
RTVSPropertyOp5
 70
     1
102
RTVSPropertyOp6
 70
     1
102
RTVSPropertyOp7
 70
     1
102
RTVSPropertyOp8
 70
     1
102
RTVSPropertyOp9
 70
     1
102
RTVSPropertyOp10
 70
     1
102
RTVSPropertyOp11
 70
     1
102
RTVSPropertyOp12
 70
     1
102
RTVSPropertyOp13
 70
     1
102
RTVSPropertyOp14
 70
     1
102
RTVSPropertyOp15
 70
     1
102
RTVSPropertyOp16
 70
     1
102
RTVSPropertyOp17
 70
     1
102
RTVSPropertyOp18
 70
     1
102
RTVSPropertyOp19
 70
     1
102
RTVSPropertyOp20
 70
     1
102
RTVSPropertyOp21
 70
     1
102
RTVSPropertyOp22
 70
     1
102
RTVSPropertyOp23
 70
     1
102
RTVSPropertyOp24
 70
     1
102
RTVSPropertyOp25
 70
     1
102
RTVSPropertyOp26
 70
     1
102
RTVSPropertyOp27
 70
     1
102
RTVSPropertyOp28
 70
     1
102
RTVSPropertyOp29
 70
     1
102
RTVSPropertyOp30
 70
     1
102
RTVSPropertyOp31
 70
     1
102
RTVSPropertyOp32
 70
     1
102
RTVSPropertyOp33
 70
     1
102
RTVSPropertyOp34
 70
     1
102
RTVSPropertyOp35
 70
     1
102
RTVSPropertyOp36
 70
     1
102
RTVSPropertyOp37
 70
     1
102
RTVSPropertyOp38
 70
     1
102
RTVSPropertyOp39
 70
     1
102
RTVSPropertyOp40
 70
     1
102
RTVSPropertyOp41
 70
     1
102
RTVSPropertyOp42
 70
     1
102
RTVSPropertyOp43
 70
     1
102
RTVSPropertyOp44
 70
     1
102
RTVSPropertyOp45
 70
     1
102
RTVSPropertyOp46
 70
     1
102
RTVSPropertyOp47
 70
     1
102
RTVSPropertyOp48
 70
     1
102
RTVSPropertyOp49
 70
     1
102
RTVSPropertyOp50
 70
     1
102
RTVSPropertyOp51
 70
     0
102
RTVSPropertyOp52
 70
     0
102
RTVSPropertyOp53
 70
     1
102
RTVSPropertyOp54
 70
     1
102
RTVSPropertyOp55
 70
     1
102
RTVSPropertyOp56
 70
     1
102
RTVSPropertyOp57
 70
     1
102
RTVSPost2010Prop28
280
     0
102
RTVSPost2010PropOp28
 70
     1
102
RTVSPost2010Prop29
280
     1
102
RTVSPost2010PropOp29
 70
     1
102
RTVSPost2010Prop30
280
     1
102
RTVSPost2010PropOp30
 70
     1
102
RTVSPost2010Prop31
280
     0
102
RTVSPost2010PropOp31
 70
     1
102
RTVSPost2010Prop32
280
     0
102
RTVSPost2010PropOp32
 70
     1
102
RTVSPost2010Prop33
280
     0
102
RTVSPost2010PropOp33
 70
     1
102
RTVSPost2010Prop34
280
     0
102
RTVSPost2010PropOp34
 70
     1
102
RTVSPost2010Prop35
280
     0
102
RTVSPost2010PropOp35
 70
     1
102
RTVSPost2010Prop36
280
     0
102
RTVSPost2010PropOp36
 70
     1
102
RTVSPost2010Prop37
 90
       50
102
RTVSPost2010PropOp37
 70
     1
102
RTVSPost2010Prop38
140
0.0
102
RTVSPost2010PropOp38
 70
     1
102
RTVSPost2010Prop39
140
1.0
102
RTVSPost2010PropOp39
 70
     1
102
RTVSPost2010Prop40
 90
        0
102
RTVSPost2010PropOp40
 70
     1
102
RTVSPost2010Prop41ColorIndex
 90
       18
102
RTVSPost2010Prop41ColorRGB
 90
        0
102
RTVSPost2010PropOp41
 70
     1
102
RTVSPost2010Prop42
 90
       50
102
RTVSPost2010PropOp42
 70
     1
102
RTVSPost2010Prop43
 90
        3
102
RTVSPost2010PropOp43
 70
     1
102
RTVSPost2010Prop44ColorIndex
 90
        5
102
RTVSPost2010Prop44ColorRGB
 90
      255
102
RTVSPost2010PropOp44
 70
     1
102
RTVSPost2010Prop45
280
     0
102
RTVSPost2010PropOp45
 70
     1
102
RTVSPost2010Prop46
 90
       50
102
RTVSPost2010PropOp46
 70
     1
102
RTVSPost2010Prop47
 90
       50
102
RTVSPost2010PropOp47
 70
     1
102
RTVSPost2010Prop48
 90
       50
102
RTVSPost2010PropOp48
 70
     1
102
RTVSPost2010Prop49
280
     0
102
RTVSPost2010PropOp49
 70
     1
102
RTVSPost2010Prop50
 90
       50
102
RTVSPost2010PropOp50
 70
     1
102
RTVSPost2010Prop51ColorIndex
 90
      256
102
RTVSPost2010Prop51ColorRGB
 90
-16777216
102
RTVSPost2010PropOp51
 70
     0
102
RTVSPost2010Prop52
140
1.0
102
RTVSPost2010PropOp52
 70
     0
102
RTVSPost2010Prop53
 90
        2
102
RTVSPost2010PropOp53
 70
     1
102
RTVSPost2010Prop54
  1
strokes_ogs.tif
102
RTVSPost2010PropOp54
 70
     1
102
RTVSPost2010Prop55
280
     0
102
RTVSPost2010PropOp55
 70
     1
102
RTVSPost2010Prop56
140
1.0
102
RTVSPost2010PropOp56
 70
     1
102
RTVSPost2010Prop57
140
1.0
102
RTVSPost2010PropOp57
 70
     1
  0
XRECORD
  5
22F
102
{ACAD_REACTORS
330
22E
102
}
330
22E
100
AcDbXrecord
280
     1
102
RTVSPropertyOp0
 70
     0
102
RTVSPropertyOp1
 70
     0
102
RTVSPropertyOp2
 70
     0
102
RTVSPropertyOp3
 70
     0
102
RTVSPropertyOp4
 70
     0
102
RTVSPropertyOp5
 70
     0
102
RTVSPropertyOp6
 70
     0
102
RTVSPropertyOp7
 70
     0
102
RTVSPropertyOp8
 70
     0
102
RTVSPropertyOp9
 70
     0
102
RTVSPropertyOp10
 70
     0
102
RTVSPropertyOp11
 70
     0
102
RTVSPropertyOp12
 70
     0
102
RTVSPropertyOp13
 70
     0
102
RTVSPropertyOp14
 70
     2
102
RTVSPropertyOp15
 70
     0
102
RTVSPropertyOp16
 70
     0
102
RTVSPropertyOp17
 70
     0
102
RTVSPropertyOp18
 70
     0
102
RTVSPropertyOp19
 70
     0
102
RTVSPropertyOp20
 70
     0
102
RTVSPropertyOp21
 70
     0
102
RTVSPropertyOp22
 70
     0
102
RTVSPropertyOp23
 70
     0
102
RTVSPropertyOp24
 70
     0
102
RTVSPropertyOp25
 70
     0
102
RTVSPropertyOp26
 70
     0
102
RTVSPropertyOp27
 70
     0
102
RTVSPropertyOp28
 70
     0
102
RTVSPropertyOp29
 70
     0
102
RTVSPropertyOp30
 70
     0
102
RTVSPropertyOp31
 70
     0
102
RTVSPropertyOp32
 70
     0
102
RTVSPropertyOp33
 70
     0
102
RTVSPropertyOp34
 70
     0
102
RTVSPropertyOp35
 70
     0
102
RTVSPropertyOp36
 70
     0
102
RTVSPropertyOp37
 70
     0
102
RTVSPropertyOp38
 70
     0
102
RTVSPropertyOp39
 70
     0
102
RTVSPropertyOp40
 70
     0
102
RTVSPropertyOp41
 70
     0
102
RTVSPropertyOp42
 70
     0
102
RTVSPropertyOp43
 70
     0
102
RTVSPropertyOp44
 70
     0
102
RTVSPropertyOp45
 70
     0
102
RTVSPropertyOp46
 70
     0
102
RTVSPropertyOp47
 70
     0
102
RTVSPropertyOp48
 70
     0
102
RTVSPropertyOp49
 70
     0
102
RTVSPropertyOp50
 70
     0
102
RTVSPropertyOp51
 70
     0
102
RTVSPropertyOp52
 70
     0
102
RTVSPropertyOp53
 70
     0
102
RTVSPropertyOp54
 70
     0
102
RTVSPropertyOp55
 70
     0
102
RTVSPropertyOp56
 70
     0
102
RTVSPropertyOp57
 70
     0
102
RTVSPost2010Prop28
280
     0
102
RTVSPost2010PropOp28
 70
     0
102
RTVSPost2010Prop29
280
     1
102
RTVSPost2010PropOp29
 70
     0
102
RTVSPost2010Prop30
280
     1
102
RTVSPost2010PropOp30
 70
     0
102
RTVSPost2010Prop31
280
     0
102
RTVSPost2010PropOp31
 70
     0
102
RTVSPost2010Prop32
280
     0
102
RTVSPost2010PropOp32
 70
     0
102
RTVSPost2010Prop33
280
     0
102
RTVSPost2010PropOp33
 70
     0
102
RTVSPost2010Prop34
280
     0
102
RTVSPost2010PropOp34
 70
     0
102
RTVSPost2010Prop35
280
     0
102
RTVSPost2010PropOp35
 70
     0
102
RTVSPost2010Prop36
280
     0
102
RTVSPost2010PropOp36
 70
     0
102
RTVSPost2010Prop37
 90
       50
102
RTVSPost2010PropOp37
 70
     0
102
RTVSPost2010Prop38
140
0.0
102
RTVSPost2010PropOp38
 70
     0
102
RTVSPost2010Prop39
140
1.0
102
RTVSPost2010PropOp39
 70
     0
102
RTVSPost2010Prop40
 90
        0
102
RTVSPost2010PropOp40
 70
     0
102
RTVSPost2010Prop41ColorIndex
 90
       18
102
RTVSPost2010Prop41ColorRGB
 90
        0
102
RTVSPost2010PropOp41
 70
     0
102
RTVSPost2010Prop42
 90
       50
102
RTVSPost2010PropOp42
 70
     0
102
RTVSPost2010Prop43
 90
        3
102
RTVSPost2010PropOp43
 70
     0
102
RTVSPost2010Prop44ColorIndex
 90
        5
102
RTVSPost2010Prop44ColorRGB
 90
      255
102
RTVSPost2010PropOp44
 70
     0
102
RTVSPost2010Prop45
280
     0
102
RTVSPost2010PropOp45
 70
     0
102
RTVSPost2010Prop46
 90
       50
102
RTVSPost2010PropOp46
 70
     0
102
RTVSPost2010Prop47
 90
       50
102
RTVSPost2010PropOp47
 70
     0
102
RTVSPost2010Prop48
 90
       50
102
RTVSPost2010PropOp48
 70
     0
102
RTVSPost2010Prop49
280
     0
102
RTVSPost2010PropOp49
 70
     0
102
RTVSPost2010Prop50
 90
       50
102
RTVSPost2010PropOp50
 70
     0
102
RTVSPost2010Prop51ColorIndex
 90
      256
102
RTVSPost2010Prop51ColorRGB
 90
-16777216
102
RTVSPost2010PropOp51
 70
     0
102
RTVSPost2010Prop52
140
1.0
102
RTVSPost2010PropOp52
 70
     0
102
RTVSPost2010Prop53
 90
        2
102
RTVSPost2010PropOp53
 70
     0
102
RTVSPost2010Prop54
  1
strokes_ogs.tif
102
RTVSPost2010PropOp54
 70
     0
102
RTVSPost2010Prop55
280
     0
102
RTVSPost2010PropOp55
 70
     0
102
RTVSPost2010Prop56
140
1.0
102
RTVSPost2010PropOp56
 70
     0
102
RTVSPost2010Prop57
140
1.0
102
RTVSPost2010PropOp57
 70
     0
  0
XRECORD
  5
229
102
{ACAD_REACTORS
330
228
102
}
330
228
100
AcDbXrecord
280
     1
102
RTVSPropertyOp0
 70
     1
102
RTVSPropertyOp1
 70
     1
102
RTVSPropertyOp2
 70
     1
102
RTVSPropertyOp3
 70
     1
102
RTVSPropertyOp4
 70
     1
102
RTVSPropertyOp5
 70
     1
102
RTVSPropertyOp6
 70
     1
102
RTVSPropertyOp7
 70
     1
102
RTVSPropertyOp8
 70
     1
102
RTVSPropertyOp9
 70
     1
102
RTVSPropertyOp10
 70
     1
102
RTVSPropertyOp11
 70
     1
102
RTVSPropertyOp12
 70
     1
102
RTVSPropertyOp13
 70
     1
102
RTVSPropertyOp14
 70
     1
102
RTVSPropertyOp15
 70
     1
102
RTVSPropertyOp16
 70
     1
102
RTVSPropertyOp17
 70
     1
102
RTVSPropertyOp18
 70
     1
102
RTVSPropertyOp19
 70
     1
102
RTVSPropertyOp20
 70
     1
102
RTVSPropertyOp21
 70
     1
102
RTVSPropertyOp22
 70
     1
102
RTVSPropertyOp23
 70
     1
102
RTVSPropertyOp24
 70
     1
102
RTVSPropertyOp25
 70
     1
102
RTVSPropertyOp26
 70
     1
102
RTVSPropertyOp27
 70
     1
102
RTVSPropertyOp28
 70
     1
102
RTVSPropertyOp29
 70
     1
102
RTVSPropertyOp30
 70
     1
102
RTVSPropertyOp31
 70
     1
102
RTVSPropertyOp32
 70
     1
102
RTVSPropertyOp33
 70
     1
102
RTVSPropertyOp34
 70
     1
102
RTVSPropertyOp35
 70
     1
102
RTVSPropertyOp36
 70
     1
102
RTVSPropertyOp37
 70
     1
102
RTVSPropertyOp38
 70
     1
102
RTVSPropertyOp39
 70
     1
102
RTVSPropertyOp40
 70
     1
102
RTVSPropertyOp41
 70
     1
102
RTVSPropertyOp42
 70
     1
102
RTVSPropertyOp43
 70
     1
102
RTVSPropertyOp44
 70
     1
102
RTVSPropertyOp45
 70
     1
102
RTVSPropertyOp46
 70
     1
102
RTVSPropertyOp47
 70
     1
102
RTVSPropertyOp48
 70
     1
102
RTVSPropertyOp49
 70
     1
102
RTVSPropertyOp50
 70
     1
102
RTVSPropertyOp51
 70
     0
102
RTVSPropertyOp52
 70
     0
102
RTVSPropertyOp53
 70
     1
102
RTVSPropertyOp54
 70
     1
102
RTVSPropertyOp55
 70
     1
102
RTVSPropertyOp56
 70
     1
102
RTVSPropertyOp57
 70
     1
102
RTVSPost2010Prop28
280
     0
102
RTVSPost2010PropOp28
 70
     1
102
RTVSPost2010Prop29
280
     1
102
RTVSPost2010PropOp29
 70
     1
102
RTVSPost2010Prop30
280
     1
102
RTVSPost2010PropOp30
 70
     1
102
RTVSPost2010Prop31
280
     0
102
RTVSPost2010PropOp31
 70
     1
102
RTVSPost2010Prop32
280
     0
102
RTVSPost2010PropOp32
 70
     1
102
RTVSPost2010Prop33
280
     0
102
RTVSPost2010PropOp33
 70
     1
102
RTVSPost2010Prop34
280
     0
102
RTVSPost2010PropOp34
 70
     1
102
RTVSPost2010Prop35
280
     0
102
RTVSPost2010PropOp35
 70
     1
102
RTVSPost2010Prop36
280
     0
102
RTVSPost2010PropOp36
 70
     1
102
RTVSPost2010Prop37
 90
       50
102
RTVSPost2010PropOp37
 70
     1
102
RTVSPost2010Prop38
140
0.0
102
RTVSPost2010PropOp38
 70
     1
102
RTVSPost2010Prop39
140
1.0
102
RTVSPost2010PropOp39
 70
     1
102
RTVSPost2010Prop40
 90
        0
102
RTVSPost2010PropOp40
 70
     1
102
RTVSPost2010Prop41ColorIndex
 90
       18
102
RTVSPost2010Prop41ColorRGB
 90
        0
102
RTVSPost2010PropOp41
 70
     1
102
RTVSPost2010Prop42
 90
       50
102
RTVSPost2010PropOp42
 70
     1
102
RTVSPost2010Prop43
 90
        3
102
RTVSPost2010PropOp43
 70
     1
102
RTVSPost2010Prop44ColorIndex
 90
        5
102
RTVSPost2010Prop44ColorRGB
 90
      255
102
RTVSPost2010PropOp44
 70
     1
102
RTVSPost2010Prop45
280
     0
102
RTVSPost2010PropOp45
 70
     1
102
RTVSPost2010Prop46
 90
       50
102
RTVSPost2010PropOp46
 70
     1
102
RTVSPost2010Prop47
 90
       50
102
RTVSPost2010PropOp47
 70
     1
102
RTVSPost2010Prop48
 90
       50
102
RTVSPost2010PropOp48
 70
     1
102
RTVSPost2010Prop49
280
     0
102
RTVSPost2010PropOp49
 70
     1
102
RTVSPost2010Prop50
 90
       50
102
RTVSPost2010PropOp50
 70
     1
102
RTVSPost2010Prop51ColorIndex
 90
      256
102
RTVSPost2010Prop51ColorRGB
 90
-16777216
102
RTVSPost2010PropOp51
 70
     0
102
RTVSPost2010Prop52
140
1.0
102
RTVSPost2010PropOp52
 70
     0
102
RTVSPost2010Prop53
 90
        2
102
RTVSPost2010PropOp53
 70
     1
102
RTVSPost2010Prop54
  1
strokes_ogs.tif
102
RTVSPost2010PropOp54
 70
     1
102
RTVSPost2010Prop55
280
     0
102
RTVSPost2010PropOp55
 70
     1
102
RTVSPost2010Prop56
140
1.0
102
RTVSPost2010PropOp56
 70
     1
102
RTVSPost2010Prop57
140
1.0
102
RTVSPost2010PropOp57
 70
     1
  0
XRECORD
  5
231
102
{ACAD_REACTORS
330
230
102
}
330
230
100
AcDbXrecord
280
     1
102
RTVSPropertyOp0
 70
     0
102
RTVSPropertyOp1
 70
     0
102
RTVSPropertyOp2
 70
     0
102
RTVSPropertyOp3
 70
     0
102
RTVSPropertyOp4
 70
     0
102
RTVSPropertyOp5
 70
     0
102
RTVSPropertyOp6
 70
     0
102
RTVSPropertyOp7
 70
     0
102
RTVSPropertyOp8
 70
     0
102
RTVSPropertyOp9
 70
     0
102
RTVSPropertyOp10
 70
     0
102
RTVSPropertyOp11
 70
     0
102
RTVSPropertyOp12
 70
     0
102
RTVSPropertyOp13
 70
     0
102
RTVSPropertyOp14
 70
     2
102
RTVSPropertyOp15
 70
     0
102
RTVSPropertyOp16
 70
     0
102
RTVSPropertyOp17
 70
     0
102
RTVSPropertyOp18
 70
     0
102
RTVSPropertyOp19
 70
     0
102
RTVSPropertyOp20
 70
     0
102
RTVSPropertyOp21
 70
     0
102
RTVSPropertyOp22
 70
     0
102
RTVSPropertyOp23
 70
     0
102
RTVSPropertyOp24
 70
     0
102
RTVSPropertyOp25
 70
     0
102
RTVSPropertyOp26
 70
     0
102
RTVSPropertyOp27
 70
     0
102
RTVSPropertyOp28
 70
     0
102
RTVSPropertyOp29
 70
     0
102
RTVSPropertyOp30
 70
     0
102
RTVSPropertyOp31
 70
     0
102
RTVSPropertyOp32
 70
     0
102
RTVSPropertyOp33
 70
     0
102
RTVSPropertyOp34
 70
     0
102
RTVSPropertyOp35
 70
     0
102
RTVSPropertyOp36
 70
     0
102
RTVSPropertyOp37
 70
     0
102
RTVSPropertyOp38
 70
     0
102
RTVSPropertyOp39
 70
     0
102
RTVSPropertyOp40
 70
     0
102
RTVSPropertyOp41
 70
     0
102
RTVSPropertyOp42
 70
     0
102
RTVSPropertyOp43
 70
     0
102
RTVSPropertyOp44
 70
     0
102
RTVSPropertyOp45
 70
     0
102
RTVSPropertyOp46
 70
     0
102
RTVSPropertyOp47
 70
     0
102
RTVSPropertyOp48
 70
     0
102
RTVSPropertyOp49
 70
     0
102
RTVSPropertyOp50
 70
     0
102
RTVSPropertyOp51
 70
     0
102
RTVSPropertyOp52
 70
     0
102
RTVSPropertyOp53
 70
     0
102
RTVSPropertyOp54
 70
     0
102
RTVSPropertyOp55
 70
     0
102
RTVSPropertyOp56
 70
     0
102
RTVSPropertyOp57
 70
     0
102
RTVSPost2010Prop28
280
     0
102
RTVSPost2010PropOp28
 70
     0
102
RTVSPost2010Prop29
280
     1
102
RTVSPost2010PropOp29
 70
     0
102
RTVSPost2010Prop30
280
     1
102
RTVSPost2010PropOp30
 70
     0
102
RTVSPost2010Prop31
280
     0
102
RTVSPost2010PropOp31
 70
     0
102
RTVSPost2010Prop32
280
     0
102
RTVSPost2010PropOp32
 70
     0
102
RTVSPost2010Prop33
280
     0
102
RTVSPost2010PropOp33
 70
     0
102
RTVSPost2010Prop34
280
     0
102
RTVSPost2010PropOp34
 70
     0
102
RTVSPost2010Prop35
280
     0
102
RTVSPost2010PropOp35
 70
     0
102
RTVSPost2010Prop36
280
     0
102
RTVSPost2010PropOp36
 70
     0
102
RTVSPost2010Prop37
 90
       50
102
RTVSPost2010PropOp37
 70
     0
102
RTVSPost2010Prop38
140
0.0
102
RTVSPost2010PropOp38
 70
     0
102
RTVSPost2010Prop39
140
1.0
102
RTVSPost2010PropOp39
 70
     0
102
RTVSPost2010Prop40
 90
        0
102
RTVSPost2010PropOp40
 70
     0
102
RTVSPost2010Prop41ColorIndex
 90
       18
102
RTVSPost2010Prop41ColorRGB
 90
        0
102
RTVSPost2010PropOp41
 70
     0
102
RTVSPost2010Prop42
 90
       50
102
RTVSPost2010PropOp42
 70
     0
102
RTVSPost2010Prop43
 90
        3
102
RTVSPost2010PropOp43
 70
     0
102
RTVSPost2010Prop44ColorIndex
 90
        5
102
RTVSPost2010Prop44ColorRGB
 90
      255
102
RTVSPost2010PropOp44
 70
     0
102
RTVSPost2010Prop45
280
     0
102
RTVSPost2010PropOp45
 70
     0
102
RTVSPost2010Prop46
 90
       50
102
RTVSPost2010PropOp46
 70
     0
102
RTVSPost2010Prop47
 90
       50
102
RTVSPost2010PropOp47
 70
     0
102
RTVSPost2010Prop48
 90
       50
102
RTVSPost2010PropOp48
 70
     0
102
RTVSPost2010Prop49
280
     0
102
RTVSPost2010PropOp49
 70
     0
102
RTVSPost2010Prop50
 90
       50
102
RTVSPost2010PropOp50
 70
     0
102
RTVSPost2010Prop51ColorIndex
 90
      256
102
RTVSPost2010Prop51ColorRGB
 90
-16777216
102
RTVSPost2010PropOp51
 70
     0
102
RTVSPost2010Prop52
140
1.0
102
RTVSPost2010PropOp52
 70
     0
102
RTVSPost2010Prop53
 90
        2
102
RTVSPost2010PropOp53
 70
     0
102
RTVSPost2010Prop54
  1
strokes_ogs.tif
102
RTVSPost2010PropOp54
 70
     0
102
RTVSPost2010Prop55
280
     0
102
RTVSPost2010PropOp55
 70
     0
102
RTVSPost2010Prop56
140
1.0
102
RTVSPost2010PropOp56
 70
     0
102
RTVSPost2010Prop57
140
1.0
102
RTVSPost2010PropOp57
 70
     0
  0
XRECORD
  5
21F
102
{ACAD_REACTORS
330
21E
102
}
330
21E
100
AcDbXrecord
280
     1
102
RTVSPropertyOp0
 70
     1
102
RTVSPropertyOp1
 70
     1
102
RTVSPropertyOp2
 70
     1
102
RTVSPropertyOp3
 70
     1
102
RTVSPropertyOp4
 70
     1
102
RTVSPropertyOp5
 70
     1
102
RTVSPropertyOp6
 70
     1
102
RTVSPropertyOp7
 70
     1
102
RTVSPropertyOp8
 70
     1
102
RTVSPropertyOp9
 70
     1
102
RTVSPropertyOp10
 70
     1
102
RTVSPropertyOp11
 70
     1
102
RTVSPropertyOp12
 70
     1
102
RTVSPropertyOp13
 70
     1
102
RTVSPropertyOp14
 70
     1
102
RTVSPropertyOp15
 70
     1
102
RTVSPropertyOp16
 70
     1
102
RTVSPropertyOp17
 70
     1
102
RTVSPropertyOp18
 70
     1
102
RTVSPropertyOp19
 70
     1
102
RTVSPropertyOp20
 70
     1
102
RTVSPropertyOp21
 70
     1
102
RTVSPropertyOp22
 70
     1
102
RTVSPropertyOp23
 70
     1
102
RTVSPropertyOp24
 70
     1
102
RTVSPropertyOp25
 70
     1
102
RTVSPropertyOp26
 70
     1
102
RTVSPropertyOp27
 70
     1
102
RTVSPropertyOp28
 70
     1
102
RTVSPropertyOp29
 70
     1
102
RTVSPropertyOp30
 70
     1
102
RTVSPropertyOp31
 70
     1
102
RTVSPropertyOp32
 70
     1
102
RTVSPropertyOp33
 70
     1
102
RTVSPropertyOp34
 70
     1
102
RTVSPropertyOp35
 70
     1
102
RTVSPropertyOp36
 70
     1
102
RTVSPropertyOp37
 70
     1
102
RTVSPropertyOp38
 70
     1
102
RTVSPropertyOp39
 70
     1
102
RTVSPropertyOp40
 70
     1
102
RTVSPropertyOp41
 70
     1
102
RTVSPropertyOp42
 70
     1
102
RTVSPropertyOp43
 70
     1
102
RTVSPropertyOp44
 70
     1
102
RTVSPropertyOp45
 70
     1
102
RTVSPropertyOp46
 70
     1
102
RTVSPropertyOp47
 70
     1
102
RTVSPropertyOp48
 70
     1
102
RTVSPropertyOp49
 70
     1
102
RTVSPropertyOp50
 70
     1
102
RTVSPropertyOp51
 70
     0
102
RTVSPropertyOp52
 70
     0
102
RTVSPropertyOp53
 70
     1
102
RTVSPropertyOp54
 70
     1
102
RTVSPropertyOp55
 70
     1
102
RTVSPropertyOp56
 70
     1
102
RTVSPropertyOp57
 70
     1
102
RTVSPost2010Prop28
280
     0
102
RTVSPost2010PropOp28
 70
     1
102
RTVSPost2010Prop29
280
     1
102
RTVSPost2010PropOp29
 70
     1
102
RTVSPost2010Prop30
280
     1
102
RTVSPost2010PropOp30
 70
     1
102
RTVSPost2010Prop31
280
     0
102
RTVSPost2010PropOp31
 70
     1
102
RTVSPost2010Prop32
280
     0
102
RTVSPost2010PropOp32
 70
     1
102
RTVSPost2010Prop33
280
     0
102
RTVSPost2010PropOp33
 70
     1
102
RTVSPost2010Prop34
280
     0
102
RTVSPost2010PropOp34
 70
     1
102
RTVSPost2010Prop35
280
     0
102
RTVSPost2010PropOp35
 70
     1
102
RTVSPost2010Prop36
280
     0
102
RTVSPost2010PropOp36
 70
     1
102
RTVSPost2010Prop37
 90
       50
102
RTVSPost2010PropOp37
 70
     1
102
RTVSPost2010Prop38
140
0.0
102
RTVSPost2010PropOp38
 70
     1
102
RTVSPost2010Prop39
140
1.0
102
RTVSPost2010PropOp39
 70
     1
102
RTVSPost2010Prop40
 90
        0
102
RTVSPost2010PropOp40
 70
     1
102
RTVSPost2010Prop41ColorIndex
 90
       18
102
RTVSPost2010Prop41ColorRGB
 90
        0
102
RTVSPost2010PropOp41
 70
     1
102
RTVSPost2010Prop42
 90
       50
102
RTVSPost2010PropOp42
 70
     1
102
RTVSPost2010Prop43
 90
        3
102
RTVSPost2010PropOp43
 70
     1
102
RTVSPost2010Prop44ColorIndex
 90
        5
102
RTVSPost2010Prop44ColorRGB
 90
      255
102
RTVSPost2010PropOp44
 70
     1
102
RTVSPost2010Prop45
280
     0
102
RTVSPost2010PropOp45
 70
     1
102
RTVSPost2010Prop46
 90
       50
102
RTVSPost2010PropOp46
 70
     1
102
RTVSPost2010Prop47
 90
       50
102
RTVSPost2010PropOp47
 70
     1
102
RTVSPost2010Prop48
 90
       50
102
RTVSPost2010PropOp48
 70
     1
102
RTVSPost2010Prop49
280
     0
102
RTVSPost2010PropOp49
 70
     1
102
RTVSPost2010Prop50
 90
       50
102
RTVSPost2010PropOp50
 70
     1
102
RTVSPost2010Prop51ColorIndex
 90
      256
102
RTVSPost2010Prop51ColorRGB
 90
-16777216
102
RTVSPost2010PropOp51
 70
     0
102
RTVSPost2010Prop52
140
1.0
102
RTVSPost2010PropOp52
 70
     0
102
RTVSPost2010Prop53
 90
        2
102
RTVSPost2010PropOp53
 70
     1
102
RTVSPost2010Prop54
  1
strokes_ogs.tif
102
RTVSPost2010PropOp54
 70
     1
102
RTVSPost2010Prop55
280
     0
102
RTVSPost2010PropOp55
 70
     1
102
RTVSPost2010Prop56
140
1.0
102
RTVSPost2010PropOp56
 70
     1
102
RTVSPost2010Prop57
140
1.0
102
RTVSPost2010PropOp57
 70
     1
  0
XRECORD
  5
23D
102
{ACAD_REACTORS
330
23C
102
}
330
23C
100
AcDbXrecord
280
     1
102
RTVSPropertyOp0
 70
     1
102
RTVSPropertyOp1
 70
     1
102
RTVSPropertyOp2
 70
     1
102
RTVSPropertyOp3
 70
     1
102
RTVSPropertyOp4
 70
     1
102
RTVSPropertyOp5
 70
     1
102
RTVSPropertyOp6
 70
     1
102
RTVSPropertyOp7
 70
     1
102
RTVSPropertyOp8
 70
     1
102
RTVSPropertyOp9
 70
     1
102
RTVSPropertyOp10
 70
     1
102
RTVSPropertyOp11
 70
     1
102
RTVSPropertyOp12
 70
     1
102
RTVSPropertyOp13
 70
     1
102
RTVSPropertyOp14
 70
     1
102
RTVSPropertyOp15
 70
     1
102
RTVSPropertyOp16
 70
     1
102
RTVSPropertyOp17
 70
     1
102
RTVSPropertyOp18
 70
     1
102
RTVSPropertyOp19
 70
     1
102
RTVSPropertyOp20
 70
     1
102
RTVSPropertyOp21
 70
     1
102
RTVSPropertyOp22
 70
     1
102
RTVSPropertyOp23
 70
     1
102
RTVSPropertyOp24
 70
     1
102
RTVSPropertyOp25
 70
     1
102
RTVSPropertyOp26
 70
     1
102
RTVSPropertyOp27
 70
     1
102
RTVSPropertyOp28
 70
     1
102
RTVSPropertyOp29
 70
     1
102
RTVSPropertyOp30
 70
     1
102
RTVSPropertyOp31
 70
     1
102
RTVSPropertyOp32
 70
     1
102
RTVSPropertyOp33
 70
     1
102
RTVSPropertyOp34
 70
     1
102
RTVSPropertyOp35
 70
     1
102
RTVSPropertyOp36
 70
     1
102
RTVSPropertyOp37
 70
     1
102
RTVSPropertyOp38
 70
     1
102
RTVSPropertyOp39
 70
     1
102
RTVSPropertyOp40
 70
     1
102
RTVSPropertyOp41
 70
     1
102
RTVSPropertyOp42
 70
     1
102
RTVSPropertyOp43
 70
     1
102
RTVSPropertyOp44
 70
     1
102
RTVSPropertyOp45
 70
     1
102
RTVSPropertyOp46
 70
     1
102
RTVSPropertyOp47
 70
     1
102
RTVSPropertyOp48
 70
     1
102
RTVSPropertyOp49
 70
     1
102
RTVSPropertyOp50
 70
     1
102
RTVSPropertyOp51
 70
     0
102
RTVSPropertyOp52
 70
     0
102
RTVSPropertyOp53
 70
     1
102
RTVSPropertyOp54
 70
     1
102
RTVSPropertyOp55
 70
     1
102
RTVSPropertyOp56
 70
     1
102
RTVSPropertyOp57
 70
     1
102
RTVSPost2010Prop28
280
     0
102
RTVSPost2010PropOp28
 70
     1
102
RTVSPost2010Prop29
280
     1
102
RTVSPost2010PropOp29
 70
     1
102
RTVSPost2010Prop30
280
     1
102
RTVSPost2010PropOp30
 70
     1
102
RTVSPost2010Prop31
280
     0
102
RTVSPost2010PropOp31
 70
     1
102
RTVSPost2010Prop32
280
     0
102
RTVSPost2010PropOp32
 70
     1
102
RTVSPost2010Prop33
280
     0
102
RTVSPost2010PropOp33
 70
     1
102
RTVSPost2010Prop34
280
     0
102
RTVSPost2010PropOp34
 70
     1
102
RTVSPost2010Prop35
280
     0
102
RTVSPost2010PropOp35
 70
     1
102
RTVSPost2010Prop36
280
     0
102
RTVSPost2010PropOp36
 70
     1
102
RTVSPost2010Prop37
 90
       50
102
RTVSPost2010PropOp37
 70
     1
102
RTVSPost2010Prop38
140
0.0
102
RTVSPost2010PropOp38
 70
     1
102
RTVSPost2010Prop39
140
1.0
102
RTVSPost2010PropOp39
 70
     1
102
RTVSPost2010Prop40
 90
        0
102
RTVSPost2010PropOp40
 70
     1
102
RTVSPost2010Prop41ColorIndex
 90
       18
102
RTVSPost2010Prop41ColorRGB
 90
        0
102
RTVSPost2010PropOp41
 70
     1
102
RTVSPost2010Prop42
 90
       50
102
RTVSPost2010PropOp42
 70
     1
102
RTVSPost2010Prop43
 90
        3
102
RTVSPost2010PropOp43
 70
     1
102
RTVSPost2010Prop44ColorIndex
 90
        5
102
RTVSPost2010Prop44ColorRGB
 90
      255
102
RTVSPost2010PropOp44
 70
     1
102
RTVSPost2010Prop45
280
     0
102
RTVSPost2010PropOp45
 70
     1
102
RTVSPost2010Prop46
 90
       50
102
RTVSPost2010PropOp46
 70
     1
102
RTVSPost2010Prop47
 90
       50
102
RTVSPost2010PropOp47
 70
     1
102
RTVSPost2010Prop48
 90
       50
102
RTVSPost2010PropOp48
 70
     1
102
RTVSPost2010Prop49
280
     0
102
RTVSPost2010PropOp49
 70
     1
102
RTVSPost2010Prop50
 90
       50
102
RTVSPost2010PropOp50
 70
     1
102
RTVSPost2010Prop51ColorIndex
 90
      256
102
RTVSPost2010Prop51ColorRGB
 90
-16777216
102
RTVSPost2010PropOp51
 70
     0
102
RTVSPost2010Prop52
140
1.0
102
RTVSPost2010PropOp52
 70
     0
102
RTVSPost2010Prop53
 90
        2
102
RTVSPost2010PropOp53
 70
     1
102
RTVSPost2010Prop54
  1
strokes_ogs.tif
102
RTVSPost2010PropOp54
 70
     1
102
RTVSPost2010Prop55
280
     0
102
RTVSPost2010PropOp55
 70
     1
102
RTVSPost2010Prop56
140
1.0
102
RTVSPost2010PropOp56
 70
     1
102
RTVSPost2010Prop57
140
1.0
102
RTVSPost2010PropOp57
 70
     1
  0
XRECORD
  5
23B
102
{ACAD_REACTORS
330
23A
102
}
330
23A
100
AcDbXrecord
280
     1
102
RTVSPropertyOp0
 70
     1
102
RTVSPropertyOp1
 70
     1
102
RTVSPropertyOp2
 70
     1
102
RTVSPropertyOp3
 70
     1
102
RTVSPropertyOp4
 70
     1
102
RTVSPropertyOp5
 70
     1
102
RTVSPropertyOp6
 70
     1
102
RTVSPropertyOp7
 70
     1
102
RTVSPropertyOp8
 70
     1
102
RTVSPropertyOp9
 70
     1
102
RTVSPropertyOp10
 70
     1
102
RTVSPropertyOp11
 70
     1
102
RTVSPropertyOp12
 70
     1
102
RTVSPropertyOp13
 70
     1
102
RTVSPropertyOp14
 70
     1
102
RTVSPropertyOp15
 70
     1
102
RTVSPropertyOp16
 70
     1
102
RTVSPropertyOp17
 70
     1
102
RTVSPropertyOp18
 70
     1
102
RTVSPropertyOp19
 70
     1
102
RTVSPropertyOp20
 70
     1
102
RTVSPropertyOp21
 70
     1
102
RTVSPropertyOp22
 70
     1
102
RTVSPropertyOp23
 70
     1
102
RTVSPropertyOp24
 70
     1
102
RTVSPropertyOp25
 70
     1
102
RTVSPropertyOp26
 70
     1
102
RTVSPropertyOp27
 70
     1
102
RTVSPropertyOp28
 70
     1
102
RTVSPropertyOp29
 70
     1
102
RTVSPropertyOp30
 70
     1
102
RTVSPropertyOp31
 70
     1
102
RTVSPropertyOp32
 70
     1
102
RTVSPropertyOp33
 70
     1
102
RTVSPropertyOp34
 70
     1
102
RTVSPropertyOp35
 70
     1
102
RTVSPropertyOp36
 70
     1
102
RTVSPropertyOp37
 70
     1
102
RTVSPropertyOp38
 70
     1
102
RTVSPropertyOp39
 70
     1
102
RTVSPropertyOp40
 70
     1
102
RTVSPropertyOp41
 70
     1
102
RTVSPropertyOp42
 70
     1
102
RTVSPropertyOp43
 70
     1
102
RTVSPropertyOp44
 70
     1
102
RTVSPropertyOp45
 70
     1
102
RTVSPropertyOp46
 70
     1
102
RTVSPropertyOp47
 70
     1
102
RTVSPropertyOp48
 70
     1
102
RTVSPropertyOp49
 70
     1
102
RTVSPropertyOp50
 70
     1
102
RTVSPropertyOp51
 70
     0
102
RTVSPropertyOp52
 70
     0
102
RTVSPropertyOp53
 70
     1
102
RTVSPropertyOp54
 70
     1
102
RTVSPropertyOp55
 70
     1
102
RTVSPropertyOp56
 70
     1
102
RTVSPropertyOp57
 70
     1
102
RTVSPost2010Prop28
280
     0
102
RTVSPost2010PropOp28
 70
     1
102
RTVSPost2010Prop29
280
     1
102
RTVSPost2010PropOp29
 70
     1
102
RTVSPost2010Prop30
280
     1
102
RTVSPost2010PropOp30
 70
     1
102
RTVSPost2010Prop31
280
     0
102
RTVSPost2010PropOp31
 70
     1
102
RTVSPost2010Prop32
280
     0
102
RTVSPost2010PropOp32
 70
     1
102
RTVSPost2010Prop33
280
     0
102
RTVSPost2010PropOp33
 70
     1
102
RTVSPost2010Prop34
280
     0
102
RTVSPost2010PropOp34
 70
     1
102
RTVSPost2010Prop35
280
     0
102
RTVSPost2010PropOp35
 70
     1
102
RTVSPost2010Prop36
280
     0
102
RTVSPost2010PropOp36
 70
     1
102
RTVSPost2010Prop37
 90
       50
102
RTVSPost2010PropOp37
 70
     1
102
RTVSPost2010Prop38
140
0.0
102
RTVSPost2010PropOp38
 70
     1
102
RTVSPost2010Prop39
140
1.0
102
RTVSPost2010PropOp39
 70
     1
102
RTVSPost2010Prop40
 90
        0
102
RTVSPost2010PropOp40
 70
     1
102
RTVSPost2010Prop41ColorIndex
 90
       18
102
RTVSPost2010Prop41ColorRGB
 90
        0
102
RTVSPost2010PropOp41
 70
     1
102
RTVSPost2010Prop42
 90
       50
102
RTVSPost2010PropOp42
 70
     1
102
RTVSPost2010Prop43
 90
        3
102
RTVSPost2010PropOp43
 70
     1
102
RTVSPost2010Prop44ColorIndex
 90
        5
102
RTVSPost2010Prop44ColorRGB
 90
      255
102
RTVSPost2010PropOp44
 70
     1
102
RTVSPost2010Prop45
280
     0
102
RTVSPost2010PropOp45
 70
     1
102
RTVSPost2010Prop46
 90
       50
102
RTVSPost2010PropOp46
 70
     1
102
RTVSPost2010Prop47
 90
       50
102
RTVSPost2010PropOp47
 70
     1
102
RTVSPost2010Prop48
 90
       50
102
RTVSPost2010PropOp48
 70
     1
102
RTVSPost2010Prop49
280
     0
102
RTVSPost2010PropOp49
 70
     1
102
RTVSPost2010Prop50
 90
       50
102
RTVSPost2010PropOp50
 70
     1
102
RTVSPost2010Prop51ColorIndex
 90
      256
102
RTVSPost2010Prop51ColorRGB
 90
-16777216
102
RTVSPost2010PropOp51
 70
     0
102
RTVSPost2010Prop52
140
1.0
102
RTVSPost2010PropOp52
 70
     0
102
RTVSPost2010Prop53
 90
        2
102
RTVSPost2010PropOp53
 70
     1
102
RTVSPost2010Prop54
  1
strokes_ogs.tif
102
RTVSPost2010PropOp54
 70
     1
102
RTVSPost2010Prop55
280
     0
102
RTVSPost2010PropOp55
 70
     1
102
RTVSPost2010Prop56
140
1.0
102
RTVSPost2010PropOp56
 70
     1
102
RTVSPost2010Prop57
140
1.0
102
RTVSPost2010PropOp57
 70
     1
  0
XRECORD
  5
235
102
{ACAD_REACTORS
330
234
102
}
330
234
100
AcDbXrecord
280
     1
102
RTVSPropertyOp0
 70
     1
102
RTVSPropertyOp1
 70
     1
102
RTVSPropertyOp2
 70
     1
102
RTVSPropertyOp3
 70
     1
102
RTVSPropertyOp4
 70
     1
102
RTVSPropertyOp5
 70
     1
102
RTVSPropertyOp6
 70
     1
102
RTVSPropertyOp7
 70
     1
102
RTVSPropertyOp8
 70
     1
102
RTVSPropertyOp9
 70
     1
102
RTVSPropertyOp10
 70
     1
102
RTVSPropertyOp11
 70
     1
102
RTVSPropertyOp12
 70
     1
102
RTVSPropertyOp13
 70
     1
102
RTVSPropertyOp14
 70
     1
102
RTVSPropertyOp15
 70
     1
102
RTVSPropertyOp16
 70
     1
102
RTVSPropertyOp17
 70
     1
102
RTVSPropertyOp18
 70
     1
102
RTVSPropertyOp19
 70
     1
102
RTVSPropertyOp20
 70
     1
102
RTVSPropertyOp21
 70
     1
102
RTVSPropertyOp22
 70
     1
102
RTVSPropertyOp23
 70
     1
102
RTVSPropertyOp24
 70
     1
102
RTVSPropertyOp25
 70
     1
102
RTVSPropertyOp26
 70
     1
102
RTVSPropertyOp27
 70
     1
102
RTVSPropertyOp28
 70
     1
102
RTVSPropertyOp29
 70
     1
102
RTVSPropertyOp30
 70
     1
102
RTVSPropertyOp31
 70
     1
102
RTVSPropertyOp32
 70
     1
102
RTVSPropertyOp33
 70
     1
102
RTVSPropertyOp34
 70
     1
102
RTVSPropertyOp35
 70
     1
102
RTVSPropertyOp36
 70
     1
102
RTVSPropertyOp37
 70
     1
102
RTVSPropertyOp38
 70
     1
102
RTVSPropertyOp39
 70
     1
102
RTVSPropertyOp40
 70
     1
102
RTVSPropertyOp41
 70
     1
102
RTVSPropertyOp42
 70
     1
102
RTVSPropertyOp43
 70
     1
102
RTVSPropertyOp44
 70
     1
102
RTVSPropertyOp45
 70
     1
102
RTVSPropertyOp46
 70
     1
102
RTVSPropertyOp47
 70
     1
102
RTVSPropertyOp48
 70
     1
102
RTVSPropertyOp49
 70
     1
102
RTVSPropertyOp50
 70
     1
102
RTVSPropertyOp51
 70
     0
102
RTVSPropertyOp52
 70
     0
102
RTVSPropertyOp53
 70
     1
102
RTVSPropertyOp54
 70
     1
102
RTVSPropertyOp55
 70
     1
102
RTVSPropertyOp56
 70
     1
102
RTVSPropertyOp57
 70
     1
102
RTVSPost2010Prop28
280
     0
102
RTVSPost2010PropOp28
 70
     1
102
RTVSPost2010Prop29
280
     1
102
RTVSPost2010PropOp29
 70
     1
102
RTVSPost2010Prop30
280
     1
102
RTVSPost2010PropOp30
 70
     1
102
RTVSPost2010Prop31
280
     0
102
RTVSPost2010PropOp31
 70
     1
102
RTVSPost2010Prop32
280
     0
102
RTVSPost2010PropOp32
 70
     1
102
RTVSPost2010Prop33
280
     0
102
RTVSPost2010PropOp33
 70
     1
102
RTVSPost2010Prop34
280
     0
102
RTVSPost2010PropOp34
 70
     1
102
RTVSPost2010Prop35
280
     0
102
RTVSPost2010PropOp35
 70
     1
102
RTVSPost2010Prop36
280
     0
102
RTVSPost2010PropOp36
 70
     1
102
RTVSPost2010Prop37
 90
       50
102
RTVSPost2010PropOp37
 70
     1
102
RTVSPost2010Prop38
140
0.0
102
RTVSPost2010PropOp38
 70
     1
102
RTVSPost2010Prop39
140
1.0
102
RTVSPost2010PropOp39
 70
     1
102
RTVSPost2010Prop40
 90
        0
102
RTVSPost2010PropOp40
 70
     1
102
RTVSPost2010Prop41ColorIndex
 90
       18
102
RTVSPost2010Prop41ColorRGB
 90
        0
102
RTVSPost2010PropOp41
 70
     1
102
RTVSPost2010Prop42
 90
       50
102
RTVSPost2010PropOp42
 70
     1
102
RTVSPost2010Prop43
 90
        3
102
RTVSPost2010PropOp43
 70
     1
102
RTVSPost2010Prop44ColorIndex
 90
        5
102
RTVSPost2010Prop44ColorRGB
 90
      255
102
RTVSPost2010PropOp44
 70
     1
102
RTVSPost2010Prop45
280
     0
102
RTVSPost2010PropOp45
 70
     1
102
RTVSPost2010Prop46
 90
       50
102
RTVSPost2010PropOp46
 70
     1
102
RTVSPost2010Prop47
 90
       50
102
RTVSPost2010PropOp47
 70
     1
102
RTVSPost2010Prop48
 90
       50
102
RTVSPost2010PropOp48
 70
     1
102
RTVSPost2010Prop49
280
     0
102
RTVSPost2010PropOp49
 70
     1
102
RTVSPost2010Prop50
 90
       50
102
RTVSPost2010PropOp50
 70
     1
102
RTVSPost2010Prop51ColorIndex
 90
      256
102
RTVSPost2010Prop51ColorRGB
 90
-16777216
102
RTVSPost2010PropOp51
 70
     0
102
RTVSPost2010Prop52
140
1.0
102
RTVSPost2010PropOp52
 70
     0
102
RTVSPost2010Prop53
 90
        2
102
RTVSPost2010PropOp53
 70
     1
102
RTVSPost2010Prop54
  1
strokes_ogs.tif
102
RTVSPost2010PropOp54
 70
     1
102
RTVSPost2010Prop55
280
     0
102
RTVSPost2010PropOp55
 70
     1
102
RTVSPost2010Prop56
140
1.0
102
RTVSPost2010PropOp56
 70
     1
102
RTVSPost2010Prop57
140
1.0
102
RTVSPost2010PropOp57
 70
     1
  0
XRECORD
  5
237
102
{ACAD_REACTORS
330
236
102
}
330
236
100
AcDbXrecord
280
     1
102
RTVSPropertyOp0
 70
     1
102
RTVSPropertyOp1
 70
     1
102
RTVSPropertyOp2
 70
     1
102
RTVSPropertyOp3
 70
     1
102
RTVSPropertyOp4
 70
     1
102
RTVSPropertyOp5
 70
     1
102
RTVSPropertyOp6
 70
     1
102
RTVSPropertyOp7
 70
     1
102
RTVSPropertyOp8
 70
     1
102
RTVSPropertyOp9
 70
     1
102
RTVSPropertyOp10
 70
     1
102
RTVSPropertyOp11
 70
     1
102
RTVSPropertyOp12
 70
     1
102
RTVSPropertyOp13
 70
     1
102
RTVSPropertyOp14
 70
     1
102
RTVSPropertyOp15
 70
     1
102
RTVSPropertyOp16
 70
     1
102
RTVSPropertyOp17
 70
     1
102
RTVSPropertyOp18
 70
     1
102
RTVSPropertyOp19
 70
     1
102
RTVSPropertyOp20
 70
     1
102
RTVSPropertyOp21
 70
     1
102
RTVSPropertyOp22
 70
     1
102
RTVSPropertyOp23
 70
     1
102
RTVSPropertyOp24
 70
     1
102
RTVSPropertyOp25
 70
     1
102
RTVSPropertyOp26
 70
     1
102
RTVSPropertyOp27
 70
     1
102
RTVSPropertyOp28
 70
     1
102
RTVSPropertyOp29
 70
     1
102
RTVSPropertyOp30
 70
     1
102
RTVSPropertyOp31
 70
     1
102
RTVSPropertyOp32
 70
     1
102
RTVSPropertyOp33
 70
     1
102
RTVSPropertyOp34
 70
     1
102
RTVSPropertyOp35
 70
     1
102
RTVSPropertyOp36
 70
     1
102
RTVSPropertyOp37
 70
     1
102
RTVSPropertyOp38
 70
     1
102
RTVSPropertyOp39
 70
     1
102
RTVSPropertyOp40
 70
     1
102
RTVSPropertyOp41
 70
     1
102
RTVSPropertyOp42
 70
     1
102
RTVSPropertyOp43
 70
     1
102
RTVSPropertyOp44
 70
     1
102
RTVSPropertyOp45
 70
     1
102
RTVSPropertyOp46
 70
     1
102
RTVSPropertyOp47
 70
     1
102
RTVSPropertyOp48
 70
     1
102
RTVSPropertyOp49
 70
     1
102
RTVSPropertyOp50
 70
     1
102
RTVSPropertyOp51
 70
     0
102
RTVSPropertyOp52
 70
     0
102
RTVSPropertyOp53
 70
     1
102
RTVSPropertyOp54
 70
     1
102
RTVSPropertyOp55
 70
     1
102
RTVSPropertyOp56
 70
     1
102
RTVSPropertyOp57
 70
     1
102
RTVSPost2010Prop28
280
     0
102
RTVSPost2010PropOp28
 70
     1
102
RTVSPost2010Prop29
280
     1
102
RTVSPost2010PropOp29
 70
     1
102
RTVSPost2010Prop30
280
     1
102
RTVSPost2010PropOp30
 70
     1
102
RTVSPost2010Prop31
280
     0
102
RTVSPost2010PropOp31
 70
     1
102
RTVSPost2010Prop32
280
     0
102
RTVSPost2010PropOp32
 70
     1
102
RTVSPost2010Prop33
280
     0
102
RTVSPost2010PropOp33
 70
     1
102
RTVSPost2010Prop34
280
     0
102
RTVSPost2010PropOp34
 70
     1
102
RTVSPost2010Prop35
280
     0
102
RTVSPost2010PropOp35
 70
     1
102
RTVSPost2010Prop36
280
     0
102
RTVSPost2010PropOp36
 70
     1
102
RTVSPost2010Prop37
 90
       50
102
RTVSPost2010PropOp37
 70
     1
102
RTVSPost2010Prop38
140
0.0
102
RTVSPost2010PropOp38
 70
     1
102
RTVSPost2010Prop39
140
1.0
102
RTVSPost2010PropOp39
 70
     1
102
RTVSPost2010Prop40
 90
        0
102
RTVSPost2010PropOp40
 70
     1
102
RTVSPost2010Prop41ColorIndex
 90
       18
102
RTVSPost2010Prop41ColorRGB
 90
        0
102
RTVSPost2010PropOp41
 70
     1
102
RTVSPost2010Prop42
 90
       50
102
RTVSPost2010PropOp42
 70
     1
102
RTVSPost2010Prop43
 90
        3
102
RTVSPost2010PropOp43
 70
     1
102
RTVSPost2010Prop44ColorIndex
 90
        5
102
RTVSPost2010Prop44ColorRGB
 90
      255
102
RTVSPost2010PropOp44
 70
     1
102
RTVSPost2010Prop45
280
     0
102
RTVSPost2010PropOp45
 70
     1
102
RTVSPost2010Prop46
 90
       50
102
RTVSPost2010PropOp46
 70
     1
102
RTVSPost2010Prop47
 90
       50
102
RTVSPost2010PropOp47
 70
     1
102
RTVSPost2010Prop48
 90
       50
102
RTVSPost2010PropOp48
 70
     1
102
RTVSPost2010Prop49
280
     0
102
RTVSPost2010PropOp49
 70
     1
102
RTVSPost2010Prop50
 90
       50
102
RTVSPost2010PropOp50
 70
     1
102
RTVSPost2010Prop51ColorIndex
 90
      256
102
RTVSPost2010Prop51ColorRGB
 90
-16777216
102
RTVSPost2010PropOp51
 70
     0
102
RTVSPost2010Prop52
140
1.0
102
RTVSPost2010PropOp52
 70
     0
102
RTVSPost2010Prop53
 90
        2
102
RTVSPost2010PropOp53
 70
     1
102
RTVSPost2010Prop54
  1
strokes_ogs.tif
102
RTVSPost2010PropOp54
 70
     1
102
RTVSPost2010Prop55
280
     0
102
RTVSPost2010PropOp55
 70
     1
102
RTVSPost2010Prop56
140
1.0
102
RTVSPost2010PropOp56
 70
     1
102
RTVSPost2010Prop57
140
1.0
102
RTVSPost2010PropOp57
 70
     1
  0
XRECORD
  5
227
102
{ACAD_REACTORS
330
226
102
}
330
226
100
AcDbXrecord
280
     1
102
RTVSPropertyOp0
 70
     1
102
RTVSPropertyOp1
 70
     1
102
RTVSPropertyOp2
 70
     1
102
RTVSPropertyOp3
 70
     1
102
RTVSPropertyOp4
 70
     1
102
RTVSPropertyOp5
 70
     1
102
RTVSPropertyOp6
 70
     1
102
RTVSPropertyOp7
 70
     1
102
RTVSPropertyOp8
 70
     1
102
RTVSPropertyOp9
 70
     1
102
RTVSPropertyOp10
 70
     1
102
RTVSPropertyOp11
 70
     1
102
RTVSPropertyOp12
 70
     1
102
RTVSPropertyOp13
 70
     1
102
RTVSPropertyOp14
 70
     1
102
RTVSPropertyOp15
 70
     1
102
RTVSPropertyOp16
 70
     1
102
RTVSPropertyOp17
 70
     1
102
RTVSPropertyOp18
 70
     1
102
RTVSPropertyOp19
 70
     1
102
RTVSPropertyOp20
 70
     1
102
RTVSPropertyOp21
 70
     1
102
RTVSPropertyOp22
 70
     1
102
RTVSPropertyOp23
 70
     1
102
RTVSPropertyOp24
 70
     1
102
RTVSPropertyOp25
 70
     1
102
RTVSPropertyOp26
 70
     1
102
RTVSPropertyOp27
 70
     1
102
RTVSPropertyOp28
 70
     1
102
RTVSPropertyOp29
 70
     1
102
RTVSPropertyOp30
 70
     1
102
RTVSPropertyOp31
 70
     1
102
RTVSPropertyOp32
 70
     1
102
RTVSPropertyOp33
 70
     1
102
RTVSPropertyOp34
 70
     1
102
RTVSPropertyOp35
 70
     1
102
RTVSPropertyOp36
 70
     1
102
RTVSPropertyOp37
 70
     1
102
RTVSPropertyOp38
 70
     1
102
RTVSPropertyOp39
 70
     1
102
RTVSPropertyOp40
 70
     1
102
RTVSPropertyOp41
 70
     1
102
RTVSPropertyOp42
 70
     1
102
RTVSPropertyOp43
 70
     1
102
RTVSPropertyOp44
 70
     1
102
RTVSPropertyOp45
 70
     1
102
RTVSPropertyOp46
 70
     1
102
RTVSPropertyOp47
 70
     1
102
RTVSPropertyOp48
 70
     1
102
RTVSPropertyOp49
 70
     1
102
RTVSPropertyOp50
 70
     1
102
RTVSPropertyOp51
 70
     0
102
RTVSPropertyOp52
 70
     0
102
RTVSPropertyOp53
 70
     1
102
RTVSPropertyOp54
 70
     1
102
RTVSPropertyOp55
 70
     1
102
RTVSPropertyOp56
 70
     1
102
RTVSPropertyOp57
 70
     1
102
RTVSPost2010Prop28
280
     0
102
RTVSPost2010PropOp28
 70
     1
102
RTVSPost2010Prop29
280
     1
102
RTVSPost2010PropOp29
 70
     1
102
RTVSPost2010Prop30
280
     1
102
RTVSPost2010PropOp30
 70
     1
102
RTVSPost2010Prop31
280
     0
102
RTVSPost2010PropOp31
 70
     1
102
RTVSPost2010Prop32
280
     0
102
RTVSPost2010PropOp32
 70
     1
102
RTVSPost2010Prop33
280
     0
102
RTVSPost2010PropOp33
 70
     1
102
RTVSPost2010Prop34
280
     0
102
RTVSPost2010PropOp34
 70
     1
102
RTVSPost2010Prop35
280
     0
102
RTVSPost2010PropOp35
 70
     1
102
RTVSPost2010Prop36
280
     0
102
RTVSPost2010PropOp36
 70
     1
102
RTVSPost2010Prop37
 90
       50
102
RTVSPost2010PropOp37
 70
     1
102
RTVSPost2010Prop38
140
0.0
102
RTVSPost2010PropOp38
 70
     1
102
RTVSPost2010Prop39
140
1.0
102
RTVSPost2010PropOp39
 70
     1
102
RTVSPost2010Prop40
 90
        0
102
RTVSPost2010PropOp40
 70
     1
102
RTVSPost2010Prop41ColorIndex
 90
       18
102
RTVSPost2010Prop41ColorRGB
 90
        0
102
RTVSPost2010PropOp41
 70
     1
102
RTVSPost2010Prop42
 90
       50
102
RTVSPost2010PropOp42
 70
     1
102
RTVSPost2010Prop43
 90
        3
102
RTVSPost2010PropOp43
 70
     1
102
RTVSPost2010Prop44ColorIndex
 90
        5
102
RTVSPost2010Prop44ColorRGB
 90
      255
102
RTVSPost2010PropOp44
 70
     1
102
RTVSPost2010Prop45
280
     0
102
RTVSPost2010PropOp45
 70
     1
102
RTVSPost2010Prop46
 90
       50
102
RTVSPost2010PropOp46
 70
     1
102
RTVSPost2010Prop47
 90
       50
102
RTVSPost2010PropOp47
 70
     1
102
RTVSPost2010Prop48
 90
       50
102
RTVSPost2010PropOp48
 70
     1
102
RTVSPost2010Prop49
280
     0
102
RTVSPost2010PropOp49
 70
     1
102
RTVSPost2010Prop50
 90
       50
102
RTVSPost2010PropOp50
 70
     1
102
RTVSPost2010Prop51ColorIndex
 90
      256
102
RTVSPost2010Prop51ColorRGB
 90
-16777216
102
RTVSPost2010PropOp51
 70
     0
102
RTVSPost2010Prop52
140
1.0
102
RTVSPost2010PropOp52
 70
     0
102
RTVSPost2010Prop53
 90
        2
102
RTVSPost2010PropOp53
 70
     1
102
RTVSPost2010Prop54
  1
strokes_ogs.tif
102
RTVSPost2010PropOp54
 70
     1
102
RTVSPost2010Prop55
280
     0
102
RTVSPost2010PropOp55
 70
     1
102
RTVSPost2010Prop56
140
1.0
102
RTVSPost2010PropOp56
 70
     1
102
RTVSPost2010Prop57
140
1.0
102
RTVSPost2010PropOp57
 70
     1
  0
XRECORD
  5
219
102
{ACAD_REACTORS
330
218
102
}
330
218
100
AcDbXrecord
280
     1
102
RTVSPropertyOp0
 70
     1
102
RTVSPropertyOp1
 70
     1
102
RTVSPropertyOp2
 70
     1
102
RTVSPropertyOp3
 70
     1
102
RTVSPropertyOp4
 70
     1
102
RTVSPropertyOp5
 70
     1
102
RTVSPropertyOp6
 70
     1
102
RTVSPropertyOp7
 70
     1
102
RTVSPropertyOp8
 70
     1
102
RTVSPropertyOp9
 70
     1
102
RTVSPropertyOp10
 70
     1
102
RTVSPropertyOp11
 70
     1
102
RTVSPropertyOp12
 70
     1
102
RTVSPropertyOp13
 70
     1
102
RTVSPropertyOp14
 70
     1
102
RTVSPropertyOp15
 70
     1
102
RTVSPropertyOp16
 70
     1
102
RTVSPropertyOp17
 70
     1
102
RTVSPropertyOp18
 70
     1
102
RTVSPropertyOp19
 70
     1
102
RTVSPropertyOp20
 70
     1
102
RTVSPropertyOp21
 70
     1
102
RTVSPropertyOp22
 70
     1
102
RTVSPropertyOp23
 70
     1
102
RTVSPropertyOp24
 70
     1
102
RTVSPropertyOp25
 70
     1
102
RTVSPropertyOp26
 70
     1
102
RTVSPropertyOp27
 70
     1
102
RTVSPropertyOp28
 70
     1
102
RTVSPropertyOp29
 70
     1
102
RTVSPropertyOp30
 70
     1
102
RTVSPropertyOp31
 70
     1
102
RTVSPropertyOp32
 70
     1
102
RTVSPropertyOp33
 70
     1
102
RTVSPropertyOp34
 70
     1
102
RTVSPropertyOp35
 70
     1
102
RTVSPropertyOp36
 70
     1
102
RTVSPropertyOp37
 70
     1
102
RTVSPropertyOp38
 70
     1
102
RTVSPropertyOp39
 70
     1
102
RTVSPropertyOp40
 70
     1
102
RTVSPropertyOp41
 70
     1
102
RTVSPropertyOp42
 70
     1
102
RTVSPropertyOp43
 70
     1
102
RTVSPropertyOp44
 70
     1
102
RTVSPropertyOp45
 70
     1
102
RTVSPropertyOp46
 70
     1
102
RTVSPropertyOp47
 70
     1
102
RTVSPropertyOp48
 70
     1
102
RTVSPropertyOp49
 70
     1
102
RTVSPropertyOp50
 70
     1
102
RTVSPropertyOp51
 70
     0
102
RTVSPropertyOp52
 70
     0
102
RTVSPropertyOp53
 70
     1
102
RTVSPropertyOp54
 70
     1
102
RTVSPropertyOp55
 70
     1
102
RTVSPropertyOp56
 70
     1
102
RTVSPropertyOp57
 70
     1
102
RTVSPost2010Prop28
280
     0
102
RTVSPost2010PropOp28
 70
     1
102
RTVSPost2010Prop29
280
     1
102
RTVSPost2010PropOp29
 70
     1
102
RTVSPost2010Prop30
280
     1
102
RTVSPost2010PropOp30
 70
     1
102
RTVSPost2010Prop31
280
     0
102
RTVSPost2010PropOp31
 70
     1
102
RTVSPost2010Prop32
280
     0
102
RTVSPost2010PropOp32
 70
     1
102
RTVSPost2010Prop33
280
     0
102
RTVSPost2010PropOp33
 70
     1
102
RTVSPost2010Prop34
280
     0
102
RTVSPost2010PropOp34
 70
     1
102
RTVSPost2010Prop35
280
     0
102
RTVSPost2010PropOp35
 70
     1
102
RTVSPost2010Prop36
280
     0
102
RTVSPost2010PropOp36
 70
     1
102
RTVSPost2010Prop37
 90
       50
102
RTVSPost2010PropOp37
 70
     1
102
RTVSPost2010Prop38
140
0.0
102
RTVSPost2010PropOp38
 70
     1
102
RTVSPost2010Prop39
140
1.0
102
RTVSPost2010PropOp39
 70
     1
102
RTVSPost2010Prop40
 90
        0
102
RTVSPost2010PropOp40
 70
     1
102
RTVSPost2010Prop41ColorIndex
 90
       18
102
RTVSPost2010Prop41ColorRGB
 90
        0
102
RTVSPost2010PropOp41
 70
     1
102
RTVSPost2010Prop42
 90
       50
102
RTVSPost2010PropOp42
 70
     1
102
RTVSPost2010Prop43
 90
        3
102
RTVSPost2010PropOp43
 70
     1
102
RTVSPost2010Prop44ColorIndex
 90
        5
102
RTVSPost2010Prop44ColorRGB
 90
      255
102
RTVSPost2010PropOp44
 70
     1
102
RTVSPost2010Prop45
280
     0
102
RTVSPost2010PropOp45
 70
     1
102
RTVSPost2010Prop46
 90
       50
102
RTVSPost2010PropOp46
 70
     1
102
RTVSPost2010Prop47
 90
       50
102
RTVSPost2010PropOp47
 70
     1
102
RTVSPost2010Prop48
 90
       50
102
RTVSPost2010PropOp48
 70
     1
102
RTVSPost2010Prop49
280
     0
102
RTVSPost2010PropOp49
 70
     1
102
RTVSPost2010Prop50
 90
       50
102
RTVSPost2010PropOp50
 70
     1
102
RTVSPost2010Prop51ColorIndex
 90
      256
102
RTVSPost2010Prop51ColorRGB
 90
-16777216
102
RTVSPost2010PropOp51
 70
     0
102
RTVSPost2010Prop52
140
1.0
102
RTVSPost2010PropOp52
 70
     0
102
RTVSPost2010Prop53
 90
        2
102
RTVSPost2010PropOp53
 70
     1
102
RTVSPost2010Prop54
  1
strokes_ogs.tif
102
RTVSPost2010PropOp54
 70
     1
102
RTVSPost2010Prop55
280
     0
102
RTVSPost2010PropOp55
 70
     1
102
RTVSPost2010Prop56
140
1.0
102
RTVSPost2010PropOp56
 70
     1
102
RTVSPost2010Prop57
140
1.0
102
RTVSPost2010PropOp57
 70
     1
  0
XRECORD
  5
239
102
{ACAD_REACTORS
330
238
102
}
330
238
100
AcDbXrecord
280
     1
102
RTVSPropertyOp0
 70
     1
102
RTVSPropertyOp1
 70
     1
102
RTVSPropertyOp2
 70
     1
102
RTVSPropertyOp3
 70
     1
102
RTVSPropertyOp4
 70
     1
102
RTVSPropertyOp5
 70
     1
102
RTVSPropertyOp6
 70
     1
102
RTVSPropertyOp7
 70
     1
102
RTVSPropertyOp8
 70
     1
102
RTVSPropertyOp9
 70
     1
102
RTVSPropertyOp10
 70
     1
102
RTVSPropertyOp11
 70
     1
102
RTVSPropertyOp12
 70
     1
102
RTVSPropertyOp13
 70
     1
102
RTVSPropertyOp14
 70
     1
102
RTVSPropertyOp15
 70
     1
102
RTVSPropertyOp16
 70
     1
102
RTVSPropertyOp17
 70
     1
102
RTVSPropertyOp18
 70
     1
102
RTVSPropertyOp19
 70
     1
102
RTVSPropertyOp20
 70
     1
102
RTVSPropertyOp21
 70
     1
102
RTVSPropertyOp22
 70
     1
102
RTVSPropertyOp23
 70
     1
102
RTVSPropertyOp24
 70
     1
102
RTVSPropertyOp25
 70
     1
102
RTVSPropertyOp26
 70
     1
102
RTVSPropertyOp27
 70
     1
102
RTVSPropertyOp28
 70
     1
102
RTVSPropertyOp29
 70
     1
102
RTVSPropertyOp30
 70
     1
102
RTVSPropertyOp31
 70
     1
102
RTVSPropertyOp32
 70
     1
102
RTVSPropertyOp33
 70
     1
102
RTVSPropertyOp34
 70
     1
102
RTVSPropertyOp35
 70
     1
102
RTVSPropertyOp36
 70
     1
102
RTVSPropertyOp37
 70
     1
102
RTVSPropertyOp38
 70
     1
102
RTVSPropertyOp39
 70
     1
102
RTVSPropertyOp40
 70
     1
102
RTVSPropertyOp41
 70
     1
102
RTVSPropertyOp42
 70
     1
102
RTVSPropertyOp43
 70
     1
102
RTVSPropertyOp44
 70
     1
102
RTVSPropertyOp45
 70
     1
102
RTVSPropertyOp46
 70
     1
102
RTVSPropertyOp47
 70
     1
102
RTVSPropertyOp48
 70
     1
102
RTVSPropertyOp49
 70
     1
102
RTVSPropertyOp50
 70
     1
102
RTVSPropertyOp51
 70
     0
102
RTVSPropertyOp52
 70
     0
102
RTVSPropertyOp53
 70
     1
102
RTVSPropertyOp54
 70
     1
102
RTVSPropertyOp55
 70
     1
102
RTVSPropertyOp56
 70
     1
102
RTVSPropertyOp57
 70
     1
102
RTVSPost2010Prop28
280
     0
102
RTVSPost2010PropOp28
 70
     1
102
RTVSPost2010Prop29
280
     1
102
RTVSPost2010PropOp29
 70
     1
102
RTVSPost2010Prop30
280
     1
102
RTVSPost2010PropOp30
 70
     1
102
RTVSPost2010Prop31
280
     0
102
RTVSPost2010PropOp31
 70
     1
102
RTVSPost2010Prop32
280
     0
102
RTVSPost2010PropOp32
 70
     1
102
RTVSPost2010Prop33
280
     0
102
RTVSPost2010PropOp33
 70
     1
102
RTVSPost2010Prop34
280
     0
102
RTVSPost2010PropOp34
 70
     1
102
RTVSPost2010Prop35
280
     0
102
RTVSPost2010PropOp35
 70
     1
102
RTVSPost2010Prop36
280
     0
102
RTVSPost2010PropOp36
 70
     1
102
RTVSPost2010Prop37
 90
       50
102
RTVSPost2010PropOp37
 70
     1
102
RTVSPost2010Prop38
140
0.0
102
RTVSPost2010PropOp38
 70
     1
102
RTVSPost2010Prop39
140
1.0
102
RTVSPost2010PropOp39
 70
     1
102
RTVSPost2010Prop40
 90
        0
102
RTVSPost2010PropOp40
 70
     1
102
RTVSPost2010Prop41ColorIndex
 90
       18
102
RTVSPost2010Prop41ColorRGB
 90
        0
102
RTVSPost2010PropOp41
 70
     1
102
RTVSPost2010Prop42
 90
       50
102
RTVSPost2010PropOp42
 70
     1
102
RTVSPost2010Prop43
 90
        3
102
RTVSPost2010PropOp43
 70
     1
102
RTVSPost2010Prop44ColorIndex
 90
        5
102
RTVSPost2010Prop44ColorRGB
 90
      255
102
RTVSPost2010PropOp44
 70
     1
102
RTVSPost2010Prop45
280
     0
102
RTVSPost2010PropOp45
 70
     1
102
RTVSPost2010Prop46
 90
       50
102
RTVSPost2010PropOp46
 70
     1
102
RTVSPost2010Prop47
 90
       50
102
RTVSPost2010PropOp47
 70
     1
102
RTVSPost2010Prop48
 90
       50
102
RTVSPost2010PropOp48
 70
     1
102
RTVSPost2010Prop49
280
     0
102
RTVSPost2010PropOp49
 70
     1
102
RTVSPost2010Prop50
 90
       50
102
RTVSPost2010PropOp50
 70
     1
102
RTVSPost2010Prop51ColorIndex
 90
      256
102
RTVSPost2010Prop51ColorRGB
 90
-16777216
102
RTVSPost2010PropOp51
 70
     0
102
RTVSPost2010Prop52
140
1.0
102
RTVSPost2010PropOp52
 70
     0
102
RTVSPost2010Prop53
 90
        2
102
RTVSPost2010PropOp53
 70
     1
102
RTVSPost2010Prop54
  1
strokes_ogs.tif
102
RTVSPost2010PropOp54
 70
     1
102
RTVSPost2010Prop55
280
     0
102
RTVSPost2010PropOp55
 70
     1
102
RTVSPost2010Prop56
140
1.0
102
RTVSPost2010PropOp56
 70
     1
102
RTVSPost2010Prop57
140
1.0
102
RTVSPost2010PropOp57
 70
     1
  0
ENDSEC
  0
EOF
