  0
SECTION
  2
HEADER
  9
$ACADVER
  1
AC1009
  9
$INSBASE
 10
0.0
 20
0.0
 30
0.0
  9
$EXTMIN
 10
-40.141396
 20
-40.855743
 30
0.0
  9
$EXTMAX
 10
52.025271
 20
14.057189
 30
0.0
  9
$LIMMIN
 10
0.0
 20
0.0
  9
$LIMMAX
 10
297.0
 20
210.0
  9
$ORTHOMODE
 70
     0
  9
$REGENMODE
 70
     1
  9
$FILLMODE
 70
     1
  9
$QTEXTMODE
 70
     0
  9
$MIRRTEXT
 70
     1
  9
$DRAGMODE
 70
     2
  9
$LTSCALE
 40
1.0
  9
$OSMODE
 70
     1
  9
$ATTMODE
 70
     1
  9
$TEXTSIZE
 40
3.5
  9
$TRACEWID
 40
0.05
  9
$TEXTSTYLE
  7
STANDARD
  9
$CLAYER
  8
SEALTXT
  9
$CELTYPE
  6
BYLAYER
  9
$CECOLOR
 62
   256
  9
$DIMSCALE
 40
0.0
  9
$DIMASZ
 40
1.5
  9
$DIMEXO
 40
0.625
  9
$DIMDLI
 40
3.75
  9
$DIMRND
 40
0.0
  9
$DIMDLE
 40
0.0
  9
$DIMEXE
 40
1.25
  9
$DIMTP
 40
0.0
  9
$DIMTM
 40
0.0
  9
$DIMTXT
 40
2.5
  9
$DIMCEN
 40
2.5
  9
$DIMTSZ
 40
0.0
  9
$DIMTOL
 70
     0
  9
$DIMLIM
 70
     0
  9
$DIMTIH
 70
     0
  9
$DIMTOH
 70
     0
  9
$DIMSE1
 70
     0
  9
$DIMSE2
 70
     0
  9
$DIMTAD
 70
     2
  9
$DIMZIN
 70
     0
  9
$DIMBLK
  1

  9
$DIMASO
 70
     1
  9
$DIMSHO
 70
     1
  9
$DIMPOST
  1
mm
  9
$DIMAPOST
  1

  9
$DIMALT
 70
     0
  9
$DIMALTD
 70
     0
  9
$DIMALTF
 40
0.03937
  9
$DIMLFAC
 40
1.0
  9
$DIMTOFL
 70
     0
  9
$DIMTVP
 40
0.0
  9
$DIMTIX
 70
     0
  9
$DIMSOXD
 70
     0
  9
$DIMSAH
 70
     0
  9
$DIMBLK1
  1

  9
$DIMBLK2
  1

  9
$DIMSTYLE
  2
STANDARD
  9
$DIMCLRD
 70
     0
  9
$DIMCLRE
 70
     0
  9
$DIMCLRT
 70
     0
  9
$DIMTFAC
 40
1.0
  9
$DIMGAP
 40
1.0
  9
$LUNITS
 70
     2
  9
$LUPREC
 70
     0
  9
$SKETCHINC
 40
0.1
  9
$FILLETRAD
 40
0.0
  9
$AUNITS
 70
     0
  9
$AUPREC
 70
     0
  9
$MENU
  1
acad
  9
$ELEVATION
 40
0.0
  9
$PELEVATION
 40
0.0
  9
$THICKNESS
 40
0.0
  9
$LIMCHECK
 70
     0
  9
$BLIPMODE
 70
     0
  9
$CHAMFERA
 40
10.0
  9
$CHAMFERB
 40
10.0
  9
$SKPOLY
 70
     0
  9
$TDCREATE
 40
2450705.040790393
  9
$TDUPDATE
 40
2450758.495297569
  9
$TDINDWG
 40
0.0582611111
  9
$TDUSRTIMER
 40
0.0582611111
  9
$USRTIMER
 70
     1
  9
$ANGBASE
 50
0.0
  9
$ANGDIR
 70
     0
  9
$PDMODE
 70
     0
  9
$PDSIZE
 40
0.0
  9
$PLINEWID
 40
0.0
  9
$COORDS
 70
     1
  9
$SPLFRAME
 70
     0
  9
$SPLINETYPE
 70
     6
  9
$SPLINESEGS
 70
     8
  9
$ATTDIA
 70
     0
  9
$ATTREQ
 70
     1
  9
$HANDLING
 70
     1
  9
$HANDSEED
  5
315
  9
$SURFTAB1
 70
     6
  9
$SURFTAB2
 70
     6
  9
$SURFTYPE
 70
     6
  9
$SURFU
 70
     6
  9
$SURFV
 70
     6
  9
$UCSNAME
  2

  9
$UCSORG
 10
0.0
 20
0.0
 30
0.0
  9
$UCSXDIR
 10
1.0
 20
0.0
 30
0.0
  9
$UCSYDIR
 10
0.0
 20
1.0
 30
0.0
  9
$PUCSNAME
  2

  9
$PUCSORG
 10
0.0
 20
0.0
 30
0.0
  9
$PUCSXDIR
 10
1.0
 20
0.0
 30
0.0
  9
$PUCSYDIR
 10
0.0
 20
1.0
 30
0.0
  9
$USERI1
 70
     0
  9
$USERI2
 70
     0
  9
$USERI3
 70
     0
  9
$USERI4
 70
     0
  9
$USERI5
 70
     0
  9
$USERR1
 40
0.0
  9
$USERR2
 40
0.0
  9
$USERR3
 40
0.0
  9
$USERR4
 40
0.0
  9
$USERR5
 40
0.0
  9
$WORLDVIEW
 70
     1
  9
$SHADEDGE
 70
     3
  9
$SHADEDIF
 70
    70
  9
$TILEMODE
 70
     1
  9
$MAXACTVP
 70
    16
  9
$PINSBASE
 10
0.0
 20
0.0
 30
0.0
  9
$PLIMCHECK
 70
     0
  9
$PEXTMIN
 10
1.000000E+20
 20
1.000000E+20
 30
1.000000E+20
  9
$PEXTMAX
 10
-1.000000E+20
 20
-1.000000E+20
 30
-1.000000E+20
  9
$PLIMMIN
 10
0.0
 20
0.0
  9
$PLIMMAX
 10
12.0
 20
9.0
  9
$UNITMODE
 70
     0
  9
$VISRETAIN
 70
     0
  9
$PLINEGEN
 70
     0
  9
$PSLTSCALE
 70
     1
  9
$TREEDEPTH
 70
  3020
  9
$DWGCODEPAGE
  3
dummy
  0
ENDSEC
  0
SECTION
  2
TABLES
  0
TABLE
  2
VPORT
 70
     2
  0
VPORT
  2
*ACTIVE
 70
     0
 10
0.0
 20
0.0
 11
1.0
 21
1.0
 12
5.941866
 22
-7.547542
 13
0.0
 23
0.0
 14
10.0
 24
10.0
 15
10.0
 25
10.0
 16
0.0
 26
0.0
 36
1.0
 17
0.0
 27
0.0
 37
0.0
 40
73.419319
 41
1.456086
 42
50.0
 43
0.0
 44
0.0
 50
0.0
 51
0.0
 71
     0
 72
   100
 73
     1
 74
     0
 75
     0
 76
     0
 77
     0
 78
     0
  0
ENDTAB
  0
TABLE
  2
LTYPE
 70
     1
  0
LTYPE
  2
CONTINUOUS
 70
    64
  3
Solid line
 72
    65
 73
     0
 40
0.0
  0
ENDTAB
  0
TABLE
  2
LAYER
 70
     6
  0
LAYER
  2
0
 70
    64
 62
     7
  6
CONTINUOUS
  0
LAYER
  2
SEALTXT
 70
    64
 62
     7
  6
CONTINUOUS
  0
LAYER
  2
ORIGIN
 70
    64
 62
     6
  6
CONTINUOUS
  0
LAYER
  2
DETAIL
 70
    64
 62
     2
  6
CONTINUOUS
  0
LAYER
  2
DEFPOINTS
 70
    68
 62
     7
  6
CONTINUOUS
  0
LAYER
  2
DIMENSIONS
 70
    64
 62
     7
  6
CONTINUOUS
  0
ENDTAB
  0
TABLE
  2
STYLE
 70
     1
  0
STYLE
  2
STANDARD
 70
    64
 40
0.0
 41
1.0
 50
0.0
 71
     0
 42
3.5
  3
simplex.shx
  4

  0
ENDTAB
  0
TABLE
  2
VIEW
 70
     0
  0
ENDTAB
  0
TABLE
  2
UCS
 70
     0
  0
ENDTAB
  0
TABLE
  2
APPID
 70
     1
  0
APPID
  2
ACAD
 70
    64
  0
ENDTAB
  0
TABLE
  2
DIMSTYLE
 70
     1
  0
DIMSTYLE
  2
STANDARD
 70
    64
  3
mm
  4

  5

  6

  7

 40
0.0
 41
1.5
 42
0.625
 43
3.75
 44
1.25
 45
0.0
 46
0.0
 47
0.0
 48
0.0
140
2.5
141
2.5
142
0.0
143
0.03937
144
1.0
145
0.0
146
1.0
147
1.0
 71
     0
 72
     0
 73
     0
 74
     0
 75
     0
 76
     0
 77
     2
 78
     0
170
     0
171
     0
172
     0
173
     0
174
     0
175
     0
176
     0
177
     0
178
     0
  0
ENDTAB
  0
ENDSEC
  0
SECTION
  2
BLOCKS
  0
BLOCK
  8
0
  5
24
  2
ZPO
 70
    64
 10
0.0
 20
0.0
 30
0.0
  3
ZPO
  0
POLYLINE
  8
ORIGIN
  5
23
 66
     1
 10
0.0
 20
0.0
 30
0.0
 70
     1
  0
VERTEX
  8
ORIGIN
  5
310
 10
10.0
 20
-10.0
 30
0.0
  0
VERTEX
  8
ORIGIN
  5
311
 10
10.0
 20
10.0
 30
0.0
  0
VERTEX
  8
ORIGIN
  5
312
 10
-10.0
 20
-10.0
 30
0.0
  0
VERTEX
  8
ORIGIN
  5
313
 10
-10.0
 20
10.0
 30
0.0
  0
SEQEND
  8
ORIGIN
  5
314
  0
ENDBLK
  8
0
  5
25
  0
BLOCK
  8
0
  5
2F7
  2
*D1
 70
    65
 10
0.0
 20
0.0
 30
0.0
  3
*D1
  0
LINE
  8
0
  6
BYBLOCK
 62
     0
  5
2F8
 10
-0.625
 20
5.971564
 30
0.0
 11
-5.256315
 21
5.971564
 31
0.0
  0
LINE
  8
0
  6
BYBLOCK
 62
     0
  5
2F9
 10
-0.625
 20
0.0
 30
0.0
 11
-5.256315
 21
0.0
 31
0.0
  0
LINE
  8
0
  6
BYBLOCK
 62
     0
  5
2FA
 10
-4.006315
 20
4.471564
 30
0.0
 11
-4.006315
 21
1.5
 31
0.0
  0
TEXT
  8
0
  6
BYBLOCK
 62
     0
  5
2FB
 10
-6.756315
 20
-1.299932
 30
0.0
 40
2.5
  1
6mm
 50
90.0
  0
SOLID
  8
0
  6
BYBLOCK
 62
     0
  5
2FC
 10
-4.256315
 20
4.471564
 30
0.0
 11
-3.756315
 21
4.471564
 31
0.0
 12
-4.006315
 22
5.971564
 32
0.0
 13
-4.006315
 23
5.971564
 33
0.0
  0
SOLID
  8
0
  6
BYBLOCK
 62
     0
  5
2FD
 10
-4.256315
 20
1.5
 30
0.0
 11
-3.756315
 21
1.5
 31
0.0
 12
-4.006315
 22
0.0
 32
0.0
 13
-4.006315
 23
0.0
 33
0.0
  0
POINT
  8
DEFPOINTS
  6
BYBLOCK
 62
     0
  5
2FE
 10
0.0
 20
5.971564
 30
0.0
  0
POINT
  8
DEFPOINTS
  6
BYBLOCK
 62
     0
  5
2FF
 10
0.0
 20
0.0
 30
0.0
  0
POINT
  8
DEFPOINTS
  6
BYBLOCK
 62
     0
  5
300
 10
-4.006315
 20
0.0
 30
0.0
  0
ENDBLK
  8
0
  5
301
  0
BLOCK
  8
0
  5
302
  2
*D2
 70
    65
 10
0.0
 20
0.0
 30
0.0
  3
*D2
  0
LINE
  8
0
  6
BYBLOCK
 62
     0
  5
303
 10
0.0
 20
6.596564
 30
0.0
 11
0.0
 21
10.057189
 31
0.0
  0
LINE
  8
0
  6
BYBLOCK
 62
     0
  5
304
 10
9.0
 20
6.625
 30
0.0
 11
9.0
 21
10.057189
 31
0.0
  0
LINE
  8
0
  6
BYBLOCK
 62
     0
  5
305
 10
1.5
 20
8.807189
 30
0.0
 11
7.5
 21
8.807189
 31
0.0
  0
TEXT
  8
0
  6
BYBLOCK
 62
     0
  5
306
 10
0.214286
 20
11.557189
 30
0.0
 40
2.5
  1
9mm
  0
SOLID
  8
0
  6
BYBLOCK
 62
     0
  5
307
 10
1.5
 20
9.057189
 30
0.0
 11
1.5
 21
8.557189
 31
0.0
 12
0.0
 22
8.807189
 32
0.0
 13
0.0
 23
8.807189
 33
0.0
  0
SOLID
  8
0
  6
BYBLOCK
 62
     0
  5
308
 10
7.5
 20
9.057189
 30
0.0
 11
7.5
 21
8.557189
 31
0.0
 12
9.0
 22
8.807189
 32
0.0
 13
9.0
 23
8.807189
 33
0.0
  0
POINT
  8
DEFPOINTS
  6
BYBLOCK
 62
     0
  5
309
 10
0.0
 20
5.971564
 30
0.0
  0
POINT
  8
DEFPOINTS
  6
BYBLOCK
 62
     0
  5
30A
 10
9.0
 20
6.0
 30
0.0
  0
POINT
  8
DEFPOINTS
  6
BYBLOCK
 62
     0
  5
30B
 10
9.0
 20
8.807189
 30
0.0
  0
ENDBLK
  8
0
  5
30C
  0
ENDSEC
  0
SECTION
  2
ENTITIES
  0
INSERT
  8
0
  6
CONTINUOUS
  5
85
  2
ZPO
 10
0.0
 20
0.0
 30
0.0
 41
0.25
 42
0.25
 43
0.25
  0
LINE
  8
DETAIL
  5
97
 10
0.0
 20
5.971564
 30
0.0
 11
2.227613
 21
5.971564
 31
0.0
  0
LINE
  8
DETAIL
  5
98
 10
2.227613
 20
5.971564
 30
0.0
 11
2.227613
 21
4.962085
 31
0.0
  0
LINE
  8
DETAIL
  5
99
 10
2.227613
 20
4.962085
 30
0.0
 11
3.92071
 21
4.962085
 31
0.0
  0
LINE
  8
DETAIL
  5
9A
 10
3.92071
 20
4.962085
 30
0.0
 11
3.92071
 21
6.0
 31
0.0
  0
LINE
  8
DETAIL
  5
9B
 10
3.92071
 20
6.0
 30
0.0
 11
9.0
 21
6.0
 31
0.0
  0
LINE
  8
DETAIL
  5
9C
 10
9.0
 20
6.0
 30
0.0
 11
9.0
 21
0.0
 31
0.0
  0
LINE
  8
DETAIL
  5
9D
 10
9.0
 20
0.0
 30
0.0
 11
7.833328
 21
0.0
 31
0.0
  0
LINE
  8
DETAIL
  5
9E
 10
7.833328
 20
0.0
 30
0.0
 11
7.833328
 21
3.796209
 31
0.0
  0
LINE
  8
DETAIL
  5
9F
 10
7.833328
 20
3.796209
 30
0.0
 11
6.310964
 21
3.796209
 31
0.0
  0
LINE
  8
DETAIL
  5
A0
 10
6.310964
 20
3.796209
 30
0.0
 11
6.310964
 21
0.0
 31
0.0
  0
LINE
  8
DETAIL
  5
A1
 10
6.310964
 20
0.0
 30
0.0
 11
0.0
 21
0.0
 31
0.0
  0
LINE
  8
DETAIL
  5
A2
 10
0.0
 20
0.0
 30
0.0
 11
0.0
 21
5.971564
 31
0.0
  0
LINE
  8
DETAIL
  5
A3
 10
2.227613
 20
5.075829
 30
0.0
 11
0.953256
 21
5.075829
 31
0.0
  0
LINE
  8
DETAIL
  5
A4
 10
0.953256
 20
5.075829
 30
0.0
 11
0.953256
 21
0.924171
 31
0.0
  0
LINE
  8
DETAIL
  5
A5
 10
0.953256
 20
0.924171
 30
0.0
 11
5.400391
 21
0.924171
 31
0.0
  0
LINE
  8
DETAIL
  5
A6
 10
5.400391
 20
0.924171
 30
0.0
 11
5.400391
 21
5.075829
 31
0.0
  0
LINE
  8
DETAIL
  5
A7
 10
5.400391
 20
5.075829
 30
0.0
 11
3.92071
 21
5.075829
 31
0.0
  0
TEXT
  8
SEALTXT
  5
AA
 10
-40.141396
 20
-28.02241
 30
0.0
 40
3.5
  1
NOTE : 30 minute fire resistance.
  0
TEXT
  8
SEALTXT
  5
AB
 10
-40.141396
 20
-33.855743
 30
0.0
 40
3.5
  1
Always refer to our Intumescent
  0
TEXT
  8
SEALTXT
  5
AC
 10
-40.141396
 20
-39.689076
 30
0.0
 40
3.5
  1
Seals brochure before specifying.
  0
POINT
  8
DEFPOINTS
  6
BYBLOCK
 62
     0
  5
11E
 10
9.0
 20
6.0
 30
0.0
  0
POINT
  8
DEFPOINTS
  6
BYBLOCK
 62
     0
  5
11F
 10
9.0
 20
0.0
 30
0.0
  0
DIMENSION
  8
DIMENSIONS
  5
227
  2
*D1
 10
-4.006315
 20
0.0
 30
0.0
 11
-8.006315
 21
2.985782
 31
0.0
 13
0.0
 23
5.971564
 33
0.0
 14
0.0
 24
0.0
 34
0.0
 50
90.0
  3
STANDARD
1001
ACAD
1000
DSTYLE
1002
{
1070
    40
1040
1.0
1002
}
  0
DIMENSION
  8
DIMENSIONS
  5
292
  2
*D2
 10
9.0
 20
8.807189
 30
0.0
 11
4.5
 21
12.807189
 31
0.0
 13
0.0
 23
5.971564
 33
0.0
 14
9.0
 24
6.0
 34
0.0
  3
STANDARD
1001
ACAD
1000
DSTYLE
1002
{
1070
    40
1040
1.0
1002
}
  0
TEXT
  8
SEALTXT
  5
2BF
 10
-12.808469
 20
-14.106417
 30
0.0
 40
3.5
  1
SEALMASTER
 72
     1
 11
3.441531
 21
-14.106417
 31
0.0
  0
TEXT
  8
SEALTXT
  5
2C0
 10
-1.558469
 20
-20.106417
 30
0.0
 40
3.5
  1
IF30
 72
     1
 11
3.441531
 21
-20.106417
 31
0.0
  0
ENDSEC
  0
EOF
